  0
SECTION
  2
HEADER
  9
$ACADVER
  1
AC1027
  9
$ACADMAINTVER
 70
     8
  9
$DWGCODEPAGE
  3
ANSI_1252
  9
$REQUIREDVERSIONS
160
                 0
  9
$LASTSAVEDBY
  1
cesare
  9
$INSBASE
 10
0.0
 20
0.0
 30
0.0
  9
$EXTMIN
 10
-21.84487185142746
 20
-83.0149180988351
 30
0.0
  9
$EXTMAX
 10
1187.502671861437
 20
455.365606692375
 30
0.0
  9
$LIMMIN
 10
0.0
 20
0.0
  9
$LIMMAX
 10
594.0
 20
420.0
  9
$ORTHOMODE
 70
     1
  9
$REGENMODE
 70
     1
  9
$FILLMODE
 70
     1
  9
$QTEXTMODE
 70
     0
  9
$MIRRTEXT
 70
     1
  9
$LTSCALE
 40
20.0
  9
$ATTMODE
 70
     1
  9
$TEXTSIZE
 40
2.8
  9
$TRACEWID
 40
1.0
  9
$TEXTSTYLE
  7
Standard
  9
$CLAYER
  8
0
  9
$CELTYPE
  6
ByLayer
  9
$CECOLOR
 62
   256
  9
$CELTSCALE
 40
1.0
  9
$DISPSILH
 70
     0
  9
$DIMSCALE
 40
1.0
  9
$DIMASZ
 40
3.2
  9
$DIMEXO
 40
0.1
  9
$DIMDLI
 40
3.75
  9
$DIMRND
 40
0.0
  9
$DIMDLE
 40
0.0
  9
$DIMEXE
 40
1.0
  9
$DIMTP
 40
0.0
  9
$DIMTM
 40
0.0
  9
$DIMTXT
 40
3.2
  9
$DIMCEN
 40
2.5
  9
$DIMTSZ
 40
0.0
  9
$DIMTOL
 70
     0
  9
$DIMLIM
 70
     0
  9
$DIMTIH
 70
     1
  9
$DIMTOH
 70
     1
  9
$DIMSE1
 70
     0
  9
$DIMSE2
 70
     0
  9
$DIMTAD
 70
     1
  9
$DIMZIN
 70
     0
  9
$DIMBLK
  1

  9
$DIMASO
 70
     1
  9
$DIMSHO
 70
     1
  9
$DIMPOST
  1

  9
$DIMAPOST
  1

  9
$DIMALT
 70
     0
  9
$DIMALTD
 70
     3
  9
$DIMALTF
 40
0.0393700787401575
  9
$DIMLFAC
 40
1.0
  9
$DIMTOFL
 70
     1
  9
$DIMTVP
 40
0.0
  9
$DIMTIX
 70
     0
  9
$DIMSOXD
 70
     0
  9
$DIMSAH
 70
     0
  9
$DIMBLK1
  1

  9
$DIMBLK2
  1

  9
$DIMSTYLE
  2
ISO-25
  9
$DIMCLRD
 70
     0
  9
$DIMCLRE
 70
     0
  9
$DIMCLRT
 70
     0
  9
$DIMTFAC
 40
1.0
  9
$DIMGAP
 40
2.0
  9
$DIMJUST
 70
     0
  9
$DIMSD1
 70
     0
  9
$DIMSD2
 70
     0
  9
$DIMTOLJ
 70
     0
  9
$DIMTZIN
 70
     0
  9
$DIMALTZ
 70
     0
  9
$DIMALTTZ
 70
     0
  9
$DIMUPT
 70
     0
  9
$DIMDEC
 70
     2
  9
$DIMTDEC
 70
     2
  9
$DIMALTU
 70
     2
  9
$DIMALTTD
 70
     3
  9
$DIMTXSTY
  7
Standard
  9
$DIMAUNIT
 70
     0
  9
$DIMADEC
 70
     2
  9
$DIMALTRND
 40
0.0
  9
$DIMAZIN
 70
     0
  9
$DIMDSEP
 70
    44
  9
$DIMATFIT
 70
     3
  9
$DIMFRAC
 70
     0
  9
$DIMLDRBLK
  1

  9
$DIMLUNIT
 70
     2
  9
$DIMLWD
 70
    -2
  9
$DIMLWE
 70
    -2
  9
$DIMTMOVE
 70
     0
  9
$DIMFXL
 40
1.0
  9
$DIMFXLON
 70
     0
  9
$DIMJOGANG
 40
0.7853981633974483
  9
$DIMTFILL
 70
     0
  9
$DIMTFILLCLR
 70
     0
  9
$DIMARCSYM
 70
     0
  9
$DIMLTYPE
  6

  9
$DIMLTEX1
  6

  9
$DIMLTEX2
  6

  9
$DIMTXTDIRECTION
 70
     0
  9
$LUNITS
 70
     2
  9
$LUPREC
 70
     2
  9
$SKETCHINC
 40
1.0
  9
$FILLETRAD
 40
10.0
  9
$AUNITS
 70
     0
  9
$AUPREC
 70
     2
  9
$MENU
  1
.
  9
$ELEVATION
 40
0.0
  9
$PELEVATION
 40
0.0
  9
$THICKNESS
 40
0.0
  9
$LIMCHECK
 70
     0
  9
$CHAMFERA
 40
0.0
  9
$CHAMFERB
 40
0.0
  9
$CHAMFERC
 40
0.0
  9
$CHAMFERD
 40
0.0
  9
$SKPOLY
 70
     0
  9
$TDCREATE
 40
2457807.560212257
  9
$TDUCREATE
 40
2457807.51854559
  9
$TDUPDATE
 40
2457807.567956088
  9
$TDUUPDATE
 40
2457807.526289421
  9
$TDINDWG
 40
0.0003332523
  9
$TDUSRTIMER
 40
2457807.52595537
  9
$USRTIMER
 70
     1
  9
$ANGBASE
 50
0.0
  9
$ANGDIR
 70
     0
  9
$PDMODE
 70
     0
  9
$PDSIZE
 40
-1.0
  9
$PLINEWID
 40
0.0
  9
$SPLFRAME
 70
     0
  9
$SPLINETYPE
 70
     6
  9
$SPLINESEGS
 70
     8
  9
$HANDSEED
  5
5ED
  9
$SURFTAB1
 70
     6
  9
$SURFTAB2
 70
     6
  9
$SURFTYPE
 70
     6
  9
$SURFU
 70
     6
  9
$SURFV
 70
     6
  9
$UCSBASE
  2

  9
$UCSNAME
  2

  9
$UCSORG
 10
0.0
 20
0.0
 30
0.0
  9
$UCSXDIR
 10
1.0
 20
0.0
 30
0.0
  9
$UCSYDIR
 10
0.0
 20
1.0
 30
0.0
  9
$UCSORTHOREF
  2

  9
$UCSORTHOVIEW
 70
     0
  9
$UCSORGTOP
 10
0.0
 20
0.0
 30
0.0
  9
$UCSORGBOTTOM
 10
0.0
 20
0.0
 30
0.0
  9
$UCSORGLEFT
 10
0.0
 20
0.0
 30
0.0
  9
$UCSORGRIGHT
 10
0.0
 20
0.0
 30
0.0
  9
$UCSORGFRONT
 10
0.0
 20
0.0
 30
0.0
  9
$UCSORGBACK
 10
0.0
 20
0.0
 30
0.0
  9
$PUCSBASE
  2

  9
$PUCSNAME
  2

  9
$PUCSORG
 10
0.0
 20
0.0
 30
0.0
  9
$PUCSXDIR
 10
1.0
 20
0.0
 30
0.0
  9
$PUCSYDIR
 10
0.0
 20
1.0
 30
0.0
  9
$PUCSORTHOREF
  2

  9
$PUCSORTHOVIEW
 70
     0
  9
$PUCSORGTOP
 10
0.0
 20
0.0
 30
0.0
  9
$PUCSORGBOTTOM
 10
0.0
 20
0.0
 30
0.0
  9
$PUCSORGLEFT
 10
0.0
 20
0.0
 30
0.0
  9
$PUCSORGRIGHT
 10
0.0
 20
0.0
 30
0.0
  9
$PUCSORGFRONT
 10
0.0
 20
0.0
 30
0.0
  9
$PUCSORGBACK
 10
0.0
 20
0.0
 30
0.0
  9
$USERI1
 70
     0
  9
$USERI2
 70
     0
  9
$USERI3
 70
     0
  9
$USERI4
 70
     0
  9
$USERI5
 70
     0
  9
$USERR1
 40
0.0
  9
$USERR2
 40
0.0
  9
$USERR3
 40
0.0
  9
$USERR4
 40
0.0
  9
$USERR5
 40
0.0
  9
$WORLDVIEW
 70
     1
  9
$SHADEDGE
 70
     3
  9
$SHADEDIF
 70
    70
  9
$TILEMODE
 70
     1
  9
$MAXACTVP
 70
    64
  9
$PINSBASE
 10
0.0
 20
0.0
 30
0.0
  9
$PLIMCHECK
 70
     0
  9
$PEXTMIN
 10
1.000000000000000E+20
 20
1.000000000000000E+20
 30
1.000000000000000E+20
  9
$PEXTMAX
 10
-1.000000000000000E+20
 20
-1.000000000000000E+20
 30
-1.000000000000000E+20
  9
$PLIMMIN
 10
0.0
 20
0.0
  9
$PLIMMAX
 10
0.0
 20
0.0
  9
$UNITMODE
 70
     0
  9
$VISRETAIN
 70
     1
  9
$PLINEGEN
 70
     0
  9
$PSLTSCALE
 70
     1
  9
$TREEDEPTH
 70
  3020
  9
$CMLSTYLE
  2
Standard
  9
$CMLJUST
 70
     0
  9
$CMLSCALE
 40
20.0
  9
$PROXYGRAPHICS
 70
     1
  9
$MEASUREMENT
 70
     1
  9
$CELWEIGHT
370
    -1
  9
$ENDCAPS
280
     0
  9
$JOINSTYLE
280
     0
  9
$LWDISPLAY
290
     1
  9
$INSUNITS
 70
     4
  9
$HYPERLINKBASE
  1

  9
$STYLESHEET
  1

  9
$XEDIT
290
     1
  9
$CEPSNTYPE
380
     0
  9
$PSTYLEMODE
290
     1
  9
$FINGERPRINTGUID
  2
{89A6B303-8CA7-4CDB-9721-B2B87F54137A}
  9
$VERSIONGUID
  2
{FAEB1C32-E019-11D5-929B-00C0DF256EC4}
  9
$EXTNAMES
290
     1
  9
$PSVPSCALE
 40
0.0
  9
$OLESTARTUP
290
     0
  9
$SORTENTS
280
   127
  9
$INDEXCTL
280
     0
  9
$HIDETEXT
280
     1
  9
$XCLIPFRAME
280
     2
  9
$HALOGAP
280
     0
  9
$OBSCOLOR
 70
   257
  9
$OBSLTYPE
280
     0
  9
$INTERSECTIONDISPLAY
280
     0
  9
$INTERSECTIONCOLOR
 70
   257
  9
$DIMASSOC
280
     2
  9
$PROJECTNAME
  1

  9
$CAMERADISPLAY
290
     0
  9
$LENSLENGTH
 40
50.0
  9
$CAMERAHEIGHT
 40
0.0
  9
$STEPSPERSEC
 40
2.0
  9
$STEPSIZE
 40
6.0
  9
$3DDWFPREC
 40
2.0
  9
$PSOLWIDTH
 40
0.25
  9
$PSOLHEIGHT
 40
4.0
  9
$LOFTANG1
 40
1.570796326794897
  9
$LOFTANG2
 40
1.570796326794897
  9
$LOFTMAG1
 40
0.0
  9
$LOFTMAG2
 40
0.0
  9
$LOFTPARAM
 70
     7
  9
$LOFTNORMALS
280
     1
  9
$LATITUDE
 40
37.795
  9
$LONGITUDE
 40
-122.394
  9
$NORTHDIRECTION
 40
0.0
  9
$TIMEZONE
 70
 -8000
  9
$LIGHTGLYPHDISPLAY
280
     1
  9
$TILEMODELIGHTSYNCH
280
     1
  9
$SOLIDHIST
280
     0
  9
$SHOWHIST
280
     1
  9
$DWFFRAME
280
     2
  9
$DGNFRAME
280
     2
  9
$REALWORLDSCALE
290
     1
  9
$INTERFERECOLOR
 62
   256
  9
$CSHADOW
280
     0
  9
$SHADOWPLANELOCATION
 40
0.0
  0
ENDSEC
  0
SECTION
  2
CLASSES
  0
CLASS
  1
ACDBDICTIONARYWDFLT
  2
AcDbDictionaryWithDefault
  3
ObjectDBX Classes
 90
        0
 91
        5
280
     0
281
     0
  0
CLASS
  1
VISUALSTYLE
  2
AcDbVisualStyle
  3
ObjectDBX Classes
 90
     4095
 91
        5
280
     0
281
     0
  0
CLASS
  1
MATERIAL
  2
AcDbMaterial
  3
ObjectDBX Classes
 90
     1153
 91
        5
280
     0
281
     0
  0
CLASS
  1
SCALE
  2
AcDbScale
  3
ObjectDBX Classes
 90
     1153
 91
        5
280
     0
281
     0
  0
CLASS
  1
TABLESTYLE
  2
AcDbTableStyle
  3
ObjectDBX Classes
 90
     4095
 91
        5
280
     0
281
     0
  0
CLASS
  1
MLEADERSTYLE
  2
AcDbMLeaderStyle
  3
ACDB_MLEADERSTYLE_CLASS
 90
     4095
 91
        5
280
     0
281
     0
  0
CLASS
  1
SUN
  2
AcDbSun
  3
SCENEOE
 90
     1153
 91
        5
280
     0
281
     0
  0
CLASS
  1
ACDBPLACEHOLDER
  2
AcDbPlaceHolder
  3
ObjectDBX Classes
 90
        0
 91
        1
280
     0
281
     0
  0
CLASS
  1
LAYOUT
  2
AcDbLayout
  3
ObjectDBX Classes
 90
        0
 91
        1
280
     0
281
     0
  0
CLASS
  1
RASTERVARIABLES
  2
AcDbRasterVariables
  3
ISM
 90
        0
 91
        5
280
     0
281
     0
  0
CLASS
  1
DICTIONARYVAR
  2
AcDbDictionaryVar
  3
ObjectDBX Classes
 90
        0
 91
        5
280
     0
281
     0
  0
CLASS
  1
DIMASSOC
  2
AcDbDimAssoc
  3
"AcDbDimAssoc|Product Desc:     AcDim ARX App For Dimension|Company:          Autodesk, Inc.|WEB Address:      www.autodesk.com"
 90
        0
 91
        5
280
     0
281
     0
  0
CLASS
  1
CELLSTYLEMAP
  2
AcDbCellStyleMap
  3
ObjectDBX Classes
 90
     1152
 91
        5
280
     0
281
     0
  0
ENDSEC
  0
SECTION
  2
TABLES
  0
TABLE
  2
VPORT
  5
8
330
0
100
AcDbSymbolTable
 70
     1
  0
VPORT
  5
29
330
8
100
AcDbSymbolTableRecord
100
AcDbViewportTableRecord
  2
*Active
 70
     0
 10
0.0
 20
0.0
 11
1.0
 21
1.0
 12
582.8289000050048
 22
186.1753442967699
 13
0.0
 23
0.0
 14
10.0
 24
10.0
 15
10.0
 25
10.0
 16
0.0
 26
0.0
 36
1.0
 17
0.0
 27
0.0
 37
0.0
 40
587.286548680787
 41
2.100396301188904
 42
50.0
 43
0.0
 44
0.0
 50
0.0
 51
0.0
 71
    16
 72
  2000
 73
     1
 74
     3
 75
     0
 76
     0
 77
     0
 78
     0
281
     0
 65
     1
110
0.0
120
0.0
130
0.0
111
1.0
121
0.0
131
0.0
112
0.0
122
1.0
132
0.0
 79
     0
146
0.0
348
2C0
 60
     3
 61
     5
292
     1
282
     1
141
0.0
142
0.0
 63
   256
361
2DD
  0
ENDTAB
  0
TABLE
  2
LTYPE
  5
5
330
0
100
AcDbSymbolTable
 70
     6
  0
LTYPE
  5
14
330
5
100
AcDbSymbolTableRecord
100
AcDbLinetypeTableRecord
  2
ByBlock
 70
     0
  3

 72
    65
 73
     0
 40
0.0
  0
LTYPE
  5
15
330
5
100
AcDbSymbolTableRecord
100
AcDbLinetypeTableRecord
  2
ByLayer
 70
     0
  3

 72
    65
 73
     0
 40
0.0
  0
LTYPE
  5
16
330
5
100
AcDbSymbolTableRecord
100
AcDbLinetypeTableRecord
  2
Continuous
 70
     0
  3
Solid line
 72
    65
 73
     0
 40
0.0
  0
LTYPE
  5
6E
330
5
100
AcDbSymbolTableRecord
100
AcDbLinetypeTableRecord
  2
HIDDEN
 70
     0
  3
Hidden __ __ __ __ __ __ __ __ __ __ __ __ __ __
 72
    65
 73
     2
 40
1.905
 49
1.27
 74
     0
 49
-0.635
 74
     0
  0
LTYPE
  5
6F
330
5
100
AcDbSymbolTableRecord
100
AcDbLinetypeTableRecord
  2
PHANTOM
 70
     0
  3
Phantom ______  __  __  ______  __  __  ______
 72
    65
 73
     6
 40
12.7
 49
6.35
 74
     0
 49
-1.27
 74
     0
 49
1.27
 74
     0
 49
-1.27
 74
     0
 49
1.27
 74
     0
 49
-1.27
 74
     0
  0
LTYPE
  5
70
330
5
100
AcDbSymbolTableRecord
100
AcDbLinetypeTableRecord
  2
CENTER
 70
     0
  3
Center ____ _ ____ _ ____ _ ____ _ ____ _ ____
 72
    65
 73
     4
 40
10.16
 49
6.35
 74
     0
 49
-1.27
 74
     0
 49
1.27
 74
     0
 49
-1.27
 74
     0
  0
LTYPE
  5
71
330
5
100
AcDbSymbolTableRecord
100
AcDbLinetypeTableRecord
  2
CENTERX2
 70
     0
  3
Center (2x) ________  __  ________  __  _____
 72
    65
 73
     4
 40
20.32
 49
12.7
 74
     0
 49
-2.54
 74
     0
 49
2.54
 74
     0
 49
-2.54
 74
     0
  0
LTYPE
  5
72
330
5
100
AcDbSymbolTableRecord
100
AcDbLinetypeTableRecord
  2
DOT2
 70
     0
  3
Dot (.5x) ........................................
 72
    65
 73
     2
 40
0.635
 49
0.0
 74
     0
 49
-0.635
 74
     0
  0
ENDTAB
  0
TABLE
  2
LAYER
  5
2
330
0
100
AcDbSymbolTable
 70
     3
  0
LAYER
  5
10
330
2
100
AcDbSymbolTableRecord
100
AcDbLayerTableRecord
  2
0
 70
     0
 62
     7
  6
Continuous
370
    -3
390
F
347
2D7
348
0
  0
LAYER
  5
73
330
2
100
AcDbSymbolTableRecord
100
AcDbLayerTableRecord
  2
FORMAT
 70
     0
 62
     7
  6
Continuous
370
    -3
390
F
347
2D7
348
0
  0
LAYER
  5
2E7
330
2
100
AcDbSymbolTableRecord
100
AcDbLayerTableRecord
  2
Defpoints
 70
     0
 62
     7
  6
Continuous
290
     0
370
    -3
390
F
347
2D7
348
0
  0
ENDTAB
  0
TABLE
  2
STYLE
  5
3
330
0
100
AcDbSymbolTable
 70
     1
  0
STYLE
  5
11
330
3
100
AcDbSymbolTableRecord
100
AcDbTextStyleTableRecord
  2
Standard
 70
     0
 40
0.0
 41
1.0
 50
0.0
 71
     0
 42
2.8
  3
txt
  4

  0
ENDTAB
  0
TABLE
  2
VIEW
  5
6
330
0
100
AcDbSymbolTable
 70
     0
  0
ENDTAB
  0
TABLE
  2
UCS
  5
7
330
0
100
AcDbSymbolTable
 70
     0
  0
ENDTAB
  0
TABLE
  2
APPID
  5
9
330
0
100
AcDbSymbolTable
 70
     1
  0
APPID
  5
12
330
9
100
AcDbSymbolTableRecord
100
AcDbRegAppTableRecord
  2
ACAD
 70
     0
  0
ENDTAB
  0
TABLE
  2
DIMSTYLE
  5
A
330
0
100
AcDbSymbolTable
 70
     1
100
AcDbDimStyleTable
  0
DIMSTYLE
105
27
102
{ACAD_REACTORS
330
30A
330
31B
330
330
330
333
330
5C5
330
5C7
102
}
330
A
100
AcDbSymbolTableRecord
100
AcDbDimStyleTableRecord
  2
ISO-25
 70
     0
 41
2.5
 42
0.625
 43
3.75
 44
1.25
 73
     0
 74
     0
 77
     1
 78
     8
140
2.5
141
2.5
143
0.03937007874016
147
0.625
171
     3
172
     1
178
     0
271
     2
272
     2
274
     3
278
    44
283
     0
284
     8
340
11
  0
ENDTAB
  0
TABLE
  2
BLOCK_RECORD
  5
1
330
0
100
AcDbSymbolTable
 70
     9
  0
BLOCK_RECORD
  5
1F
330
1
100
AcDbSymbolTableRecord
100
AcDbBlockTableRecord
  2
*Model_Space
340
22
 70
     0
280
     1
281
     0
  0
BLOCK_RECORD
  5
1B
330
1
100
AcDbSymbolTableRecord
100
AcDbBlockTableRecord
  2
*Paper_Space
340
1E
 70
     0
280
     1
281
     0
  0
BLOCK_RECORD
  5
23
330
1
100
AcDbSymbolTableRecord
100
AcDbBlockTableRecord
  2
*Paper_Space0
340
26
 70
     0
280
     1
281
     0
  0
BLOCK_RECORD
  5
30D
330
1
100
AcDbSymbolTableRecord
100
AcDbBlockTableRecord
  2
*D2
340
0
 70
     0
280
     1
281
     0
  0
BLOCK_RECORD
  5
31E
330
1
100
AcDbSymbolTableRecord
100
AcDbBlockTableRecord
  2
*D3
340
0
 70
     0
280
     1
281
     0
  0
BLOCK_RECORD
  5
336
330
1
100
AcDbSymbolTableRecord
100
AcDbBlockTableRecord
  2
*D4
340
0
 70
     0
280
     1
281
     0
  0
BLOCK_RECORD
  5
344
330
1
100
AcDbSymbolTableRecord
100
AcDbBlockTableRecord
  2
*D5
340
0
 70
     0
280
     1
281
     0
  0
BLOCK_RECORD
  5
5CD
330
1
100
AcDbSymbolTableRecord
100
AcDbBlockTableRecord
  2
*D7
340
0
 70
     0
280
     1
281
     0
  0
BLOCK_RECORD
  5
5DB
330
1
100
AcDbSymbolTableRecord
100
AcDbBlockTableRecord
  2
*D8
340
0
 70
     0
280
     1
281
     0
  0
ENDTAB
  0
ENDSEC
  0
SECTION
  2
BLOCKS
  0
BLOCK
  5
20
330
1F
100
AcDbEntity
  8
0
100
AcDbBlockBegin
  2
*Model_Space
 70
     0
 10
0.0
 20
0.0
 30
0.0
  3
*Model_Space
  1
*Model_Space
  0
ENDBLK
  5
21
330
1F
100
AcDbEntity
  8
0
100
AcDbBlockEnd
  0
BLOCK
  5
1C
330
1B
100
AcDbEntity
 67
     1
  8
0
100
AcDbBlockBegin
  2
*Paper_Space
 70
     0
 10
0.0
 20
0.0
 30
0.0
  3
*Paper_Space
  1
*Paper_Space
  0
ENDBLK
  5
1D
330
1B
100
AcDbEntity
 67
     1
  8
0
100
AcDbBlockEnd
  0
BLOCK
  5
24
330
23
100
AcDbEntity
  8
0
100
AcDbBlockBegin
  2
*Paper_Space0
 70
     0
 10
0.0
 20
0.0
 30
0.0
  3
*Paper_Space0
  1
*Paper_Space0
  0
ENDBLK
  5
25
330
23
100
AcDbEntity
  8
0
100
AcDbBlockEnd
  0
BLOCK
  5
30E
330
30D
100
AcDbEntity
  8
0
100
AcDbBlockBegin
  2
*D2
 70
     1
 10
0.0
 20
0.0
 30
0.0
  3
*D2
  1
*D2
  0
LINE
  5
30F
330
30D
100
AcDbEntity
  8
0
 62
     1
370
    -2
100
AcDbLine
 10
77.60000059604644
 20
-152.3315411627138
 30
0.0
 11
94.74073443654976
 21
-152.3315411627138
 31
0.0
  0
LINE
  5
310
330
30D
100
AcDbEntity
  8
0
 62
     1
370
    -2
100
AcDbLine
 10
78.59999889731407
 20
-142.3315407896027
 30
0.0
 11
94.74073443654976
 21
-142.3315407896027
 31
0.0
  0
LINE
  5
311
330
30D
100
AcDbEntity
  8
0
 62
     1
370
    -2
100
AcDbLine
 10
93.74073443654976
 20
-152.3315411627138
 30
0.0
 11
93.74073443654976
 21
-142.3315407896027
 31
0.0
  0
LINE
  5
312
330
30D
100
AcDbEntity
  8
0
 62
     1
370
    -2
100
AcDbLine
 10
93.74073443654976
 20
-155.5315411627138
 30
0.0
 11
93.74073443654976
 21
-158.7315411627137
 31
0.0
  0
LINE
  5
313
330
30D
100
AcDbEntity
  8
0
 62
     1
370
    -2
100
AcDbLine
 10
93.74073443654976
 20
-139.1315407896027
 30
0.0
 11
93.74073443654976
 21
-135.9315407896027
 31
0.0
  0
SOLID
  5
314
330
30D
100
AcDbEntity
  8
0
 62
     1
100
AcDbTrace
 10
94.27406776988309
 20
-155.5315411627138
 30
0.0
 11
93.20740110321643
 21
-155.5315411627138
 31
0.0
 12
93.74073443654976
 22
-152.3315411627138
 32
0.0
 13
93.74073443654976
 23
-152.3315411627138
 33
0.0
  0
SOLID
  5
315
330
30D
100
AcDbEntity
  8
0
 62
     1
100
AcDbTrace
 10
93.20740110321643
 20
-139.1315407896027
 30
0.0
 11
94.27406776988309
 21
-139.1315407896027
 31
0.0
 12
93.74073443654976
 22
-142.3315407896027
 32
0.0
 13
93.74073443654976
 23
-142.3315407896027
 33
0.0
  0
MTEXT
  5
316
330
30D
100
AcDbEntity
  8
0
 62
     0
100
AcDbMText
 10
90.14073443654976
 20
-147.3315409761582
 30
0.0
 40
3.2
 41
0.0
 46
0.0
 71
     5
 72
     1
  1
10
 11
0.0
 21
1.0
 31
0.0
 73
     1
 44
1.0
  0
POINT
  5
317
330
30D
100
AcDbEntity
  8
Defpoints
 62
     0
100
AcDbPoint
 10
77.50000059604645
 20
-152.3315411627138
 30
0.0
  0
POINT
  5
318
330
30D
100
AcDbEntity
  8
Defpoints
 62
     0
100
AcDbPoint
 10
78.49999889731407
 20
-142.3315407896027
 30
0.0
  0
POINT
  5
319
330
30D
100
AcDbEntity
  8
Defpoints
 62
     0
100
AcDbPoint
 10
93.74073443654976
 20
-142.3315407896027
 30
0.0
  0
ENDBLK
  5
31A
330
30D
100
AcDbEntity
  8
0
100
AcDbBlockEnd
  0
BLOCK
  5
31F
330
31E
100
AcDbEntity
  8
0
100
AcDbBlockBegin
  2
*D3
 70
     1
 10
0.0
 20
0.0
 30
0.0
  3
*D3
  1
*D3
  0
LINE
  5
320
330
31E
100
AcDbEntity
  8
0
 62
     1
370
    -2
100
AcDbLine
 10
78.59999889731407
 20
-142.3315407896027
 30
0.0
 11
105.2384507347357
 21
-142.3315407896027
 31
0.0
  0
LINE
  5
321
330
31E
100
AcDbEntity
  8
0
 62
     1
370
    -2
100
AcDbLine
 10
77.60000059604644
 20
-154.3315411267414
 30
0.0
 11
105.2384507347357
 21
-154.3315411267414
 31
0.0
  0
LINE
  5
322
330
31E
100
AcDbEntity
  8
0
 62
     1
370
    -2
100
AcDbLine
 10
104.2384507347357
 20
-142.3315407896027
 30
0.0
 11
104.2384507347357
 21
-154.3315411267414
 31
0.0
  0
LINE
  5
323
330
31E
100
AcDbEntity
  8
0
 62
     1
370
    -2
100
AcDbLine
 10
104.2384507347357
 20
-139.1315407896027
 30
0.0
 11
104.2384507347357
 21
-135.9315407896027
 31
0.0
  0
LINE
  5
324
330
31E
100
AcDbEntity
  8
0
 62
     1
370
    -2
100
AcDbLine
 10
104.2384507347357
 20
-157.5315411267414
 30
0.0
 11
104.2384507347357
 21
-160.7315411267414
 31
0.0
  0
SOLID
  5
325
330
31E
100
AcDbEntity
  8
0
 62
     1
100
AcDbTrace
 10
103.7051174014024
 20
-139.1315407896027
 30
0.0
 11
104.7717840680691
 21
-139.1315407896027
 31
0.0
 12
104.2384507347357
 22
-142.3315407896027
 32
0.0
 13
104.2384507347357
 23
-142.3315407896027
 33
0.0
  0
SOLID
  5
326
330
31E
100
AcDbEntity
  8
0
 62
     1
100
AcDbTrace
 10
104.7717840680691
 20
-157.5315411267414
 30
0.0
 11
103.7051174014024
 21
-157.5315411267414
 31
0.0
 12
104.2384507347357
 22
-154.3315411267414
 32
0.0
 13
104.2384507347357
 23
-154.3315411267414
 33
0.0
  0
MTEXT
  5
327
330
31E
100
AcDbEntity
  8
0
 62
     0
100
AcDbMText
 10
100.6384507347358
 20
-148.331540958172
 30
0.0
 40
3.2
 41
0.0
 46
0.0
 71
     5
 72
     1
  1
12
 11
0.0
 21
1.0
 31
0.0
 73
     1
 44
1.0
  0
POINT
  5
328
330
31E
100
AcDbEntity
  8
Defpoints
 62
     0
100
AcDbPoint
 10
78.49999889731407
 20
-142.3315407896027
 30
0.0
  0
POINT
  5
329
330
31E
100
AcDbEntity
  8
Defpoints
 62
     0
100
AcDbPoint
 10
77.50000059604645
 20
-154.3315411267414
 30
0.0
  0
POINT
  5
32A
330
31E
100
AcDbEntity
  8
Defpoints
 62
     0
100
AcDbPoint
 10
104.2384507347357
 20
-154.3315411267414
 30
0.0
  0
ENDBLK
  5
32B
330
31E
100
AcDbEntity
  8
0
100
AcDbBlockEnd
  0
BLOCK
  5
337
330
336
100
AcDbEntity
  8
0
100
AcDbBlockBegin
  2
*D4
 70
     1
 10
0.0
 20
0.0
 30
0.0
  3
*D4
  1
*D4
  0
LINE
  5
339
330
336
100
AcDbEntity
  8
0
 62
     1
370
    -2
100
AcDbLine
 10
385.1792558437548
 20
81.13838972572523
 30
0.0
 11
412.4332893091002
 21
81.13838972572523
 31
0.0
  0
LINE
  5
33A
330
336
100
AcDbEntity
  8
0
 62
     1
370
    -2
100
AcDbLine
 10
387.2792561715804
 20
91.03839003587893
 30
0.0
 11
412.4332893091002
 21
91.03839003587893
 31
0.0
  0
LINE
  5
33B
330
336
100
AcDbEntity
  8
0
 62
     1
370
    -2
100
AcDbLine
 10
411.4332893091002
 20
81.13838972572523
 30
0.0
 11
411.4332893091002
 21
91.03839003587893
 31
0.0
  0
LINE
  5
33C
330
336
100
AcDbEntity
  8
0
 62
     1
370
    -2
100
AcDbLine
 10
411.4332893091002
 20
77.93838972572523
 30
0.0
 11
411.4332893091002
 21
74.73838972572523
 31
0.0
  0
LINE
  5
33D
330
336
100
AcDbEntity
  8
0
 62
     1
370
    -2
100
AcDbLine
 10
411.4332893091002
 20
94.23839003587894
 30
0.0
 11
411.4332893091002
 21
97.43839003587894
 31
0.0
  0
SOLID
  5
33E
330
336
100
AcDbEntity
  8
0
 62
     1
100
AcDbTrace
 10
411.9666226424335
 20
77.93838972572523
 30
0.0
 11
410.8999559757668
 21
77.93838972572523
 31
0.0
 12
411.4332893091002
 22
81.13838972572523
 32
0.0
 13
411.4332893091002
 23
81.13838972572523
 33
0.0
  0
SOLID
  5
33F
330
336
100
AcDbEntity
  8
0
 62
     1
100
AcDbTrace
 10
410.8999559757668
 20
94.23839003587894
 30
0.0
 11
411.9666226424335
 21
94.23839003587894
 31
0.0
 12
411.4332893091002
 22
91.03839003587893
 32
0.0
 13
411.4332893091002
 23
91.03839003587893
 33
0.0
  0
MTEXT
  5
340
330
336
100
AcDbEntity
  8
0
 62
     0
100
AcDbMText
 10
407.8332893091002
 20
86.08838988080208
 30
0.0
 40
3.2
 41
0.0
 46
0.0
 71
     5
 72
     1
  1
10
 11
0.0
 21
1.0
 31
0.0
 73
     1
 44
1.0
  0
POINT
  5
341
330
336
100
AcDbEntity
  8
Defpoints
 62
     0
100
AcDbPoint
 10
385.0792558437548
 20
81.13838972572523
 30
0.0
  0
POINT
  5
342
330
336
100
AcDbEntity
  8
Defpoints
 62
     0
100
AcDbPoint
 10
387.1792561715803
 20
91.03839003587893
 30
0.0
  0
POINT
  5
343
330
336
100
AcDbEntity
  8
Defpoints
 62
     0
100
AcDbPoint
 10
411.4332893091002
 20
91.03839003587893
 30
0.0
  0
ENDBLK
  5
338
330
336
100
AcDbEntity
  8
0
100
AcDbBlockEnd
  0
BLOCK
  5
345
330
344
100
AcDbEntity
  8
0
100
AcDbBlockBegin
  2
*D5
 70
     1
 10
0.0
 20
0.0
 30
0.0
  3
*D5
  1
*D5
  0
LINE
  5
347
330
344
100
AcDbEntity
  8
0
 62
     1
370
    -2
100
AcDbLine
 10
387.2792561715804
 20
91.03839003587893
 30
0.0
 11
422.6724885059298
 21
91.03839003587893
 31
0.0
  0
LINE
  5
348
330
344
100
AcDbEntity
  8
0
 62
     1
370
    -2
100
AcDbLine
 10
385.1792558437548
 20
79.13838976169757
 30
0.0
 11
422.6724885059298
 21
79.13838976169757
 31
0.0
  0
LINE
  5
349
330
344
100
AcDbEntity
  8
0
 62
     1
370
    -2
100
AcDbLine
 10
421.6724885059298
 20
91.03839003587893
 30
0.0
 11
421.6724885059298
 21
79.13838976169757
 31
0.0
  0
LINE
  5
34A
330
344
100
AcDbEntity
  8
0
 62
     1
370
    -2
100
AcDbLine
 10
421.6724885059298
 20
94.23839003587894
 30
0.0
 11
421.6724885059298
 21
97.43839003587894
 31
0.0
  0
LINE
  5
34B
330
344
100
AcDbEntity
  8
0
 62
     1
370
    -2
100
AcDbLine
 10
421.6724885059298
 20
75.93838976169756
 30
0.0
 11
421.6724885059298
 21
72.73838976169756
 31
0.0
  0
SOLID
  5
34C
330
344
100
AcDbEntity
  8
0
 62
     1
100
AcDbTrace
 10
421.1391551725964
 20
94.23839003587894
 30
0.0
 11
422.2058218392631
 21
94.23839003587894
 31
0.0
 12
421.6724885059298
 22
91.03839003587893
 32
0.0
 13
421.6724885059298
 23
91.03839003587893
 33
0.0
  0
SOLID
  5
34D
330
344
100
AcDbEntity
  8
0
 62
     1
100
AcDbTrace
 10
422.2058218392631
 20
75.93838976169756
 30
0.0
 11
421.1391551725964
 21
75.93838976169756
 31
0.0
 12
421.6724885059298
 22
79.13838976169757
 32
0.0
 13
421.6724885059298
 23
79.13838976169757
 33
0.0
  0
MTEXT
  5
34E
330
344
100
AcDbEntity
  8
0
 62
     0
100
AcDbMText
 10
418.0724885059298
 20
85.08838989878825
 30
0.0
 40
3.2
 41
0.0
 46
0.0
 71
     5
 72
     1
  1
12
 11
0.0
 21
1.0
 31
0.0
 73
     1
 44
1.0
  0
POINT
  5
34F
330
344
100
AcDbEntity
  8
Defpoints
 62
     0
100
AcDbPoint
 10
387.1792561715803
 20
91.03839003587893
 30
0.0
  0
POINT
  5
350
330
344
100
AcDbEntity
  8
Defpoints
 62
     0
100
AcDbPoint
 10
385.0792558437548
 20
79.13838976169757
 30
0.0
  0
POINT
  5
351
330
344
100
AcDbEntity
  8
Defpoints
 62
     0
100
AcDbPoint
 10
421.6724885059298
 20
79.13838976169757
 30
0.0
  0
ENDBLK
  5
346
330
344
100
AcDbEntity
  8
0
100
AcDbBlockEnd
  0
BLOCK
  5
5CE
330
5CD
100
AcDbEntity
  8
0
100
AcDbBlockBegin
  2
*D7
 70
     1
 10
0.0
 20
0.0
 30
0.0
  3
*D7
  1
*D7
  0
LINE
  5
5D0
330
5CD
100
AcDbEntity
  8
0
 62
     1
370
    -2
100
AcDbLine
 10
780.478544166255
 20
81.13838972572523
 30
0.0
 11
753.2245107009096
 21
81.13838972572523
 31
0.0
  0
LINE
  5
5D1
330
5CD
100
AcDbEntity
  8
0
 62
     1
370
    -2
100
AcDbLine
 10
778.3785438384294
 20
91.03839003587893
 30
0.0
 11
753.2245107009096
 21
91.03839003587893
 31
0.0
  0
LINE
  5
5D2
330
5CD
100
AcDbEntity
  8
0
 62
     1
370
    -2
100
AcDbLine
 10
754.2245107009096
 20
81.13838972572523
 30
0.0
 11
754.2245107009096
 21
91.03839003587893
 31
0.0
  0
LINE
  5
5D3
330
5CD
100
AcDbEntity
  8
0
 62
     1
370
    -2
100
AcDbLine
 10
754.2245107009096
 20
77.93838972572523
 30
0.0
 11
754.2245107009096
 21
74.73838972572523
 31
0.0
  0
LINE
  5
5D4
330
5CD
100
AcDbEntity
  8
0
 62
     1
370
    -2
100
AcDbLine
 10
754.2245107009096
 20
94.23839003587894
 30
0.0
 11
754.2245107009096
 21
97.43839003587894
 31
0.0
  0
SOLID
  5
5D5
330
5CD
100
AcDbEntity
  8
0
 62
     1
100
AcDbTrace
 10
754.7578440342429
 20
77.93838972572523
 30
0.0
 11
753.6911773675763
 21
77.93838972572523
 31
0.0
 12
754.2245107009096
 22
81.13838972572523
 32
0.0
 13
754.2245107009096
 23
81.13838972572523
 33
0.0
  0
SOLID
  5
5D6
330
5CD
100
AcDbEntity
  8
0
 62
     1
100
AcDbTrace
 10
753.6911773675763
 20
94.23839003587894
 30
0.0
 11
754.7578440342429
 21
94.23839003587894
 31
0.0
 12
754.2245107009096
 22
91.03839003587893
 32
0.0
 13
754.2245107009096
 23
91.03839003587893
 33
0.0
  0
MTEXT
  5
5D7
330
5CD
100
AcDbEntity
  8
0
 62
     0
100
AcDbMText
 10
750.6245107009096
 20
86.08838988080208
 30
0.0
 40
3.2
 41
0.0
 46
0.0
 71
     5
 72
     1
  1
10
 11
0.0
 21
1.0
 31
0.0
 73
     1
 44
1.0
  0
POINT
  5
5D8
330
5CD
100
AcDbEntity
  8
Defpoints
 62
     0
100
AcDbPoint
 10
780.578544166255
 20
81.13838972572523
 30
0.0
  0
POINT
  5
5D9
330
5CD
100
AcDbEntity
  8
Defpoints
 62
     0
100
AcDbPoint
 10
778.4785438384295
 20
91.03839003587893
 30
0.0
  0
POINT
  5
5DA
330
5CD
100
AcDbEntity
  8
Defpoints
 62
     0
100
AcDbPoint
 10
754.2245107009096
 20
91.03839003587893
 30
0.0
  0
ENDBLK
  5
5CF
330
5CD
100
AcDbEntity
  8
0
100
AcDbBlockEnd
  0
BLOCK
  5
5DC
330
5DB
100
AcDbEntity
  8
0
100
AcDbBlockBegin
  2
*D8
 70
     1
 10
0.0
 20
0.0
 30
0.0
  3
*D8
  1
*D8
  0
LINE
  5
5DE
330
5DB
100
AcDbEntity
  8
0
 62
     1
370
    -2
100
AcDbLine
 10
778.3785438384294
 20
91.03839003587893
 30
0.0
 11
742.9853115040801
 21
91.03839003587892
 31
0.0
  0
LINE
  5
5DF
330
5DB
100
AcDbEntity
  8
0
 62
     1
370
    -2
100
AcDbLine
 10
780.478544166255
 20
79.13838976169757
 30
0.0
 11
742.9853115040801
 21
79.13838976169755
 31
0.0
  0
LINE
  5
5E0
330
5DB
100
AcDbEntity
  8
0
 62
     1
370
    -2
100
AcDbLine
 10
743.9853115040801
 20
91.03839003587892
 30
0.0
 11
743.9853115040801
 21
79.13838976169755
 31
0.0
  0
LINE
  5
5E1
330
5DB
100
AcDbEntity
  8
0
 62
     1
370
    -2
100
AcDbLine
 10
743.9853115040801
 20
94.23839003587892
 30
0.0
 11
743.9853115040801
 21
97.43839003587892
 31
0.0
  0
LINE
  5
5E2
330
5DB
100
AcDbEntity
  8
0
 62
     1
370
    -2
100
AcDbLine
 10
743.9853115040801
 20
75.93838976169755
 30
0.0
 11
743.9853115040801
 21
72.73838976169755
 31
0.0
  0
SOLID
  5
5E3
330
5DB
100
AcDbEntity
  8
0
 62
     1
100
AcDbTrace
 10
743.4519781707468
 20
94.23839003587892
 30
0.0
 11
744.5186448374134
 21
94.23839003587892
 31
0.0
 12
743.9853115040801
 22
91.03839003587892
 32
0.0
 13
743.9853115040801
 23
91.03839003587892
 33
0.0
  0
SOLID
  5
5E4
330
5DB
100
AcDbEntity
  8
0
 62
     1
100
AcDbTrace
 10
744.5186448374134
 20
75.93838976169755
 30
0.0
 11
743.4519781707468
 21
75.93838976169755
 31
0.0
 12
743.9853115040801
 22
79.13838976169755
 32
0.0
 13
743.9853115040801
 23
79.13838976169755
 33
0.0
  0
MTEXT
  5
5E5
330
5DB
100
AcDbEntity
  8
0
 62
     0
100
AcDbMText
 10
740.38531150408
 20
85.08838989878824
 30
0.0
 40
3.2
 41
0.0
 46
0.0
 71
     5
 72
     1
  1
12
 11
0.0
 21
1.0
 31
0.0
 73
     1
 44
1.0
  0
POINT
  5
5E6
330
5DB
100
AcDbEntity
  8
Defpoints
 62
     0
100
AcDbPoint
 10
778.4785438384295
 20
91.03839003587893
 30
0.0
  0
POINT
  5
5E7
330
5DB
100
AcDbEntity
  8
Defpoints
 62
     0
100
AcDbPoint
 10
780.578544166255
 20
79.13838976169757
 30
0.0
  0
POINT
  5
5E8
330
5DB
100
AcDbEntity
  8
Defpoints
 62
     0
100
AcDbPoint
 10
743.9853115040801
 20
79.13838976169755
 30
0.0
  0
ENDBLK
  5
5DD
330
5DB
100
AcDbEntity
  8
0
100
AcDbBlockEnd
  0
ENDSEC
  0
SECTION
  2
ENTITIES
  0
LINE
  5
74
330
1F
100
AcDbEntity
  8
0
100
AcDbLine
 10
-12.8448722388577
 20
172.6949734108149
 30
0.0
 11
-11.74487224481817
 21
172.6949734108149
 31
0.0
  0
LINE
  5
75
330
1F
100
AcDbEntity
  8
0
100
AcDbLine
 10
-11.74487224481817
 20
178.6949706690013
 30
0.0
 11
-12.8448722388577
 21
178.6949706690013
 31
0.0
  0
LINE
  5
76
330
1F
100
AcDbEntity
  8
0
100
AcDbLine
 10
-12.8448722388577
 20
245.6949709409475
 30
0.0
 11
-11.74487224481817
 21
245.6949709409475
 31
0.0
  0
LINE
  5
77
330
1F
100
AcDbEntity
  8
0
100
AcDbLine
 10
-11.74487224481817
 20
251.6949709931015
 30
0.0
 11
-12.8448722388577
 21
251.6949709931015
 31
0.0
  0
LINE
  5
78
330
1F
100
AcDbEntity
  8
0
100
AcDbLine
 10
-12.8448722388577
 20
318.6949712650477
 30
0.0
 11
-11.74487224481817
 21
318.6949712650477
 31
0.0
  0
LINE
  5
79
330
1F
100
AcDbEntity
  8
0
100
AcDbLine
 10
-11.74487224481817
 20
324.694968523234
 30
0.0
 11
-12.8448722388577
 21
324.694968523234
 31
0.0
  0
LINE
  5
7A
330
1F
100
AcDbEntity
  8
0
100
AcDbLine
 10
-0.9448719646763379
 20
161.1949724571406
 30
0.0
 11
-0.9448719646763379
 21
336.1949694769083
 31
0.0
  0
LINE
  5
7B
330
1F
100
AcDbEntity
  8
0
100
AcDbLine
 10
-2.944871826840597
 20
161.1949724571406
 30
0.0
 11
-2.944871826840597
 21
336.1949694769083
 31
0.0
  0
LINE
  5
7C
330
1F
100
AcDbEntity
  8
0
100
AcDbLine
 10
-2.944871826840597
 20
340.1949701325594
 30
0.0
 11
-0.9448719646763379
 21
340.1949701325594
 31
0.0
  0
LINE
  5
7D
330
1F
100
AcDbEntity
  8
0
100
AcDbLine
 10
-0.9448719646763379
 20
340.1949701325594
 30
0.0
 11
-0.9448719646763379
 21
336.1949694769083
 31
0.0
  0
LINE
  5
7E
330
1F
100
AcDbEntity
  8
0
100
AcDbLine
 10
-2.944871826840597
 20
336.1949694769083
 30
0.0
 11
-2.944871826840597
 21
340.1949701325594
 31
0.0
  0
LINE
  5
7F
330
1F
100
AcDbEntity
  8
0
100
AcDbLine
 10
-0.9448719646763379
 20
157.1949718014895
 30
0.0
 11
-2.944871826840597
 21
157.1949718014895
 31
0.0
  0
LINE
  5
80
330
1F
100
AcDbEntity
  8
0
100
AcDbLine
 10
-0.9448719646763379
 20
161.1949724571406
 30
0.0
 11
-0.9448719646763379
 21
157.1949718014895
 31
0.0
  0
LINE
  5
81
330
1F
100
AcDbEntity
  8
0
100
AcDbLine
 10
-2.944871826840597
 20
157.1949718014895
 30
0.0
 11
-2.944871826840597
 21
161.1949724571406
 31
0.0
  0
LINE
  5
82
330
1F
100
AcDbEntity
  8
0
100
AcDbLine
 10
-0.9448719646763379
 20
340.1949701325594
 30
0.0
 11
-0.5448717128467138
 21
340.1949701325594
 31
0.0
  0
LINE
  5
83
330
1F
100
AcDbEntity
  8
0
100
AcDbLine
 10
-0.5448717128467138
 20
157.1949718014895
 30
0.0
 11
-0.9448719646763379
 21
157.1949718014895
 31
0.0
  0
LINE
  5
84
330
1F
100
AcDbEntity
  8
0
100
AcDbLine
 10
-0.5448717128467138
 20
341.1949721591174
 30
0.0
 11
8.555128195511145
 21
341.1949721591174
 31
0.0
  0
LINE
  5
85
330
1F
100
AcDbEntity
  8
0
100
AcDbLine
 10
-0.5448717128467138
 20
339.1949681060015
 30
0.0
 11
-0.5448717128467138
 21
341.1949721591174
 31
0.0
  0
LINE
  5
86
330
1F
100
AcDbEntity
  8
0
100
AcDbLine
 10
10.05512797571902
 20
339.1949681060015
 30
0.0
 11
10.05512797571902
 21
158.1949738280474
 31
0.0
  0
LINE
  5
87
330
1F
100
AcDbEntity
  8
0
100
AcDbLine
 10
8.555128195511145
 20
156.1949697749316
 30
0.0
 11
-0.5448717128467138
 21
156.1949697749316
 31
0.0
  0
LINE
  5
88
330
1F
100
AcDbEntity
  8
0
100
AcDbLine
 10
-0.5448717128467138
 20
156.1949697749316
 30
0.0
 11
-0.5448717128467138
 21
158.1949738280474
 31
0.0
  0
LINE
  5
89
330
1F
100
AcDbEntity
  8
0
100
AcDbLine
 10
-0.5448717128467138
 20
158.1949738280474
 30
0.0
 11
-0.5448717128467138
 21
339.1949681060015
 31
0.0
  0
LINE
  5
8A
330
1F
100
AcDbEntity
  8
0
100
AcDbLine
 10
10.05512797571902
 20
157.6949728147685
 30
0.0
 11
10.05512797571902
 21
158.1949738280474
 31
0.0
  0
ARC
  5
8B
330
1F
100
AcDbEntity
  8
0
100
AcDbCircle
 10
8.5551281753946
 20
157.6949709670245
 30
0.0
 40
1.5
100
AcDbArc
 50
270.0
 51
0.0
  0
LINE
  5
8C
330
1F
100
AcDbEntity
  8
0
100
AcDbLine
 10
10.05512797571902
 20
339.1949681060015
 30
0.0
 11
10.05512797571902
 21
339.6949691192805
 31
0.0
  0
ARC
  5
8D
330
1F
100
AcDbEntity
  8
0
100
AcDbCircle
 10
8.5551281753946
 20
339.6949709670245
 30
0.0
 40
1.5
100
AcDbArc
 50
0.0
 51
90.0
  0
LINE
  5
8E
330
1F
100
AcDbEntity
  8
0
100
AcDbLine
 10
-11.74487224481817
 20
327.6949746029078
 30
0.0
 11
-2.944871826840597
 21
327.6949746029078
 31
0.0
  0
LINE
  5
8F
330
1F
100
AcDbEntity
  8
0
100
AcDbLine
 10
-11.74487224481817
 20
320.1949743048846
 30
0.0
 11
-11.74487224481817
 21
327.6949746029078
 31
0.0
  0
LINE
  5
90
330
1F
100
AcDbEntity
  8
0
100
AcDbLine
 10
-2.944871826840597
 20
169.6949673311412
 30
0.0
 11
-11.74487224481817
 21
169.6949673311412
 31
0.0
  0
LINE
  5
91
330
1F
100
AcDbEntity
  8
0
100
AcDbLine
 10
-11.74487224481817
 20
169.6949673311412
 30
0.0
 11
-11.74487224481817
 21
177.1949676291644
 31
0.0
  0
LINE
  5
92
330
1F
100
AcDbEntity
  8
0
100
AcDbLine
 10
-11.74487224481817
 20
177.1949676291644
 30
0.0
 11
-11.74487224481817
 21
320.1949743048846
 31
0.0
  0
LINE
  5
93
330
1F
100
AcDbEntity
  8
0
100
AcDbLine
 10
-12.74487240873094
 20
327.6949746029078
 30
0.0
 11
-12.74487240873094
 21
324.694968523234
 31
0.0
  0
LINE
  5
94
330
1F
100
AcDbEntity
  8
0
100
AcDbLine
 10
-12.74487240873094
 20
318.6949712650477
 30
0.0
 11
-12.74487240873094
 21
251.6949709931015
 31
0.0
  0
LINE
  5
95
330
1F
100
AcDbEntity
  8
0
100
AcDbLine
 10
-12.74487240873094
 20
245.6949709409475
 30
0.0
 11
-12.74487240873094
 21
178.6949706690013
 31
0.0
  0
LINE
  5
96
330
1F
100
AcDbEntity
  8
0
100
AcDbLine
 10
-12.74487240873094
 20
172.6949734108149
 30
0.0
 11
-12.74487240873094
 21
169.6949673311412
 31
0.0
  0
LINE
  5
97
330
1F
100
AcDbEntity
  8
0
100
AcDbLine
 10
-11.74487224481817
 20
169.6949673311412
 30
0.0
 11
-12.74487240873094
 21
169.6949673311412
 31
0.0
  0
LINE
  5
98
330
1F
100
AcDbEntity
  8
0
100
AcDbLine
 10
-11.74487224481817
 20
327.6949746029078
 30
0.0
 11
-12.74487240873094
 21
327.6949746029078
 31
0.0
  0
LINE
  5
99
330
1F
100
AcDbEntity
  8
0
100
AcDbLine
 10
-21.84487185142746
 20
157.6949728147685
 30
0.0
 11
-21.84487185142746
 21
158.1949738280474
 31
0.0
  0
ARC
  5
9A
330
1F
100
AcDbEntity
  8
0
100
AcDbCircle
 10
-20.34487182460538
 20
157.6949709670245
 30
0.0
 40
1.5
100
AcDbArc
 50
180.0
 51
270.0
  0
LINE
  5
9B
330
1F
100
AcDbEntity
  8
0
100
AcDbLine
 10
-12.8448722388577
 20
158.1949738280474
 30
0.0
 11
-12.8448722388577
 21
156.1949697749316
 31
0.0
  0
LINE
  5
9C
330
1F
100
AcDbEntity
  8
0
100
AcDbLine
 10
-12.8448722388577
 20
156.1949697749316
 30
0.0
 11
-20.34487253688087
 21
156.1949697749316
 31
0.0
  0
LINE
  5
9D
330
1F
100
AcDbEntity
  8
0
100
AcDbLine
 10
-12.8448722388577
 20
339.1949681060015
 30
0.0
 11
-12.8448722388577
 21
158.1949738280474
 31
0.0
  0
LINE
  5
9E
330
1F
100
AcDbEntity
  8
0
100
AcDbLine
 10
-21.84487185142746
 20
158.1949738280474
 30
0.0
 11
-21.84487185142746
 21
339.1949681060015
 31
0.0
  0
LINE
  5
9F
330
1F
100
AcDbEntity
  8
0
100
AcDbLine
 10
-20.34487253688087
 20
341.1949721591174
 30
0.0
 11
-12.8448722388577
 21
341.1949721591174
 31
0.0
  0
LINE
  5
A0
330
1F
100
AcDbEntity
  8
0
100
AcDbLine
 10
-12.8448722388577
 20
341.1949721591174
 30
0.0
 11
-12.8448722388577
 21
339.1949681060015
 31
0.0
  0
LINE
  5
A1
330
1F
100
AcDbEntity
  8
0
100
AcDbLine
 10
-21.84487185142746
 20
339.1949681060015
 30
0.0
 11
-21.84487185142746
 21
339.6949691192805
 31
0.0
  0
ARC
  5
A2
330
1F
100
AcDbEntity
  8
0
100
AcDbCircle
 10
-20.34487182460532
 20
339.6949709670245
 30
0.0
 40
1.5
100
AcDbArc
 50
90.0
 51
180.0
  0
LINE
  5
A3
330
1F
100
AcDbEntity
  8
0
  6
Continuous
 62
     8
370
     0
100
AcDbLine
 10
-0.9448719646763379
 20
336.1949694769083
 30
0.0
 11
-2.944871826840597
 21
336.1949694769083
 31
0.0
  0
LINE
  5
A4
330
1F
100
AcDbEntity
  8
0
  6
Continuous
 62
     8
370
     0
100
AcDbLine
 10
-2.944871826840597
 20
161.1949724571406
 30
0.0
 11
-0.9448719646763379
 21
161.1949724571406
 31
0.0
  0
LINE
  5
A5
330
1F
100
AcDbEntity
  8
0
  6
Continuous
 62
     8
370
     0
100
AcDbLine
 10
-0.5448717128467138
 20
336.1949694769083
 30
0.0
 11
-0.9448719646763379
 21
336.1949694769083
 31
0.0
  0
LINE
  5
A6
330
1F
100
AcDbEntity
  8
0
  6
Continuous
 62
     8
370
     0
100
AcDbLine
 10
-0.9448719646763379
 20
161.1949724571406
 30
0.0
 11
-0.5448717128467138
 21
161.1949724571406
 31
0.0
  0
LINE
  5
A7
330
1F
100
AcDbEntity
  8
0
  6
Continuous
 62
     8
370
     0
100
AcDbLine
 10
8.555128195511145
 20
341.1949721591174
 30
0.0
 11
8.555128195511145
 21
339.1949681060015
 31
0.0
  0
LINE
  5
A8
330
1F
100
AcDbEntity
  8
0
  6
Continuous
 62
     8
370
     0
100
AcDbLine
 10
8.555128195511145
 20
339.1949681060015
 30
0.0
 11
-0.5448717128467138
 21
339.1949681060015
 31
0.0
  0
LINE
  5
A9
330
1F
100
AcDbEntity
  8
0
  6
Continuous
 62
     8
370
     0
100
AcDbLine
 10
10.05512797571902
 20
339.1949681060015
 30
0.0
 11
8.555128195511145
 21
339.1949681060015
 31
0.0
  0
LINE
  5
AA
330
1F
100
AcDbEntity
  8
0
  6
Continuous
 62
     8
370
     0
100
AcDbLine
 10
8.555128195511145
 20
158.1949738280474
 30
0.0
 11
10.05512797571902
 21
158.1949738280474
 31
0.0
  0
LINE
  5
AB
330
1F
100
AcDbEntity
  8
0
  6
Continuous
 62
     8
370
     0
100
AcDbLine
 10
8.555128195511145
 20
158.1949738280474
 30
0.0
 11
8.555128195511145
 21
339.1949681060015
 31
0.0
  0
LINE
  5
AC
330
1F
100
AcDbEntity
  8
0
  6
Continuous
 62
     8
370
     0
100
AcDbLine
 10
-0.5448717128467138
 20
158.1949738280474
 30
0.0
 11
8.555128195511145
 21
158.1949738280474
 31
0.0
  0
LINE
  5
AD
330
1F
100
AcDbEntity
  8
0
  6
Continuous
 62
     8
370
     0
100
AcDbLine
 10
8.555128195511145
 20
158.1949738280474
 30
0.0
 11
8.555128195511145
 21
156.1949697749316
 31
0.0
  0
LINE
  5
AE
330
1F
100
AcDbEntity
  8
0
  6
Continuous
 62
     8
370
     0
100
AcDbLine
 10
-2.944871826840597
 20
320.1949743048846
 30
0.0
 11
-11.74487224481817
 21
320.1949743048846
 31
0.0
  0
LINE
  5
AF
330
1F
100
AcDbEntity
  8
0
  6
Continuous
 62
     8
370
     0
100
AcDbLine
 10
-11.74487224481817
 20
177.1949676291644
 30
0.0
 11
-2.944871826840597
 21
177.1949676291644
 31
0.0
  0
LINE
  5
B0
330
1F
100
AcDbEntity
  8
0
  6
Continuous
 62
     8
370
     0
100
AcDbLine
 10
-21.84487185142746
 20
158.1949738280474
 30
0.0
 11
-20.34487253688087
 21
158.1949738280474
 31
0.0
  0
LINE
  5
B1
330
1F
100
AcDbEntity
  8
0
  6
Continuous
 62
     8
370
     0
100
AcDbLine
 10
-20.34487253688087
 20
158.1949738280474
 30
0.0
 11
-20.34487253688087
 21
156.1949697749316
 31
0.0
  0
LINE
  5
B2
330
1F
100
AcDbEntity
  8
0
  6
Continuous
 62
     8
370
     0
100
AcDbLine
 10
-20.34487253688087
 20
158.1949738280474
 30
0.0
 11
-12.8448722388577
 21
158.1949738280474
 31
0.0
  0
LINE
  5
B3
330
1F
100
AcDbEntity
  8
0
  6
Continuous
 62
     8
370
     0
100
AcDbLine
 10
-20.34487253688087
 20
339.1949681060015
 30
0.0
 11
-20.34487253688087
 21
158.1949738280474
 31
0.0
  0
LINE
  5
B4
330
1F
100
AcDbEntity
  8
0
  6
Continuous
 62
     8
370
     0
100
AcDbLine
 10
-12.8448722388577
 20
339.1949681060015
 30
0.0
 11
-20.34487253688087
 21
339.1949681060015
 31
0.0
  0
LINE
  5
B5
330
1F
100
AcDbEntity
  8
0
  6
Continuous
 62
     8
370
     0
100
AcDbLine
 10
-21.84487185142746
 20
339.1949681060015
 30
0.0
 11
-20.34487253688087
 21
339.1949681060015
 31
0.0
  0
LINE
  5
B6
330
1F
100
AcDbEntity
  8
0
  6
Continuous
 62
     8
370
     0
100
AcDbLine
 10
-20.34487253688087
 20
341.1949721591174
 30
0.0
 11
-20.34487253688087
 21
339.1949681060015
 31
0.0
  0
ARC
  5
B7
330
1F
100
AcDbEntity
  8
0
100
AcDbCircle
 10
70.27597833735325
 20
158.1949709670245
 30
0.0
 40
2.0
100
AcDbArc
 50
180.0
 51
270.0000000000008
  0
LINE
  5
B8
330
1F
100
AcDbEntity
  8
0
100
AcDbLine
 10
68.27597923142281
 20
158.1949738280475
 30
0.0
 11
68.27597923142281
 21
339.1949681060016
 31
0.0
  0
LINE
  5
B9
330
1F
100
AcDbEntity
  8
0
100
AcDbLine
 10
131.2759783820566
 20
156.1949697749316
 30
0.0
 11
70.27597955924836
 21
156.1949697749316
 31
0.0
  0
ARC
  5
BA
330
1F
100
AcDbEntity
  8
0
100
AcDbCircle
 10
70.27597833735312
 20
339.1949709670245
 30
0.0
 40
2.0
100
AcDbArc
 50
90.0
 51
180.0
  0
LINE
  5
BB
330
1F
100
AcDbEntity
  8
0
100
AcDbLine
 10
70.27597955924836
 20
341.1949721591174
 30
0.0
 11
131.2759783820566
 21
341.1949721591174
 31
0.0
  0
ARC
  5
BC
330
1F
100
AcDbEntity
  8
0
100
AcDbCircle
 10
131.2759783373533
 20
158.1949709670245
 30
0.0
 40
2.000000000000014
100
AcDbArc
 50
270.0000000000016
 51
0.0
  0
LINE
  5
BD
330
1F
100
AcDbEntity
  8
0
100
AcDbLine
 10
133.2759787098822
 20
339.1949681060016
 30
0.0
 11
133.2759787098822
 21
158.1949738280475
 31
0.0
  0
ARC
  5
BE
330
1F
100
AcDbEntity
  8
0
100
AcDbCircle
 10
131.2759783373531
 20
339.1949709670246
 30
0.0
 40
2.0
100
AcDbArc
 50
0.0
 51
90.0
  0
ARC
  5
BF
330
1F
100
AcDbEntity
  8
0
  6
Continuous
 62
     8
370
     0
100
AcDbCircle
 10
70.27597833735325
 20
158.1949709670245
 30
0.0
 40
0.5
100
AcDbArc
 50
180.0
 51
270.0
  0
LINE
  5
C0
330
1F
100
AcDbEntity
  8
0
  6
Continuous
 62
     8
370
     0
100
AcDbLine
 10
70.27597955924836
 20
157.6949728147685
 30
0.0
 11
70.27597955924836
 21
156.1949697749316
 31
0.0
  0
LINE
  5
C1
330
1F
100
AcDbEntity
  8
0
  6
Continuous
 62
     8
370
     0
100
AcDbLine
 10
68.27597923142281
 20
158.1949738280475
 30
0.0
 11
69.7759785459694
 21
158.1949738280475
 31
0.0
  0
LINE
  5
C2
330
1F
100
AcDbEntity
  8
0
  6
Continuous
 62
     8
370
     0
100
AcDbLine
 10
68.27597923142281
 20
339.1949681060016
 30
0.0
 11
69.7759785459694
 21
339.1949681060016
 31
0.0
  0
LINE
  5
C3
330
1F
100
AcDbEntity
  8
0
  6
Continuous
 62
     8
370
     0
100
AcDbLine
 10
69.7759785459694
 20
339.1949681060016
 30
0.0
 11
69.7759785459694
 21
158.1949738280475
 31
0.0
  0
ARC
  5
C4
330
1F
100
AcDbEntity
  8
0
  6
Continuous
 62
     8
370
     0
100
AcDbCircle
 10
131.2759783373533
 20
158.1949709670245
 30
0.0
 40
0.5
100
AcDbArc
 50
270.0
 51
0.0
  0
LINE
  5
C5
330
1F
100
AcDbEntity
  8
0
  6
Continuous
 62
     8
370
     0
100
AcDbLine
 10
70.27597955924836
 20
157.6949728147685
 30
0.0
 11
131.2759783820566
 21
157.6949728147685
 31
0.0
  0
ARC
  5
C6
330
1F
100
AcDbEntity
  8
0
  6
Continuous
 62
     8
370
     0
100
AcDbCircle
 10
70.27597833735312
 20
339.1949709670245
 30
0.0
 40
0.5
100
AcDbArc
 50
90.0
 51
180.0
  0
LINE
  5
C7
330
1F
100
AcDbEntity
  8
0
  6
Continuous
 62
     8
370
     0
100
AcDbLine
 10
131.2759783820566
 20
339.6949691192805
 30
0.0
 11
70.27597955924836
 21
339.6949691192805
 31
0.0
  0
ARC
  5
C8
330
1F
100
AcDbEntity
  8
0
  6
Continuous
 62
     8
370
     0
100
AcDbCircle
 10
131.2759783373531
 20
339.1949709670246
 30
0.0
 40
0.5
100
AcDbArc
 50
0.0
 51
90.0
  0
LINE
  5
C9
330
1F
100
AcDbEntity
  8
0
  6
Continuous
 62
     8
370
     0
100
AcDbLine
 10
131.7759775326904
 20
158.1949738280475
 30
0.0
 11
131.7759775326904
 21
339.1949681060016
 31
0.0
  0
LINE
  5
CA
330
1F
100
AcDbEntity
  8
0
  6
Continuous
 62
     8
370
     0
100
AcDbLine
 10
131.2759783820566
 20
157.6949728147685
 30
0.0
 11
131.2759783820566
 21
156.1949697749316
 31
0.0
  0
LINE
  5
CB
330
1F
100
AcDbEntity
  8
0
  6
Continuous
 62
     8
370
     0
100
AcDbLine
 10
70.27597955924836
 20
341.1949721591174
 30
0.0
 11
70.27597955924836
 21
339.6949691192805
 31
0.0
  0
LINE
  5
CC
330
1F
100
AcDbEntity
  8
0
  6
Continuous
 62
     8
370
     0
100
AcDbLine
 10
131.2759783820566
 20
341.1949721591174
 30
0.0
 11
131.2759783820566
 21
339.6949691192805
 31
0.0
  0
LINE
  5
CD
330
1F
100
AcDbEntity
  8
0
  6
Continuous
 62
     8
370
     0
100
AcDbLine
 10
131.7759775326904
 20
158.1949738280475
 30
0.0
 11
133.2759787098822
 21
158.1949738280475
 31
0.0
  0
LINE
  5
CE
330
1F
100
AcDbEntity
  8
0
  6
Continuous
 62
     8
370
     0
100
AcDbLine
 10
131.7759775326904
 20
339.1949681060016
 30
0.0
 11
133.2759787098822
 21
339.1949681060016
 31
0.0
  0
CIRCLE
  5
CF
330
1F
100
AcDbEntity
  8
0
100
AcDbCircle
 10
394.6792557990512
 20
249.5618798177511
 30
0.0
 40
5.25
  0
CIRCLE
  5
D0
330
1F
100
AcDbEntity
  8
0
100
AcDbCircle
 10
394.6792557990512
 20
169.561879817751
 30
0.0
 40
5.25
  0
CIRCLE
  5
D1
330
1F
100
AcDbEntity
  8
0
100
AcDbCircle
 10
394.6792557990512
 20
329.5618798177511
 30
0.0
 40
5.250000000000057
  0
ARC
  5
D2
330
1F
100
AcDbEntity
  8
0
100
AcDbCircle
 10
339.1792557990514
 20
340.0618798177512
 30
0.0
 40
2.0
100
AcDbArc
 50
90.0
 51
180.0
  0
LINE
  5
D3
330
1F
100
AcDbEntity
  8
0
100
AcDbLine
 10
339.1792557543478
 20
342.061881009844
 30
0.0
 11
385.1792558437548
 21
342.061881009844
 31
0.0
  0
LINE
  5
D4
330
1F
100
AcDbEntity
  8
0
100
AcDbLine
 10
337.1792554265223
 20
159.0618826787741
 30
0.0
 11
337.1792554265223
 21
340.0618769567282
 31
0.0
  0
LINE
  5
D5
330
1F
100
AcDbEntity
  8
0
100
AcDbLine
 10
387.1792561715803
 20
340.0618769567282
 30
0.0
 11
387.1792561715803
 21
159.0618826787741
 31
0.0
  0
ARC
  5
D6
330
1F
100
AcDbEntity
  8
0
100
AcDbCircle
 10
385.1792557990513
 20
340.0618798177512
 30
0.0
 40
2.0
100
AcDbArc
 50
0.0
 51
90.0
  0
LINE
  5
D7
330
1F
100
AcDbEntity
  8
0
100
AcDbLine
 10
385.1792558437548
 20
157.0618786256582
 30
0.0
 11
339.1792557543478
 21
157.0618786256582
 31
0.0
  0
ARC
  5
D8
330
1F
100
AcDbEntity
  8
0
100
AcDbCircle
 10
339.1792557990514
 20
159.0618798177511
 30
0.0
 40
2.0
100
AcDbArc
 50
180.0
 51
270.0000000000008
  0
ARC
  5
D9
330
1F
100
AcDbEntity
  8
0
100
AcDbCircle
 10
385.1792557990513
 20
159.0618798177511
 30
0.0
 40
2.0
100
AcDbArc
 50
270.0000000000008
 51
0.0
  0
LINE
  5
DA
330
1F
100
AcDbEntity
  8
0
100
AcDbLine
 10
385.1792558437548
 20
157.0618786256582
 30
0.0
 11
387.1792561715803
 21
157.0618786256582
 31
0.0
  0
LINE
  5
DB
330
1F
100
AcDbEntity
  8
0
100
AcDbLine
 10
387.1792561715803
 20
157.0618786256582
 30
0.0
 11
387.1792561715803
 21
159.0618826787741
 31
0.0
  0
LINE
  5
DC
330
1F
100
AcDbEntity
  8
0
100
AcDbLine
 10
387.1792561715803
 20
340.0618769567282
 30
0.0
 11
387.1792561715803
 21
342.061881009844
 31
0.0
  0
LINE
  5
DD
330
1F
100
AcDbEntity
  8
0
100
AcDbLine
 10
387.1792561715803
 20
342.061881009844
 30
0.0
 11
385.1792558437548
 21
342.061881009844
 31
0.0
  0
SPLINE
  5
DE
330
1F
100
AcDbEntity
  8
0
100
AcDbSpline
210
0.0
220
0.0
230
1.0
 70
    24
 71
     3
 72
    11
 73
     7
 74
     0
 42
0.000000001
 43
0.00000001
 40
0.0
 40
0.0
 40
0.0
 40
0.0
 40
0.1555536214784914
 40
0.5717076423021508
 40
0.9940219346392383
 40
1.0
 40
1.0
 40
1.0
 40
1.0
 10
388.4998063898049
 20
342.061881009844
 30
0.0
 10
388.6161937706915
 20
342.061881009844
 30
0.0
 10
389.0439533720944
 20
342.061881009844
 30
0.0
 10
389.7719896158724
 20
342.061881009844
 30
0.0
 10
390.3710643620795
 20
342.061881009844
 30
0.0
 10
390.6750133223042
 20
342.061881009844
 30
0.0
 10
390.6792558139525
 20
342.061881009844
 30
0.0
  0
SPLINE
  5
DF
330
1F
100
AcDbEntity
  8
0
100
AcDbSpline
210
0.0
220
0.0
230
1.0
 70
    24
 71
     3
 72
    11
 73
     7
 74
     0
 42
0.000000001
 43
0.00000001
 40
0.0
 40
0.0
 40
0.0
 40
0.0
 40
0.0059798360250515
 40
0.4517707800852256
 40
0.9180858010899049
 40
1.0
 40
1.0
 40
1.0
 40
1.0
 10
390.6792558139525
 20
157.0618786256582
 30
0.0
 10
390.6750133078189
 20
157.0618786256582
 30
0.0
 10
390.3544961067664
 20
157.0618786256577
 30
0.0
 10
389.7038864772906
 20
157.0618786256586
 30
0.0
 10
388.9711494038983
 20
157.0618786256581
 30
0.0
 10
388.5610776564053
 20
157.0618786256582
 30
0.0
 10
388.4998063898049
 20
157.0618786256582
 30
0.0
  0
CIRCLE
  5
E0
330
1F
100
AcDbEntity
  8
0
100
AcDbCircle
 10
394.6792557990512
 20
329.5618798177511
 30
0.0
 40
6.0
  0
CIRCLE
  5
E1
330
1F
100
AcDbEntity
  8
0
100
AcDbCircle
 10
394.6792557990512
 20
249.5618798177511
 30
0.0
 40
6.0
  0
CIRCLE
  5
E2
330
1F
100
AcDbEntity
  8
0
100
AcDbCircle
 10
394.6792557990512
 20
169.561879817751
 30
0.0
 40
6.0
  0
LINE
  5
E3
330
1F
100
AcDbEntity
  8
0
100
AcDbLine
 10
387.1792561715803
 20
157.0618786256582
 30
0.0
 11
388.4998063898049
 21
157.0618786256582
 31
0.0
  0
LINE
  5
E4
330
1F
100
AcDbEntity
  8
0
100
AcDbLine
 10
387.1792561715803
 20
342.061881009844
 30
0.0
 11
388.4998063898049
 21
342.061881009844
 31
0.0
  0
LINE
  5
E5
330
1F
100
AcDbEntity
  8
0
100
AcDbLine
 10
402.1792549049816
 20
340.0618769567282
 30
0.0
 11
402.1792549049816
 21
159.0618826787741
 31
0.0
  0
LINE
  5
E6
330
1F
100
AcDbEntity
  8
0
100
AcDbLine
 10
390.6792558139525
 20
342.061881009844
 30
0.0
 11
400.1792545771561
 21
342.061881009844
 31
0.0
  0
ARC
  5
E7
330
1F
100
AcDbEntity
  8
0
100
AcDbCircle
 10
400.1792557990514
 20
340.0618798177511
 30
0.0
 40
2.0
100
AcDbArc
 50
0.0
 51
90.0
  0
LINE
  5
E8
330
1F
100
AcDbEntity
  8
0
100
AcDbLine
 10
400.1792545771561
 20
157.0618786256582
 30
0.0
 11
390.6792558139525
 21
157.0618786256582
 31
0.0
  0
ARC
  5
E9
330
1F
100
AcDbEntity
  8
0
100
AcDbCircle
 10
400.1792557990512
 20
159.061879817751
 30
0.0
 40
2.0
100
AcDbArc
 50
270.0000000000008
 51
0.0
  0
ARC
  5
EA
330
1F
100
AcDbEntity
  8
0
  6
Continuous
 62
     8
370
     0
100
AcDbCircle
 10
339.1792557990514
 20
340.0618798177512
 30
0.0
 40
0.5
100
AcDbArc
 50
90.0
 51
180.0
  0
LINE
  5
EB
330
1F
100
AcDbEntity
  8
0
  6
Continuous
 62
     8
370
     0
100
AcDbLine
 10
338.679256603714
 20
340.0618769567282
 30
0.0
 11
337.1792554265223
 21
340.0618769567282
 31
0.0
  0
LINE
  5
EC
330
1F
100
AcDbEntity
  8
0
  6
Continuous
 62
     8
370
     0
100
AcDbLine
 10
339.1792557543478
 20
342.061881009844
 30
0.0
 11
339.1792557543478
 21
340.5618779700071
 31
0.0
  0
LINE
  5
ED
330
1F
100
AcDbEntity
  8
0
  6
Continuous
 62
     8
370
     0
100
AcDbLine
 10
385.1792558437548
 20
340.5618779700071
 30
0.0
 11
385.1792558437548
 21
342.061881009844
 31
0.0
  0
LINE
  5
EE
330
1F
100
AcDbEntity
  8
0
  6
Continuous
 62
     8
370
     0
100
AcDbLine
 10
385.1792558437548
 20
340.5618779700071
 30
0.0
 11
339.1792557543478
 21
340.5618779700071
 31
0.0
  0
LINE
  5
EF
330
1F
100
AcDbEntity
  8
0
  6
Continuous
 62
     8
370
     0
100
AcDbLine
 10
338.679256603714
 20
340.0618769567282
 30
0.0
 11
338.679256603714
 21
159.0618826787741
 31
0.0
  0
LINE
  5
F0
330
1F
100
AcDbEntity
  8
0
  6
Continuous
 62
     8
370
     0
100
AcDbLine
 10
337.1792554265223
 20
159.0618826787741
 30
0.0
 11
338.679256603714
 21
159.0618826787741
 31
0.0
  0
ARC
  5
F1
330
1F
100
AcDbEntity
  8
0
  6
Continuous
 62
     8
370
     0
100
AcDbCircle
 10
385.1792557990513
 20
340.0618798177512
 30
0.0
 40
0.5
100
AcDbArc
 50
0.0
 51
90.0
  0
LINE
  5
F2
330
1F
100
AcDbEntity
  8
0
  6
Continuous
 62
     8
370
     0
100
AcDbLine
 10
385.6792549943886
 20
159.0618826787741
 30
0.0
 11
385.6792549943886
 21
340.0618769567282
 31
0.0
  0
ARC
  5
F3
330
1F
100
AcDbEntity
  8
0
  6
Continuous
 62
     8
370
     0
100
AcDbCircle
 10
385.1792557990513
 20
159.0618798177511
 30
0.0
 40
0.5
100
AcDbArc
 50
270.0000000000008
 51
0.0
  0
LINE
  5
F4
330
1F
100
AcDbEntity
  8
0
  6
Continuous
 62
     8
370
     0
100
AcDbLine
 10
339.1792557543478
 20
158.5618816654951
 30
0.0
 11
385.1792558437548
 21
158.5618816654951
 31
0.0
  0
ARC
  5
F5
330
1F
100
AcDbEntity
  8
0
  6
Continuous
 62
     8
370
     0
100
AcDbCircle
 10
339.1792557990514
 20
159.0618798177511
 30
0.0
 40
0.5
100
AcDbArc
 50
180.0
 51
270.0000000000008
  0
LINE
  5
F6
330
1F
100
AcDbEntity
  8
0
  6
Continuous
 62
     8
370
     0
100
AcDbLine
 10
385.6792549943886
 20
159.0618826787741
 30
0.0
 11
387.1792561715803
 21
159.0618826787741
 31
0.0
  0
LINE
  5
F7
330
1F
100
AcDbEntity
  8
0
  6
Continuous
 62
     8
370
     0
100
AcDbLine
 10
387.1792561715803
 20
340.0618769567282
 30
0.0
 11
385.6792549943886
 21
340.0618769567282
 31
0.0
  0
LINE
  5
F8
330
1F
100
AcDbEntity
  8
0
  6
Continuous
 62
     8
370
     0
100
AcDbLine
 10
339.1792557543478
 20
158.5618816654951
 30
0.0
 11
339.1792557543478
 21
157.0618786256582
 31
0.0
  0
LINE
  5
F9
330
1F
100
AcDbEntity
  8
0
  6
Continuous
 62
     8
370
     0
100
AcDbLine
 10
385.1792558437548
 20
157.0618786256582
 30
0.0
 11
385.1792558437548
 21
158.5618816654951
 31
0.0
  0
LINE
  5
FA
330
1F
100
AcDbEntity
  8
0
  6
Continuous
 62
     8
370
     0
100
AcDbLine
 10
390.6792558139525
 20
342.061881009844
 30
0.0
 11
390.6792558139525
 21
341.561879996565
 31
0.0
  0
ARC
  5
FB
330
1F
100
AcDbEntity
  8
0
  6
Continuous
 62
     8
370
     0
100
AcDbCircle
 10
390.6792557990513
 20
346.5618798177511
 30
0.0
 40
5.000000000000002
100
AcDbArc
 50
244.1580672368337
 51
270.0000000000008
  0
ARC
  5
FC
330
1F
100
AcDbEntity
  8
0
  6
Continuous
 62
     8
370
     0
100
AcDbCircle
 10
390.6792557990511
 20
152.561879817751
 30
0.0
 40
5.000000000000028
100
AcDbArc
 50
89.99999999999935
 51
115.8419327631664
  0
LINE
  5
FD
330
1F
100
AcDbEntity
  8
0
  6
Continuous
 62
     8
370
     0
100
AcDbLine
 10
390.6792558139525
 20
157.0618786256582
 30
0.0
 11
390.6792558139525
 21
157.5618796389372
 31
0.0
  0
ARC
  5
FE
330
1F
100
AcDbEntity
  8
0
  6
Continuous
 62
     8
370
     0
100
AcDbCircle
 10
400.1792557990514
 20
340.0618798177511
 30
0.0
 40
1.5
100
AcDbArc
 50
0.0
 51
90.0
  0
LINE
  5
FF
330
1F
100
AcDbEntity
  8
0
  6
Continuous
 62
     8
370
     0
100
AcDbLine
 10
401.679257616993
 20
159.0618826787741
 30
0.0
 11
401.679257616993
 21
340.0618769567282
 31
0.0
  0
ARC
  5
100
330
1F
100
AcDbEntity
  8
0
  6
Continuous
 62
     8
370
     0
100
AcDbCircle
 10
400.1792557990512
 20
159.061879817751
 30
0.0
 40
1.5
100
AcDbArc
 50
270.0000000000008
 51
0.0000000000001357
  0
LINE
  5
101
330
1F
100
AcDbEntity
  8
0
  6
Continuous
 62
     8
370
     0
100
AcDbLine
 10
390.6792558139525
 20
157.5618796389372
 30
0.0
 11
400.1792545771561
 21
157.5618796389372
 31
0.0
  0
LINE
  5
102
330
1F
100
AcDbEntity
  8
0
  6
Continuous
 62
     8
370
     0
100
AcDbLine
 10
400.1792545771561
 20
341.561879996565
 30
0.0
 11
390.6792558139525
 21
341.561879996565
 31
0.0
  0
LINE
  5
103
330
1F
100
AcDbEntity
  8
0
  6
Continuous
 62
     8
370
     0
100
AcDbLine
 10
402.1792549049816
 20
159.0618826787741
 30
0.0
 11
401.679257616993
 21
159.0618826787741
 31
0.0
  0
LINE
  5
104
330
1F
100
AcDbEntity
  8
0
  6
Continuous
 62
     8
370
     0
100
AcDbLine
 10
402.1792549049816
 20
340.0618769567282
 30
0.0
 11
401.679257616993
 21
340.0618769567282
 31
0.0
  0
LINE
  5
105
330
1F
100
AcDbEntity
  8
0
  6
Continuous
 62
     8
370
     0
100
AcDbLine
 10
400.1792545771561
 20
342.061881009844
 30
0.0
 11
400.1792545771561
 21
341.561879996565
 31
0.0
  0
LINE
  5
106
330
1F
100
AcDbEntity
  8
0
  6
Continuous
 62
     8
370
     0
100
AcDbLine
 10
400.1792545771561
 20
157.0618786256582
 30
0.0
 11
400.1792545771561
 21
157.5618796389372
 31
0.0
  0
LINE
  5
107
330
1F
100
AcDbEntity
  8
0
100
AcDbLine
 10
238.387698310321
 20
244.3118798885316
 30
0.0
 11
238.8876993235999
 21
244.3118798885316
 31
0.0
  0
LINE
  5
108
330
1F
100
AcDbEntity
  8
0
100
AcDbLine
 10
238.8876993235999
 20
254.8118797469706
 30
0.0
 11
238.387698310321
 21
254.8118797469706
 31
0.0
  0
LINE
  5
109
330
1F
100
AcDbEntity
  8
0
100
AcDbLine
 10
238.387698310321
 20
164.3118821423323
 30
0.0
 11
238.8876993235999
 21
164.3118821423323
 31
0.0
  0
LINE
  5
10A
330
1F
100
AcDbEntity
  8
0
100
AcDbLine
 10
238.8876993235999
 20
174.8118810694487
 30
0.0
 11
238.387698310321
 21
174.8118810694487
 31
0.0
  0
LINE
  5
10B
330
1F
100
AcDbEntity
  8
0
100
AcDbLine
 10
238.387698310321
 20
324.3118785660536
 30
0.0
 11
238.8876993235999
 21
324.3118785660536
 31
0.0
  0
LINE
  5
10C
330
1F
100
AcDbEntity
  8
0
100
AcDbLine
 10
238.8876993235999
 20
334.81187749317
 30
0.0
 11
238.387698310321
 21
334.81187749317
 31
0.0
  0
LINE
  5
10D
330
1F
100
AcDbEntity
  8
0
100
AcDbLine
 10
236.8876989957744
 20
179.5618795197279
 30
0.0
 11
236.7876991656476
 21
179.5618795197279
 31
0.0
  0
LINE
  5
10E
330
1F
100
AcDbEntity
  8
0
100
AcDbLine
 10
236.7876991656476
 20
173.5618822615416
 30
0.0
 11
236.8876989957744
 21
173.5618822615416
 31
0.0
  0
LINE
  5
10F
330
1F
100
AcDbEntity
  8
0
100
AcDbLine
 10
236.8876989957744
 20
252.5618798438282
 30
0.0
 11
236.7876991656476
 21
252.5618798438282
 31
0.0
  0
LINE
  5
110
330
1F
100
AcDbEntity
  8
0
100
AcDbLine
 10
236.7876991656476
 20
246.5618797916741
 30
0.0
 11
236.8876989957744
 21
246.5618797916741
 31
0.0
  0
LINE
  5
111
330
1F
100
AcDbEntity
  8
0
100
AcDbLine
 10
236.8876989957744
 20
325.5618773739607
 30
0.0
 11
236.7876991656476
 21
325.5618773739607
 31
0.0
  0
LINE
  5
112
330
1F
100
AcDbEntity
  8
0
100
AcDbLine
 10
236.7876991656476
 20
319.5618801157743
 30
0.0
 11
236.8876989957744
 21
319.5618801157743
 31
0.0
  0
LINE
  5
113
330
1F
100
AcDbEntity
  8
0
100
AcDbLine
 10
238.387698310321
 20
249.5618798177511
 30
0.0
 11
238.387698310321
 21
254.8118797469706
 31
0.0
  0
LINE
  5
114
330
1F
100
AcDbEntity
  8
0
100
AcDbLine
 10
238.387698310321
 20
244.3118798885316
 30
0.0
 11
238.387698310321
 21
249.5618798177511
 31
0.0
  0
LINE
  5
115
330
1F
100
AcDbEntity
  8
0
100
AcDbLine
 10
238.387698310321
 20
169.5618816058905
 30
0.0
 11
238.387698310321
 21
174.8118810694487
 31
0.0
  0
LINE
  5
116
330
1F
100
AcDbEntity
  8
0
100
AcDbLine
 10
238.387698310321
 20
164.3118821423323
 30
0.0
 11
238.387698310321
 21
169.5618816058905
 31
0.0
  0
LINE
  5
117
330
1F
100
AcDbEntity
  8
0
100
AcDbLine
 10
238.387698310321
 20
329.5618780296118
 30
0.0
 11
238.387698310321
 21
334.81187749317
 31
0.0
  0
LINE
  5
118
330
1F
100
AcDbEntity
  8
0
100
AcDbLine
 10
238.387698310321
 20
324.3118785660536
 30
0.0
 11
238.387698310321
 21
329.5618780296118
 31
0.0
  0
LINE
  5
119
330
1F
100
AcDbEntity
  8
0
100
AcDbLine
 10
226.9876985837573
 20
158.0618806522162
 30
0.0
 11
224.987698721593
 21
158.0618806522162
 31
0.0
  0
LINE
  5
11A
330
1F
100
AcDbEntity
  8
0
100
AcDbLine
 10
224.987698721593
 20
158.0618806522162
 30
0.0
 11
224.987698721593
 21
160.0618772547514
 31
0.0
  0
LINE
  5
11B
330
1F
100
AcDbEntity
  8
0
100
AcDbLine
 10
226.9876985837573
 20
160.0618772547514
 30
0.0
 11
226.9876985837573
 21
158.0618806522162
 31
0.0
  0
LINE
  5
11C
330
1F
100
AcDbEntity
  8
0
100
AcDbLine
 10
224.987698721593
 20
168.5618795793326
 30
0.0
 11
224.987698721593
 21
160.0618772547514
 31
0.0
  0
LINE
  5
11D
330
1F
100
AcDbEntity
  8
0
100
AcDbLine
 10
226.9876985837573
 20
168.5618795793326
 30
0.0
 11
226.9876985837573
 21
160.0618772547514
 31
0.0
  0
LINE
  5
11E
330
1F
100
AcDbEntity
  8
0
100
AcDbLine
 10
224.987698721593
 20
168.5618795793326
 30
0.0
 11
224.987698721593
 21
170.5618761818678
 31
0.0
  0
LINE
  5
11F
330
1F
100
AcDbEntity
  8
0
100
AcDbLine
 10
226.9876985837573
 20
170.5618761818678
 30
0.0
 11
226.9876985837573
 21
168.5618795793326
 31
0.0
  0
LINE
  5
120
330
1F
100
AcDbEntity
  8
0
100
AcDbLine
 10
224.987698721593
 20
328.5618834536344
 30
0.0
 11
224.987698721593
 21
330.5618800561697
 31
0.0
  0
LINE
  5
121
330
1F
100
AcDbEntity
  8
0
100
AcDbLine
 10
226.9876985837573
 20
330.5618800561697
 30
0.0
 11
226.9876985837573
 21
328.5618834536344
 31
0.0
  0
LINE
  5
122
330
1F
100
AcDbEntity
  8
0
100
AcDbLine
 10
224.987698721593
 20
339.0618823807508
 30
0.0
 11
224.987698721593
 21
330.5618800561697
 31
0.0
  0
LINE
  5
123
330
1F
100
AcDbEntity
  8
0
100
AcDbLine
 10
226.9876985837573
 20
339.0618823807508
 30
0.0
 11
226.9876985837573
 21
330.5618800561697
 31
0.0
  0
LINE
  5
124
330
1F
100
AcDbEntity
  8
0
100
AcDbLine
 10
224.987698721593
 20
341.0618789832861
 30
0.0
 11
226.9876985837573
 21
341.0618789832861
 31
0.0
  0
LINE
  5
125
330
1F
100
AcDbEntity
  8
0
100
AcDbLine
 10
224.987698721593
 20
339.0618823807508
 30
0.0
 11
224.987698721593
 21
341.0618789832861
 31
0.0
  0
LINE
  5
126
330
1F
100
AcDbEntity
  8
0
100
AcDbLine
 10
226.9876985837573
 20
341.0618789832861
 30
0.0
 11
226.9876985837573
 21
339.0618823807508
 31
0.0
  0
LINE
  5
127
330
1F
100
AcDbEntity
  8
0
100
AcDbLine
 10
224.987698721593
 20
158.0618806522162
 30
0.0
 11
224.5876984697634
 21
158.0618806522162
 31
0.0
  0
LINE
  5
128
330
1F
100
AcDbEntity
  8
0
100
AcDbLine
 10
224.5876984697634
 20
341.0618789832861
 30
0.0
 11
224.987698721593
 21
341.0618789832861
 31
0.0
  0
LINE
  5
129
330
1F
100
AcDbEntity
  8
0
100
AcDbLine
 10
236.7876991656476
 20
328.5618834536344
 30
0.0
 11
236.7876991656476
 21
170.5618761818678
 31
0.0
  0
LINE
  5
12A
330
1F
100
AcDbEntity
  8
0
100
AcDbLine
 10
224.5876984697634
 20
170.5618761818678
 30
0.0
 11
224.5876984697634
 21
159.0618826787741
 31
0.0
  0
LINE
  5
12B
330
1F
100
AcDbEntity
  8
0
100
AcDbLine
 10
224.5876984697634
 20
340.0618769567282
 30
0.0
 11
224.5876984697634
 21
328.5618834536344
 31
0.0
  0
LINE
  5
12C
330
1F
100
AcDbEntity
  8
0
100
AcDbLine
 10
233.0876989316994
 20
232.5618788938791
 30
0.0
 11
233.0876989316994
 21
266.5618807416231
 31
0.0
  0
ARC
  5
12D
330
1F
100
AcDbEntity
  8
0
100
AcDbCircle
 10
230.0876985815221
 20
266.5618798177512
 30
0.0
 40
3.0
100
AcDbArc
 50
0.0
 51
90.0
  0
LINE
  5
12E
330
1F
100
AcDbEntity
  8
0
100
AcDbLine
 10
230.0876984399611
 20
269.5618793707163
 30
0.0
 11
226.0876987156325
 21
269.5618793707163
 31
0.0
  0
ARC
  5
12F
330
1F
100
AcDbEntity
  8
0
100
AcDbCircle
 10
226.0876985815221
 20
266.5618798177512
 30
0.0
 40
3.0
100
AcDbArc
 50
90.00000000000054
 51
180.0
  0
LINE
  5
130
330
1F
100
AcDbEntity
  8
0
100
AcDbLine
 10
223.0876986895555
 20
266.5618807416231
 30
0.0
 11
223.0876986895555
 21
232.5618788938791
 31
0.0
  0
ARC
  5
131
330
1F
100
AcDbEntity
  8
0
100
AcDbCircle
 10
226.0876985815221
 20
232.5618798177511
 30
0.0
 40
3.0
100
AcDbArc
 50
180.0
 51
270.0000000000008
  0
LINE
  5
132
330
1F
100
AcDbEntity
  8
0
100
AcDbLine
 10
226.0876987156325
 20
229.561880264786
 30
0.0
 11
230.0876984399611
 21
229.561880264786
 31
0.0
  0
ARC
  5
133
330
1F
100
AcDbEntity
  8
0
100
AcDbCircle
 10
230.0876985815221
 20
232.5618798177511
 30
0.0
 40
3.0
100
AcDbArc
 50
270.0000000000008
 51
0.0
  0
LINE
  5
134
330
1F
100
AcDbEntity
  8
0
100
AcDbLine
 10
236.7876991656476
 20
170.5618761818678
 30
0.0
 11
224.5876984697634
 21
170.5618761818678
 31
0.0
  0
LINE
  5
135
330
1F
100
AcDbEntity
  8
0
100
AcDbLine
 10
236.7876991656476
 20
328.5618834536344
 30
0.0
 11
224.5876984697634
 21
328.5618834536344
 31
0.0
  0
LINE
  5
136
330
1F
100
AcDbEntity
  8
0
100
AcDbLine
 10
224.5876984697634
 20
157.0618786256582
 30
0.0
 11
215.4876985614055
 21
157.0618786256582
 31
0.0
  0
LINE
  5
137
330
1F
100
AcDbEntity
  8
0
100
AcDbLine
 10
224.5876984697634
 20
159.0618826787741
 30
0.0
 11
224.5876984697634
 21
157.0618786256582
 31
0.0
  0
LINE
  5
138
330
1F
100
AcDbEntity
  8
0
100
AcDbLine
 10
215.4876985614055
 20
342.061881009844
 30
0.0
 11
224.5876984697634
 21
342.061881009844
 31
0.0
  0
LINE
  5
139
330
1F
100
AcDbEntity
  8
0
100
AcDbLine
 10
224.5876984697634
 20
342.061881009844
 30
0.0
 11
224.5876984697634
 21
340.0618769567282
 31
0.0
  0
LINE
  5
13A
330
1F
100
AcDbEntity
  8
0
100
AcDbLine
 10
213.9876987811977
 20
159.0618826787741
 30
0.0
 11
213.9876987811977
 21
340.0618769567282
 31
0.0
  0
LINE
  5
13B
330
1F
100
AcDbEntity
  8
0
100
AcDbLine
 10
213.9876987811977
 20
340.5618779700071
 30
0.0
 11
213.9876987811977
 21
340.0618769567282
 31
0.0
  0
ARC
  5
13C
330
1F
100
AcDbEntity
  8
0
100
AcDbCircle
 10
215.4876985815221
 20
340.5618798177511
 30
0.0
 40
1.500000000000057
100
AcDbArc
 50
90.0
 51
180.0
  0
ARC
  5
13D
330
1F
100
AcDbEntity
  8
0
100
AcDbCircle
 10
215.4876985815221
 20
158.5618798177511
 30
0.0
 40
1.5
100
AcDbArc
 50
180.0
 51
270.0000000000008
  0
LINE
  5
13E
330
1F
100
AcDbEntity
  8
0
100
AcDbLine
 10
213.9876987811977
 20
159.0618826787741
 30
0.0
 11
213.9876987811977
 21
158.5618816654951
 31
0.0
  0
ARC
  5
13F
330
1F
100
AcDbEntity
  8
0
100
AcDbCircle
 10
244.3876985815221
 20
340.5618798177511
 30
0.0
 40
1.5
100
AcDbArc
 50
0.0
 51
90.0
  0
LINE
  5
140
330
1F
100
AcDbEntity
  8
0
100
AcDbLine
 10
245.8876986083442
 20
340.5618779700071
 30
0.0
 11
245.8876986083442
 21
340.0618769567282
 31
0.0
  0
LINE
  5
141
330
1F
100
AcDbEntity
  8
0
100
AcDbLine
 10
245.8876986083442
 20
340.0618769567282
 30
0.0
 11
245.8876986083442
 21
159.0618826787741
 31
0.0
  0
LINE
  5
142
330
1F
100
AcDbEntity
  8
0
100
AcDbLine
 10
239.3876984742337
 20
342.061881009844
 30
0.0
 11
244.3876992937976
 21
342.061881009844
 31
0.0
  0
LINE
  5
143
330
1F
100
AcDbEntity
  8
0
100
AcDbLine
 10
238.8876993235999
 20
340.0618769567282
 30
0.0
 11
238.8876993235999
 21
341.561879996565
 31
0.0
  0
ARC
  5
144
330
1F
100
AcDbEntity
  8
0
100
AcDbCircle
 10
239.3876985815221
 20
341.5618798177511
 30
0.0
 40
0.5
100
AcDbArc
 50
90.0
 51
180.0
  0
LINE
  5
145
330
1F
100
AcDbEntity
  8
0
100
AcDbLine
 10
238.8876993235999
 20
159.0618826787741
 30
0.0
 11
238.8876993235999
 21
340.0618769567282
 31
0.0
  0
LINE
  5
146
330
1F
100
AcDbEntity
  8
0
100
AcDbLine
 10
245.8876986083442
 20
159.0618826787741
 30
0.0
 11
245.8876986083442
 21
158.5618816654951
 31
0.0
  0
ARC
  5
147
330
1F
100
AcDbEntity
  8
0
100
AcDbCircle
 10
244.3876985815221
 20
158.561879817751
 30
0.0
 40
1.5
100
AcDbArc
 50
270.0000000000008
 51
0.0
  0
LINE
  5
148
330
1F
100
AcDbEntity
  8
0
100
AcDbLine
 10
244.3876992937976
 20
157.0618786256582
 30
0.0
 11
239.3876984742337
 21
157.0618786256582
 31
0.0
  0
ARC
  5
149
330
1F
100
AcDbEntity
  8
0
100
AcDbCircle
 10
239.3876985815221
 20
157.561879817751
 30
0.0
 40
0.5
100
AcDbArc
 50
180.0
 51
270.0000000000008
  0
LINE
  5
14A
330
1F
100
AcDbEntity
  8
0
100
AcDbLine
 10
238.8876993235999
 20
157.5618796389372
 30
0.0
 11
238.8876993235999
 21
159.0618826787741
 31
0.0
  0
SPLINE
  5
14B
330
1F
100
AcDbEntity
  8
0
100
AcDbSpline
210
0.0
220
0.0
230
1.0
 70
    24
 71
     3
 72
    11
 73
     7
 74
     0
 42
0.000000001
 43
0.00000001
 40
0.0
 40
0.0
 40
0.0
 40
0.0
 40
0.1555536214784914
 40
0.5717076423021508
 40
0.9940219346392383
 40
1.0
 40
1.0
 40
1.0
 40
1.0
 10
238.8876993235999
 20
342.061881009844
 30
0.0
 10
238.8924383981007
 20
342.061881009844
 30
0.0
 10
238.9098559617921
 20
342.061881009844
 30
0.0
 10
239.0881410661059
 20
342.061881009844
 30
0.0
 10
239.2849459462792
 20
342.061881009844
 30
0.0
 10
239.3862840068984
 20
342.061881009844
 30
0.0
 10
239.3876984742337
 20
342.061881009844
 30
0.0
  0
LINE
  5
14C
330
1F
100
AcDbEntity
  8
0
100
AcDbLine
 10
238.8876993235999
 20
341.561879996565
 30
0.0
 11
238.8876993235999
 21
342.061881009844
 31
0.0
  0
SPLINE
  5
14D
330
1F
100
AcDbEntity
  8
0
100
AcDbSpline
210
0.0
220
0.0
230
1.0
 70
    24
 71
     3
 72
    11
 73
     7
 74
     0
 42
0.000000001
 43
0.00000001
 40
0.0
 40
0.0
 40
0.0
 40
0.0
 40
0.0059798360250515
 40
0.4517707800852256
 40
0.9180858010899049
 40
1.0
 40
1.0
 40
1.0
 40
1.0
 10
239.3876984742337
 20
157.0618786256582
 30
0.0
 10
239.3862840309625
 20
157.0618786256582
 30
0.0
 10
239.2794242212061
 20
157.0618786256577
 30
0.0
 10
239.0648644606531
 20
157.0618786256586
 30
0.0
 10
238.8983833411004
 20
157.0618786256581
 30
0.0
 10
238.8890881705013
 20
157.0618786256582
 30
0.0
 10
238.8876993235999
 20
157.0618786256582
 30
0.0
  0
LINE
  5
14E
330
1F
100
AcDbEntity
  8
0
100
AcDbLine
 10
238.8876993235999
 20
157.0618786256582
 30
0.0
 11
238.8876993235999
 21
157.5618796389372
 31
0.0
  0
LINE
  5
14F
330
1F
100
AcDbEntity
  8
0
100
AcDbLine
 10
236.8876989957744
 20
157.0618786256582
 30
0.0
 11
236.8876989957744
 21
342.061881009844
 31
0.0
  0
LINE
  5
150
330
1F
100
AcDbEntity
  8
0
100
AcDbLine
 10
238.8876993235999
 20
157.0618786256582
 30
0.0
 11
236.8876989957744
 21
157.0618786256582
 31
0.0
  0
LINE
  5
151
330
1F
100
AcDbEntity
  8
0
100
AcDbLine
 10
238.8876993235999
 20
342.061881009844
 30
0.0
 11
236.8876989957744
 21
342.061881009844
 31
0.0
  0
LINE
  5
152
330
1F
100
AcDbEntity
  8
0
  6
Continuous
 62
     8
370
     0
100
AcDbLine
 10
224.987698721593
 20
160.0618772547514
 30
0.0
 11
226.9876985837573
 21
160.0618772547514
 31
0.0
  0
LINE
  5
153
330
1F
100
AcDbEntity
  8
0
  6
Continuous
 62
     8
370
     0
100
AcDbLine
 10
226.9876985837573
 20
168.5618795793326
 30
0.0
 11
224.987698721593
 21
168.5618795793326
 31
0.0
  0
LINE
  5
154
330
1F
100
AcDbEntity
  8
0
  6
Continuous
 62
     8
370
     0
100
AcDbLine
 10
224.987698721593
 20
330.5618800561697
 30
0.0
 11
226.9876985837573
 21
330.5618800561697
 31
0.0
  0
LINE
  5
155
330
1F
100
AcDbEntity
  8
0
  6
Continuous
 62
     8
370
     0
100
AcDbLine
 10
226.9876985837573
 20
339.0618823807508
 30
0.0
 11
224.987698721593
 21
339.0618823807508
 31
0.0
  0
LINE
  5
156
330
1F
100
AcDbEntity
  8
0
  6
Continuous
 62
     8
370
     0
100
AcDbLine
 10
224.5876984697634
 20
160.0618772547514
 30
0.0
 11
224.987698721593
 21
160.0618772547514
 31
0.0
  0
LINE
  5
157
330
1F
100
AcDbEntity
  8
0
  6
Continuous
 62
     8
370
     0
100
AcDbLine
 10
224.987698721593
 20
168.5618795793326
 30
0.0
 11
224.5876984697634
 21
168.5618795793326
 31
0.0
  0
LINE
  5
158
330
1F
100
AcDbEntity
  8
0
  6
Continuous
 62
     8
370
     0
100
AcDbLine
 10
224.5876984697634
 20
330.5618800561697
 30
0.0
 11
224.987698721593
 21
330.5618800561697
 31
0.0
  0
LINE
  5
159
330
1F
100
AcDbEntity
  8
0
  6
Continuous
 62
     8
370
     0
100
AcDbLine
 10
224.987698721593
 20
339.0618823807508
 30
0.0
 11
224.5876984697634
 21
339.0618823807508
 31
0.0
  0
LINE
  5
15A
330
1F
100
AcDbEntity
  8
0
  6
Continuous
 62
     8
370
     0
100
AcDbLine
 10
215.4876985614055
 20
159.0618826787741
 30
0.0
 11
224.5876984697634
 21
159.0618826787741
 31
0.0
  0
LINE
  5
15B
330
1F
100
AcDbEntity
  8
0
  6
Continuous
 62
     8
370
     0
100
AcDbLine
 10
215.4876985614055
 20
340.0618769567282
 30
0.0
 11
215.4876985614055
 21
159.0618826787741
 31
0.0
  0
LINE
  5
15C
330
1F
100
AcDbEntity
  8
0
  6
Continuous
 62
     8
370
     0
100
AcDbLine
 10
224.5876984697634
 20
340.0618769567282
 30
0.0
 11
215.4876985614055
 21
340.0618769567282
 31
0.0
  0
LINE
  5
15D
330
1F
100
AcDbEntity
  8
0
  6
Continuous
 62
     8
370
     0
100
AcDbLine
 10
215.4876985614055
 20
157.0618786256582
 30
0.0
 11
215.4876985614055
 21
159.0618826787741
 31
0.0
  0
LINE
  5
15E
330
1F
100
AcDbEntity
  8
0
  6
Continuous
 62
     8
370
     0
100
AcDbLine
 10
215.4876985614055
 20
340.0618769567282
 30
0.0
 11
215.4876985614055
 21
342.061881009844
 31
0.0
  0
LINE
  5
15F
330
1F
100
AcDbEntity
  8
0
  6
Continuous
 62
     8
370
     0
100
AcDbLine
 10
213.9876987811977
 20
159.0618826787741
 30
0.0
 11
215.4876985614055
 21
159.0618826787741
 31
0.0
  0
LINE
  5
160
330
1F
100
AcDbEntity
  8
0
  6
Continuous
 62
     8
370
     0
100
AcDbLine
 10
215.4876985614055
 20
340.0618769567282
 30
0.0
 11
213.9876987811977
 21
340.0618769567282
 31
0.0
  0
LINE
  5
161
330
1F
100
AcDbEntity
  8
0
  6
Continuous
 62
     8
370
     0
100
AcDbLine
 10
244.3876992937976
 20
340.0618769567282
 30
0.0
 11
244.3876992937976
 21
342.061881009844
 31
0.0
  0
LINE
  5
162
330
1F
100
AcDbEntity
  8
0
  6
Continuous
 62
     8
370
     0
100
AcDbLine
 10
244.3876992937976
 20
340.0618769567282
 30
0.0
 11
245.8876986083442
 21
340.0618769567282
 31
0.0
  0
LINE
  5
163
330
1F
100
AcDbEntity
  8
0
  6
Continuous
 62
     8
370
     0
100
AcDbLine
 10
244.3876992937976
 20
159.0618826787741
 30
0.0
 11
244.3876992937976
 21
340.0618769567282
 31
0.0
  0
LINE
  5
164
330
1F
100
AcDbEntity
  8
0
  6
Continuous
 62
     8
370
     0
100
AcDbLine
 10
244.3876992937976
 20
159.0618826787741
 30
0.0
 11
245.8876986083442
 21
159.0618826787741
 31
0.0
  0
LINE
  5
165
330
1F
100
AcDbEntity
  8
0
  6
Continuous
 62
     8
370
     0
100
AcDbLine
 10
239.3876984742337
 20
342.061881009844
 30
0.0
 11
239.3876984742337
 21
340.0618769567282
 31
0.0
  0
LINE
  5
166
330
1F
100
AcDbEntity
  8
0
  6
Continuous
 62
     8
370
     0
100
AcDbLine
 10
244.3876992937976
 20
340.0618769567282
 30
0.0
 11
239.3876984742337
 21
340.0618769567282
 31
0.0
  0
LINE
  5
167
330
1F
100
AcDbEntity
  8
0
  6
Continuous
 62
     8
370
     0
100
AcDbLine
 10
239.3876984742337
 20
340.0618769567282
 30
0.0
 11
239.3876984742337
 21
159.0618826787741
 31
0.0
  0
LINE
  5
168
330
1F
100
AcDbEntity
  8
0
  6
Continuous
 62
     8
370
     0
100
AcDbLine
 10
239.3876984742337
 20
159.0618826787741
 30
0.0
 11
244.3876992937976
 21
159.0618826787741
 31
0.0
  0
LINE
  5
169
330
1F
100
AcDbEntity
  8
0
  6
Continuous
 62
     8
370
     0
100
AcDbLine
 10
239.3876984742337
 20
340.0618769567282
 30
0.0
 11
238.8876993235999
 21
340.0618769567282
 31
0.0
  0
LINE
  5
16A
330
1F
100
AcDbEntity
  8
0
  6
Continuous
 62
     8
370
     0
100
AcDbLine
 10
239.3876984742337
 20
159.0618826787741
 30
0.0
 11
238.8876993235999
 21
159.0618826787741
 31
0.0
  0
LINE
  5
16B
330
1F
100
AcDbEntity
  8
0
  6
Continuous
 62
     8
370
     0
100
AcDbLine
 10
244.3876992937976
 20
157.0618786256582
 30
0.0
 11
244.3876992937976
 21
159.0618826787741
 31
0.0
  0
LINE
  5
16C
330
1F
100
AcDbEntity
  8
0
  6
Continuous
 62
     8
370
     0
100
AcDbLine
 10
239.3876984742337
 20
159.0618826787741
 30
0.0
 11
239.3876984742337
 21
157.0618786256582
 31
0.0
  0
LINE
  5
16D
330
1F
100
AcDbEntity
  8
0
100
AcDbLine
 10
389.4292551434002
 20
400.2500516552213
 30
0.0
 11
389.4292551434002
 21
399.7500506419423
 31
0.0
  0
LINE
  5
16E
330
1F
100
AcDbEntity
  8
0
100
AcDbLine
 10
399.9292540705166
 20
399.7500506419423
 30
0.0
 11
399.9292540705166
 21
400.2500516552213
 31
0.0
  0
LINE
  5
16F
330
1F
100
AcDbEntity
  8
0
100
AcDbLine
 10
380.1792550241909
 20
401.7500509697679
 30
0.0
 11
380.1792550241909
 21
402.8500509638074
 31
0.0
  0
LINE
  5
170
330
1F
100
AcDbEntity
  8
0
100
AcDbLine
 10
374.1792559033594
 20
402.8500509638074
 30
0.0
 11
374.1792559033594
 21
401.7500509697679
 31
0.0
  0
LINE
  5
171
330
1F
100
AcDbEntity
  8
0
100
AcDbLine
 10
360.1792557040564
 20
401.7500509697679
 30
0.0
 11
360.1792557040564
 21
402.8500509638074
 31
0.0
  0
LINE
  5
172
330
1F
100
AcDbEntity
  8
0
100
AcDbLine
 10
354.1792554190717
 20
402.8500509638074
 30
0.0
 11
354.1792554190717
 21
401.7500509697679
 31
0.0
  0
LINE
  5
173
330
1F
100
AcDbEntity
  8
0
100
AcDbLine
 10
389.4292551434002
 20
400.2500516552213
 30
0.0
 11
399.9292540705166
 21
400.2500516552213
 31
0.0
  0
CIRCLE
  5
174
330
1F
100
AcDbEntity
  8
0
100
AcDbCircle
 10
362.1792557990512
 20
398.2500513840201
 30
0.0
 40
1.499999999999999
  0
LINE
  5
175
330
1F
100
AcDbEntity
  8
0
100
AcDbLine
 10
363.3199409690089
 20
398.0706897753957
 30
0.0
 11
362.9049304166212
 21
399.148231856871
 31
0.0
  0
LINE
  5
176
330
1F
100
AcDbEntity
  8
0
100
AcDbLine
 10
362.9049304166212
 20
399.148231856871
 30
0.0
 11
361.7642453048713
 21
399.3275952715161
 31
0.0
  0
LINE
  5
177
330
1F
100
AcDbEntity
  8
0
100
AcDbLine
 10
361.7642453048713
 20
399.3275952715161
 30
0.0
 11
361.0385706290937
 21
398.4294128793958
 31
0.0
  0
LINE
  5
178
330
1F
100
AcDbEntity
  8
0
100
AcDbLine
 10
361.0385706290937
 20
398.4294128793958
 30
0.0
 11
361.4535811814814
 21
397.3518707979205
 31
0.0
  0
LINE
  5
179
330
1F
100
AcDbEntity
  8
0
100
AcDbLine
 10
362.5942662932313
 20
397.1725073832753
 30
0.0
 11
363.3199409690089
 21
398.0706897753957
 31
0.0
  0
LINE
  5
17A
330
1F
100
AcDbEntity
  8
0
100
AcDbLine
 10
361.4535811814814
 20
397.3518707979205
 30
0.0
 11
362.5942662932313
 21
397.1725073832753
 31
0.0
  0
LINE
  5
17B
330
1F
100
AcDbEntity
  8
0
100
AcDbLine
 10
383.1792555159292
 20
413.6500512439492
 30
0.0
 11
342.1792562460861
 21
413.6500512439492
 31
0.0
  0
LINE
  5
17C
330
1F
100
AcDbEntity
  8
0
100
AcDbLine
 10
383.1792555159292
 20
411.650051381785
 30
0.0
 11
342.1792562460861
 21
411.650051381785
 31
0.0
  0
LINE
  5
17D
330
1F
100
AcDbEntity
  8
0
100
AcDbLine
 10
338.179255590435
 20
411.650051381785
 30
0.0
 11
338.179255590435
 21
413.6500512439492
 31
0.0
  0
LINE
  5
17E
330
1F
100
AcDbEntity
  8
0
100
AcDbLine
 10
338.179255590435
 20
413.6500512439492
 30
0.0
 11
342.1792562460861
 21
413.6500512439492
 31
0.0
  0
LINE
  5
17F
330
1F
100
AcDbEntity
  8
0
100
AcDbLine
 10
342.1792562460861
 20
411.650051381785
 30
0.0
 11
338.179255590435
 21
411.650051381785
 31
0.0
  0
LINE
  5
180
330
1F
100
AcDbEntity
  8
0
100
AcDbLine
 10
385.1792558437548
 20
413.6500512439492
 30
0.0
 11
385.1792558437548
 21
411.650051381785
 31
0.0
  0
LINE
  5
181
330
1F
100
AcDbEntity
  8
0
100
AcDbLine
 10
383.1792555159292
 20
413.6500512439492
 30
0.0
 11
385.1792558437548
 21
413.6500512439492
 31
0.0
  0
LINE
  5
182
330
1F
100
AcDbEntity
  8
0
100
AcDbLine
 10
385.1792558437548
 20
411.650051381785
 30
0.0
 11
383.1792555159292
 21
411.650051381785
 31
0.0
  0
LINE
  5
183
330
1F
100
AcDbEntity
  8
0
100
AcDbLine
 10
338.179255590435
 20
413.6500512439492
 30
0.0
 11
338.179255590435
 21
414.0500514957789
 31
0.0
  0
LINE
  5
184
330
1F
100
AcDbEntity
  8
0
100
AcDbLine
 10
385.1792558437548
 20
414.0500514957789
 30
0.0
 11
385.1792558437548
 21
413.6500512439492
 31
0.0
  0
LINE
  5
185
330
1F
100
AcDbEntity
  8
0
100
AcDbLine
 10
337.1792554265223
 20
414.0500514957789
 30
0.0
 11
337.1792554265223
 21
423.1500514041367
 31
0.0
  0
LINE
  5
186
330
1F
100
AcDbEntity
  8
0
100
AcDbLine
 10
339.1792557543478
 20
414.0500514957789
 30
0.0
 11
337.1792554265223
 21
414.0500514957789
 31
0.0
  0
LINE
  5
187
330
1F
100
AcDbEntity
  8
0
100
AcDbLine
 10
387.1792561715803
 20
423.1500514041367
 30
0.0
 11
387.1792561715803
 21
414.0500514957789
 31
0.0
  0
LINE
  5
188
330
1F
100
AcDbEntity
  8
0
100
AcDbLine
 10
387.1792561715803
 20
414.0500514957789
 30
0.0
 11
385.1792558437548
 21
414.0500514957789
 31
0.0
  0
LINE
  5
189
330
1F
100
AcDbEntity
  8
0
100
AcDbLine
 10
385.1792558437548
 20
414.0500514957789
 30
0.0
 11
339.1792557543478
 21
414.0500514957789
 31
0.0
  0
LINE
  5
18A
330
1F
100
AcDbEntity
  8
0
100
AcDbLine
 10
339.1792557543478
 20
424.6500511843446
 30
0.0
 11
385.1792558437548
 21
424.6500511843446
 31
0.0
  0
ARC
  5
18B
330
1F
100
AcDbEntity
  8
0
100
AcDbCircle
 10
338.6792557990514
 20
423.1500513840202
 30
0.0
 40
1.5
100
AcDbArc
 50
90.0
 51
180.0
  0
LINE
  5
18C
330
1F
100
AcDbEntity
  8
0
100
AcDbLine
 10
339.1792557543478
 20
424.6500511843446
 30
0.0
 11
338.679256603714
 21
424.6500511843446
 31
0.0
  0
LINE
  5
18D
330
1F
100
AcDbEntity
  8
0
100
AcDbLine
 10
385.6792549943886
 20
424.6500511843446
 30
0.0
 11
385.1792558437548
 21
424.6500511843446
 31
0.0
  0
ARC
  5
18E
330
1F
100
AcDbEntity
  8
0
100
AcDbCircle
 10
385.6792557990513
 20
423.1500513840202
 30
0.0
 40
1.5
100
AcDbArc
 50
0.0
 51
90.0
  0
LINE
  5
18F
330
1F
100
AcDbEntity
  8
0
100
AcDbLine
 10
387.1792561715803
 20
401.8500507998946
 30
0.0
 11
385.1792558437548
 21
401.8500507998946
 31
0.0
  0
LINE
  5
190
330
1F
100
AcDbEntity
  8
0
100
AcDbLine
 10
385.1792558437548
 20
402.8500509638074
 30
0.0
 11
385.1792558437548
 21
401.8500507998946
 31
0.0
  0
LINE
  5
191
330
1F
100
AcDbEntity
  8
0
100
AcDbLine
 10
385.1792558437548
 20
402.8500509638074
 30
0.0
 11
354.6792559666894
 21
402.8500509638074
 31
0.0
  0
LINE
  5
192
330
1F
100
AcDbEntity
  8
0
100
AcDbLine
 10
387.1792561715803
 20
401.8500507998946
 30
0.0
 11
387.1792561715803
 21
414.0500514957789
 31
0.0
  0
LINE
  5
193
330
1F
100
AcDbEntity
  8
0
100
AcDbLine
 10
347.1792561343274
 20
402.8500509638074
 30
0.0
 11
347.1792561343274
 21
411.650051381785
 31
0.0
  0
LINE
  5
194
330
1F
100
AcDbEntity
  8
0
100
AcDbLine
 10
354.6792559666894
 20
402.8500509638074
 30
0.0
 11
347.1792561343274
 21
402.8500509638074
 31
0.0
  0
CIRCLE
  5
195
330
1F
100
AcDbEntity
  8
0
100
AcDbCircle
 10
362.1792557990512
 20
398.2500513840201
 30
0.0
 40
1.649999999999977
  0
LINE
  5
196
330
1F
100
AcDbEntity
  8
0
100
AcDbLine
 10
339.1792557543478
 20
401.7500509697679
 30
0.0
 11
387.1792561715803
 21
401.7500509697679
 31
0.0
  0
LINE
  5
197
330
1F
100
AcDbEntity
  8
0
100
AcDbLine
 10
387.1792561715803
 20
399.7500506419423
 30
0.0
 11
387.1792561715803
 21
401.7500509697679
 31
0.0
  0
LINE
  5
198
330
1F
100
AcDbEntity
  8
0
100
AcDbLine
 10
387.1792561715803
 20
399.7500506419423
 30
0.0
 11
388.4998063898049
 21
399.7500506419423
 31
0.0
  0
SPLINE
  5
199
330
1F
100
AcDbEntity
  8
0
100
AcDbSpline
210
0.0
220
0.0
230
1.0
 70
     8
 71
     3
 72
    11
 73
     7
 74
     0
 42
0.000000001
 43
0.00000001
 40
0.0
 40
0.0
 40
0.0
 40
0.0
 40
0.0059798360250515
 40
0.4517707800852256
 40
0.9180858010899049
 40
1.0
 40
1.0
 40
1.0
 40
1.0
 10
390.6792558139525
 20
399.2500514913085
 30
0.0
 10
390.6750133078189
 20
399.2514659345797
 30
0.0
 10
390.3544961067664
 20
399.3583257443361
 30
0.0
 10
389.7038864772906
 20
399.5728855048891
 30
0.0
 10
388.9711494038983
 20
399.7393666244418
 30
0.0
 10
388.5610776564053
 20
399.7486617950408
 30
0.0
 10
388.4998063898049
 20
399.7500506419423
 30
0.0
  0
LINE
  5
19A
330
1F
100
AcDbEntity
  8
0
100
AcDbLine
 10
400.1792545771561
 20
392.7500513571981
 30
0.0
 11
339.1792557543478
 21
392.7500513571981
 31
0.0
  0
LINE
  5
19B
330
1F
100
AcDbEntity
  8
0
100
AcDbLine
 10
400.679255590435
 20
392.7500513571981
 30
0.0
 11
400.1792545771561
 21
392.7500513571981
 31
0.0
  0
ARC
  5
19C
330
1F
100
AcDbEntity
  8
0
100
AcDbCircle
 10
400.6792557990512
 20
394.2500513840201
 30
0.0
 40
1.500000000000057
100
AcDbArc
 50
270.0
 51
0.0
  0
LINE
  5
19D
330
1F
100
AcDbEntity
  8
0
100
AcDbLine
 10
402.1792549049816
 20
399.2500514913085
 30
0.0
 11
402.1792549049816
 21
394.2500506717446
 31
0.0
  0
LINE
  5
19E
330
1F
100
AcDbEntity
  8
0
100
AcDbLine
 10
390.6792558139525
 20
399.7500506419423
 30
0.0
 11
400.1792545771561
 21
399.7500506419423
 31
0.0
  0
ARC
  5
19F
330
1F
100
AcDbEntity
  8
0
100
AcDbCircle
 10
401.6792557990512
 20
399.2500513840201
 30
0.0
 40
0.5000000000000568
100
AcDbArc
 50
0.0
 51
90.0
  0
LINE
  5
1A0
330
1F
100
AcDbEntity
  8
0
100
AcDbLine
 10
400.1792545771561
 20
399.7500506419423
 30
0.0
 11
401.679257616993
 21
399.7500506419423
 31
0.0
  0
LINE
  5
1A1
330
1F
100
AcDbEntity
  8
0
100
AcDbLine
 10
339.1792557543478
 20
392.7500513571981
 30
0.0
 11
338.679256603714
 21
392.7500513571981
 31
0.0
  0
ARC
  5
1A2
330
1F
100
AcDbEntity
  8
0
100
AcDbCircle
 10
338.6792557990512
 20
394.2500513840201
 30
0.0
 40
1.5
100
AcDbArc
 50
180.0
 51
270.0
  0
LINE
  5
1A3
330
1F
100
AcDbEntity
  8
0
100
AcDbLine
 10
388.4998063898049
 20
399.7500506419423
 30
0.0
 11
390.6792558139525
 21
399.7500506419423
 31
0.0
  0
LINE
  5
1A4
330
1F
100
AcDbEntity
  8
0
100
AcDbLine
 10
337.1792554265223
 20
394.2500506717446
 30
0.0
 11
337.1792554265223
 21
401.7500509697679
 31
0.0
  0
LINE
  5
1A5
330
1F
100
AcDbEntity
  8
0
100
AcDbLine
 10
337.1792554265223
 20
401.7500509697679
 30
0.0
 11
339.1792557543478
 21
401.7500509697679
 31
0.0
  0
LINE
  5
1A6
330
1F
100
AcDbEntity
  8
0
  6
Continuous
 62
     8
370
     0
100
AcDbLine
 10
342.1792562460861
 20
413.6500512439492
 30
0.0
 11
342.1792562460861
 21
411.650051381785
 31
0.0
  0
LINE
  5
1A7
330
1F
100
AcDbEntity
  8
0
  6
Continuous
 62
     8
370
     0
100
AcDbLine
 10
383.1792555159292
 20
411.650051381785
 30
0.0
 11
383.1792555159292
 21
413.6500512439492
 31
0.0
  0
LINE
  5
1A8
330
1F
100
AcDbEntity
  8
0
  6
Continuous
 62
     8
370
     0
100
AcDbLine
 10
342.1792562460861
 20
414.0500514957789
 30
0.0
 11
342.1792562460861
 21
413.6500512439492
 31
0.0
  0
LINE
  5
1A9
330
1F
100
AcDbEntity
  8
0
  6
Continuous
 62
     8
370
     0
100
AcDbLine
 10
383.1792555159292
 20
413.6500512439492
 30
0.0
 11
383.1792555159292
 21
414.0500514957789
 31
0.0
  0
LINE
  5
1AA
330
1F
100
AcDbEntity
  8
0
  6
Continuous
 62
     8
370
     0
100
AcDbLine
 10
337.1792554265223
 20
423.1500514041367
 30
0.0
 11
339.1792557543478
 21
423.1500514041367
 31
0.0
  0
LINE
  5
1AB
330
1F
100
AcDbEntity
  8
0
  6
Continuous
 62
     8
370
     0
100
AcDbLine
 10
339.1792557543478
 20
423.1500514041367
 30
0.0
 11
339.1792557543478
 21
414.0500514957789
 31
0.0
  0
LINE
  5
1AC
330
1F
100
AcDbEntity
  8
0
  6
Continuous
 62
     8
370
     0
100
AcDbLine
 10
385.1792558437548
 20
414.0500514957789
 30
0.0
 11
385.1792558437548
 21
423.1500514041367
 31
0.0
  0
LINE
  5
1AD
330
1F
100
AcDbEntity
  8
0
  6
Continuous
 62
     8
370
     0
100
AcDbLine
 10
385.1792558437548
 20
423.1500514041367
 30
0.0
 11
387.1792561715803
 21
423.1500514041367
 31
0.0
  0
LINE
  5
1AE
330
1F
100
AcDbEntity
  8
0
  6
Continuous
 62
     8
370
     0
100
AcDbLine
 10
385.1792558437548
 20
423.1500514041367
 30
0.0
 11
339.1792557543478
 21
423.1500514041367
 31
0.0
  0
LINE
  5
1AF
330
1F
100
AcDbEntity
  8
0
  6
Continuous
 62
     8
370
     0
100
AcDbLine
 10
339.1792557543478
 20
424.6500511843446
 30
0.0
 11
339.1792557543478
 21
423.1500514041367
 31
0.0
  0
LINE
  5
1B0
330
1F
100
AcDbEntity
  8
0
  6
Continuous
 62
     8
370
     0
100
AcDbLine
 10
385.1792558437548
 20
423.1500514041367
 30
0.0
 11
385.1792558437548
 21
424.6500511843446
 31
0.0
  0
LINE
  5
1B1
330
1F
100
AcDbEntity
  8
0
  6
Continuous
 62
     8
370
     0
100
AcDbLine
 10
354.6792559666894
 20
411.650051381785
 30
0.0
 11
354.6792559666894
 21
402.8500509638074
 31
0.0
  0
LINE
  5
1B2
330
1F
100
AcDbEntity
  8
0
  6
Continuous
 62
     8
370
     0
100
AcDbLine
 10
400.1792545771561
 20
399.2500514913085
 30
0.0
 11
390.6792558139525
 21
399.2500514913085
 31
0.0
  0
LINE
  5
1B3
330
1F
100
AcDbEntity
  8
0
  6
Continuous
 62
     8
370
     0
100
AcDbLine
 10
400.1792545771561
 20
394.2500506717446
 30
0.0
 11
400.1792545771561
 21
399.2500514913085
 31
0.0
  0
LINE
  5
1B4
330
1F
100
AcDbEntity
  8
0
  6
Continuous
 62
     8
370
     0
100
AcDbLine
 10
339.1792557543478
 20
394.2500506717446
 30
0.0
 11
400.1792545771561
 21
394.2500506717446
 31
0.0
  0
LINE
  5
1B5
330
1F
100
AcDbEntity
  8
0
  6
Continuous
 62
     8
370
     0
100
AcDbLine
 10
339.1792557543478
 20
401.7500509697679
 30
0.0
 11
339.1792557543478
 21
394.2500506717446
 31
0.0
  0
LINE
  5
1B6
330
1F
100
AcDbEntity
  8
0
  6
Continuous
 62
     8
370
     0
100
AcDbLine
 10
339.1792557543478
 20
392.7500513571981
 30
0.0
 11
339.1792557543478
 21
394.2500506717446
 31
0.0
  0
LINE
  5
1B7
330
1F
100
AcDbEntity
  8
0
  6
Continuous
 62
     8
370
     0
100
AcDbLine
 10
400.1792545771561
 20
392.7500513571981
 30
0.0
 11
400.1792545771561
 21
394.2500506717446
 31
0.0
  0
LINE
  5
1B8
330
1F
100
AcDbEntity
  8
0
  6
Continuous
 62
     8
370
     0
100
AcDbLine
 10
400.1792545771561
 20
394.2500506717446
 30
0.0
 11
402.1792549049816
 21
394.2500506717446
 31
0.0
  0
LINE
  5
1B9
330
1F
100
AcDbEntity
  8
0
  6
Continuous
 62
     8
370
     0
100
AcDbLine
 10
402.1792549049816
 20
399.2500514913085
 30
0.0
 11
400.1792545771561
 21
399.2500514913085
 31
0.0
  0
LINE
  5
1BA
330
1F
100
AcDbEntity
  8
0
  6
Continuous
 62
     8
370
     0
100
AcDbLine
 10
390.6792558139525
 20
399.2500514913085
 30
0.0
 11
390.6792558139525
 21
399.7500506419423
 31
0.0
  0
LINE
  5
1BB
330
1F
100
AcDbEntity
  8
0
  6
Continuous
 62
     8
370
     0
100
AcDbLine
 10
400.1792545771561
 20
399.2500514913085
 30
0.0
 11
400.1792545771561
 21
399.7500506419423
 31
0.0
  0
LINE
  5
1BC
330
1F
100
AcDbEntity
  8
0
  6
Continuous
 62
     8
370
     0
100
AcDbLine
 10
337.1792554265223
 20
394.2500506717446
 30
0.0
 11
339.1792557543478
 21
394.2500506717446
 31
0.0
  0
LINE
  5
1BD
330
1F
100
AcDbEntity
  8
0
100
AcDbLine
 10
399.9292540705166
 20
92.53838935042552
 30
0.0
 11
399.9292540705166
 21
93.03839036370448
 31
0.0
  0
LINE
  5
1BE
330
1F
100
AcDbEntity
  8
0
100
AcDbLine
 10
389.4292551434002
 20
93.03839036370448
 30
0.0
 11
389.4292551434002
 21
92.53838935042552
 31
0.0
  0
LINE
  5
1BF
330
1F
100
AcDbEntity
  8
0
100
AcDbLine
 10
354.1792554190717
 20
91.03839003587893
 30
0.0
 11
354.1792554190717
 21
89.9383900418394
 31
0.0
  0
LINE
  5
1C0
330
1F
100
AcDbEntity
  8
0
100
AcDbLine
 10
360.1792557040564
 20
89.9383900418394
 30
0.0
 11
360.1792557040564
 21
91.03839003587893
 31
0.0
  0
LINE
  5
1C1
330
1F
100
AcDbEntity
  8
0
100
AcDbLine
 10
374.1792559033594
 20
91.03839003587893
 30
0.0
 11
374.1792559033594
 21
89.9383900418394
 31
0.0
  0
LINE
  5
1C2
330
1F
100
AcDbEntity
  8
0
100
AcDbLine
 10
380.1792550241909
 20
89.9383900418394
 30
0.0
 11
380.1792550241909
 21
91.03839003587893
 31
0.0
  0
LINE
  5
1C3
330
1F
100
AcDbEntity
  8
0
100
AcDbLine
 10
399.9292540705166
 20
92.53838935042552
 30
0.0
 11
389.4292551434002
 21
92.53838935042552
 31
0.0
  0
LINE
  5
1C4
330
1F
100
AcDbEntity
  8
0
100
AcDbLine
 10
383.1792555159292
 20
81.13838962386183
 30
0.0
 11
385.1792558437548
 21
81.13838962386183
 31
0.0
  0
LINE
  5
1C5
330
1F
100
AcDbEntity
  8
0
100
AcDbLine
 10
385.1792558437548
 20
81.13838962386183
 30
0.0
 11
385.1792558437548
 21
79.13838976169757
 31
0.0
  0
LINE
  5
1C6
330
1F
100
AcDbEntity
  8
0
100
AcDbLine
 10
385.1792558437548
 20
79.13838976169757
 30
0.0
 11
383.1792555159292
 21
79.13838976169757
 31
0.0
  0
LINE
  5
1C7
330
1F
100
AcDbEntity
  8
0
100
AcDbLine
 10
342.1792562460861
 20
79.13838976169757
 30
0.0
 11
383.1792555159292
 21
79.13838976169757
 31
0.0
  0
LINE
  5
1C8
330
1F
100
AcDbEntity
  8
0
100
AcDbLine
 10
342.1792562460861
 20
81.13838962386183
 30
0.0
 11
383.1792555159292
 21
81.13838962386183
 31
0.0
  0
LINE
  5
1C9
330
1F
100
AcDbEntity
  8
0
100
AcDbLine
 10
338.179255590435
 20
79.13838976169757
 30
0.0
 11
338.179255590435
 21
81.13838962386183
 31
0.0
  0
LINE
  5
1CA
330
1F
100
AcDbEntity
  8
0
100
AcDbLine
 10
342.1792562460861
 20
79.13838976169757
 30
0.0
 11
338.179255590435
 21
79.13838976169757
 31
0.0
  0
LINE
  5
1CB
330
1F
100
AcDbEntity
  8
0
100
AcDbLine
 10
338.179255590435
 20
81.13838962386183
 30
0.0
 11
342.1792562460861
 21
81.13838962386183
 31
0.0
  0
LINE
  5
1CC
330
1F
100
AcDbEntity
  8
0
100
AcDbLine
 10
385.1792558437548
 20
79.13838976169757
 30
0.0
 11
385.1792558437548
 21
78.73838950986794
 31
0.0
  0
LINE
  5
1CD
330
1F
100
AcDbEntity
  8
0
100
AcDbLine
 10
338.179255590435
 20
78.73838950986794
 30
0.0
 11
338.179255590435
 21
79.13838976169757
 31
0.0
  0
LINE
  5
1CE
330
1F
100
AcDbEntity
  8
0
100
AcDbLine
 10
339.1792557543478
 20
78.73838950986794
 30
0.0
 11
385.1792558437548
 21
78.73838950986794
 31
0.0
  0
LINE
  5
1CF
330
1F
100
AcDbEntity
  8
0
100
AcDbLine
 10
337.1792554265223
 20
69.63838960151008
 30
0.0
 11
337.1792554265223
 21
78.73838950986794
 31
0.0
  0
LINE
  5
1D0
330
1F
100
AcDbEntity
  8
0
100
AcDbLine
 10
337.1792554265223
 20
78.73838950986794
 30
0.0
 11
339.1792557543478
 21
78.73838950986794
 31
0.0
  0
LINE
  5
1D1
330
1F
100
AcDbEntity
  8
0
100
AcDbLine
 10
387.1792561715803
 20
78.73838950986794
 30
0.0
 11
387.1792561715803
 21
69.63838960151008
 31
0.0
  0
LINE
  5
1D2
330
1F
100
AcDbEntity
  8
0
100
AcDbLine
 10
385.1792558437548
 20
78.73838950986794
 30
0.0
 11
387.1792561715803
 21
78.73838950986794
 31
0.0
  0
LINE
  5
1D3
330
1F
100
AcDbEntity
  8
0
100
AcDbLine
 10
385.1792558437548
 20
68.13838982130221
 30
0.0
 11
339.1792557543478
 21
68.13838982130221
 31
0.0
  0
LINE
  5
1D4
330
1F
100
AcDbEntity
  8
0
100
AcDbLine
 10
385.1792558437548
 20
68.13838982130221
 30
0.0
 11
385.6792549943886
 21
68.13838982130221
 31
0.0
  0
ARC
  5
1D5
330
1F
100
AcDbEntity
  8
0
100
AcDbCircle
 10
385.6792557990513
 20
69.63838962162663
 30
0.0
 40
1.5
100
AcDbArc
 50
270.0
 51
0.0
  0
LINE
  5
1D6
330
1F
100
AcDbEntity
  8
0
100
AcDbLine
 10
338.679256603714
 20
68.13838982130221
 30
0.0
 11
339.1792557543478
 21
68.13838982130221
 31
0.0
  0
ARC
  5
1D7
330
1F
100
AcDbEntity
  8
0
100
AcDbCircle
 10
338.6792557990514
 20
69.63838962162663
 30
0.0
 40
1.5
100
AcDbArc
 50
180.0
 51
270.0
  0
LINE
  5
1D8
330
1F
100
AcDbEntity
  8
0
100
AcDbLine
 10
354.6792559666894
 20
89.9383900418394
 30
0.0
 11
385.1792558437548
 21
89.9383900418394
 31
0.0
  0
LINE
  5
1D9
330
1F
100
AcDbEntity
  8
0
100
AcDbLine
 10
385.1792558437548
 20
89.9383900418394
 30
0.0
 11
385.1792558437548
 21
90.93839020575217
 31
0.0
  0
LINE
  5
1DA
330
1F
100
AcDbEntity
  8
0
100
AcDbLine
 10
385.1792558437548
 20
90.93839020575217
 30
0.0
 11
387.1792561715803
 21
90.93839020575217
 31
0.0
  0
LINE
  5
1DB
330
1F
100
AcDbEntity
  8
0
100
AcDbLine
 10
387.1792561715803
 20
90.93839020575217
 30
0.0
 11
387.1792561715803
 21
78.73838950986794
 31
0.0
  0
LINE
  5
1DC
330
1F
100
AcDbEntity
  8
0
100
AcDbLine
 10
347.1792561343274
 20
81.13838962386183
 30
0.0
 11
347.1792561343274
 21
89.9383900418394
 31
0.0
  0
LINE
  5
1DD
330
1F
100
AcDbEntity
  8
0
100
AcDbLine
 10
347.1792561343274
 20
89.9383900418394
 30
0.0
 11
354.6792559666894
 21
89.9383900418394
 31
0.0
  0
SPLINE
  5
1DE
330
1F
100
AcDbEntity
  8
0
100
AcDbSpline
210
0.0
220
0.0
230
1.0
 70
     8
 71
     3
 72
    11
 73
     7
 74
     0
 42
0.000000001
 43
0.00000001
 40
0.0
 40
0.0
 40
0.0
 40
0.0
 40
0.1555536214784914
 40
0.5717076423021508
 40
0.9940219346392383
 40
1.0
 40
1.0
 40
1.0
 40
1.0
 10
388.4998063898049
 20
93.03839036370448
 30
0.0
 10
388.6161937706915
 20
93.04312943820524
 30
0.0
 10
389.0439533720944
 20
93.06054700189667
 30
0.0
 10
389.7719896158724
 20
93.23883210621047
 30
0.0
 10
390.3710643620795
 20
93.43563698638371
 30
0.0
 10
390.6750133223042
 20
93.536975047003
 30
0.0
 10
390.6792558139525
 20
93.53838951433829
 30
0.0
  0
LINE
  5
1DF
330
1F
100
AcDbEntity
  8
0
100
AcDbLine
 10
387.1792561715803
 20
93.03839036370448
 30
0.0
 11
388.4998063898049
 21
93.03839036370448
 31
0.0
  0
LINE
  5
1E0
330
1F
100
AcDbEntity
  8
0
100
AcDbLine
 10
387.1792561715803
 20
93.03839036370448
 30
0.0
 11
387.1792561715803
 21
91.03839003587893
 31
0.0
  0
LINE
  5
1E1
330
1F
100
AcDbEntity
  8
0
100
AcDbLine
 10
387.1792561715803
 20
91.03839003587893
 30
0.0
 11
339.1792557543478
 21
91.03839003587893
 31
0.0
  0
LINE
  5
1E2
330
1F
100
AcDbEntity
  8
0
100
AcDbLine
 10
338.679256603714
 20
100.0383896484487
 30
0.0
 11
339.1792557543478
 21
100.0383896484487
 31
0.0
  0
ARC
  5
1E3
330
1F
100
AcDbEntity
  8
0
100
AcDbCircle
 10
338.6792557990513
 20
98.53838962162664
 30
0.0
 40
1.5
100
AcDbArc
 50
90.0
 51
180.0
  0
LINE
  5
1E4
330
1F
100
AcDbEntity
  8
0
100
AcDbLine
 10
339.1792557543478
 20
100.0383896484487
 30
0.0
 11
400.1792545771561
 21
100.0383896484487
 31
0.0
  0
LINE
  5
1E5
330
1F
100
AcDbEntity
  8
0
100
AcDbLine
 10
339.1792557543478
 20
91.03839003587893
 30
0.0
 11
337.1792554265223
 21
91.03839003587893
 31
0.0
  0
LINE
  5
1E6
330
1F
100
AcDbEntity
  8
0
100
AcDbLine
 10
337.1792554265223
 20
91.03839003587893
 30
0.0
 11
337.1792554265223
 21
98.53839033390216
 31
0.0
  0
LINE
  5
1E7
330
1F
100
AcDbEntity
  8
0
100
AcDbLine
 10
400.1792545771561
 20
100.0383896484487
 30
0.0
 11
400.679255590435
 21
100.0383896484487
 31
0.0
  0
ARC
  5
1E8
330
1F
100
AcDbEntity
  8
0
100
AcDbCircle
 10
400.6792557990514
 20
98.53838962162664
 30
0.0
 40
1.5
100
AcDbArc
 50
0.0
 51
90.0
  0
LINE
  5
1E9
330
1F
100
AcDbEntity
  8
0
100
AcDbLine
 10
400.1792545771561
 20
93.03839036370448
 30
0.0
 11
390.6792558139525
 21
93.03839036370448
 31
0.0
  0
LINE
  5
1EA
330
1F
100
AcDbEntity
  8
0
100
AcDbLine
 10
402.1792549049816
 20
98.53839033390216
 30
0.0
 11
402.1792549049816
 21
93.53838951433829
 31
0.0
  0
LINE
  5
1EB
330
1F
100
AcDbEntity
  8
0
100
AcDbLine
 10
390.6792558139525
 20
93.03839036370448
 30
0.0
 11
388.4998063898049
 21
93.03839036370448
 31
0.0
  0
ARC
  5
1EC
330
1F
100
AcDbEntity
  8
0
100
AcDbCircle
 10
401.6792557990514
 20
93.53838962162665
 30
0.0
 40
0.5
100
AcDbArc
 50
270.0
 51
0.0
  0
LINE
  5
1ED
330
1F
100
AcDbEntity
  8
0
100
AcDbLine
 10
401.679257616993
 20
93.03839036370448
 30
0.0
 11
400.1792545771561
 21
93.03839036370448
 31
0.0
  0
LINE
  5
1EE
330
1F
100
AcDbEntity
  8
0
  6
Continuous
 62
     8
370
     0
100
AcDbLine
 10
383.1792555159292
 20
79.13838976169757
 30
0.0
 11
383.1792555159292
 21
81.13838962386183
 31
0.0
  0
LINE
  5
1EF
330
1F
100
AcDbEntity
  8
0
  6
Continuous
 62
     8
370
     0
100
AcDbLine
 10
342.1792562460861
 20
81.13838962386183
 30
0.0
 11
342.1792562460861
 21
79.13838976169757
 31
0.0
  0
LINE
  5
1F0
330
1F
100
AcDbEntity
  8
0
  6
Continuous
 62
     8
370
     0
100
AcDbLine
 10
383.1792555159292
 20
78.73838950986794
 30
0.0
 11
383.1792555159292
 21
79.13838976169757
 31
0.0
  0
LINE
  5
1F1
330
1F
100
AcDbEntity
  8
0
  6
Continuous
 62
     8
370
     0
100
AcDbLine
 10
342.1792562460861
 20
79.13838976169757
 30
0.0
 11
342.1792562460861
 21
78.73838950986794
 31
0.0
  0
LINE
  5
1F2
330
1F
100
AcDbEntity
  8
0
  6
Continuous
 62
     8
370
     0
100
AcDbLine
 10
339.1792557543478
 20
78.73838950986794
 30
0.0
 11
339.1792557543478
 21
69.63838960151008
 31
0.0
  0
LINE
  5
1F3
330
1F
100
AcDbEntity
  8
0
  6
Continuous
 62
     8
370
     0
100
AcDbLine
 10
385.1792558437548
 20
69.63838960151008
 30
0.0
 11
385.1792558437548
 21
78.73838950986794
 31
0.0
  0
LINE
  5
1F4
330
1F
100
AcDbEntity
  8
0
  6
Continuous
 62
     8
370
     0
100
AcDbLine
 10
339.1792557543478
 20
69.63838960151008
 30
0.0
 11
385.1792558437548
 21
69.63838960151008
 31
0.0
  0
LINE
  5
1F5
330
1F
100
AcDbEntity
  8
0
  6
Continuous
 62
     8
370
     0
100
AcDbLine
 10
339.1792557543478
 20
69.63838960151008
 30
0.0
 11
337.1792554265223
 21
69.63838960151008
 31
0.0
  0
LINE
  5
1F6
330
1F
100
AcDbEntity
  8
0
  6
Continuous
 62
     8
370
     0
100
AcDbLine
 10
387.1792561715803
 20
69.63838960151008
 30
0.0
 11
385.1792558437548
 21
69.63838960151008
 31
0.0
  0
LINE
  5
1F7
330
1F
100
AcDbEntity
  8
0
  6
Continuous
 62
     8
370
     0
100
AcDbLine
 10
385.1792558437548
 20
68.13838982130221
 30
0.0
 11
385.1792558437548
 21
69.63838960151008
 31
0.0
  0
LINE
  5
1F8
330
1F
100
AcDbEntity
  8
0
  6
Continuous
 62
     8
370
     0
100
AcDbLine
 10
339.1792557543478
 20
69.63838960151008
 30
0.0
 11
339.1792557543478
 21
68.13838982130221
 31
0.0
  0
LINE
  5
1F9
330
1F
100
AcDbEntity
  8
0
  6
Continuous
 62
     8
370
     0
100
AcDbLine
 10
354.6792559666894
 20
89.9383900418394
 30
0.0
 11
354.6792559666894
 21
81.13838962386183
 31
0.0
  0
LINE
  5
1FA
330
1F
100
AcDbEntity
  8
0
  6
Continuous
 62
     8
370
     0
100
AcDbLine
 10
390.6792558139525
 20
93.53838951433829
 30
0.0
 11
400.1792545771561
 21
93.53838951433829
 31
0.0
  0
LINE
  5
1FB
330
1F
100
AcDbEntity
  8
0
  6
Continuous
 62
     8
370
     0
100
AcDbLine
 10
339.1792557543478
 20
98.53839033390216
 30
0.0
 11
339.1792557543478
 21
91.03839003587893
 31
0.0
  0
LINE
  5
1FC
330
1F
100
AcDbEntity
  8
0
  6
Continuous
 62
     8
370
     0
100
AcDbLine
 10
400.1792545771561
 20
98.53839033390216
 30
0.0
 11
339.1792557543478
 21
98.53839033390216
 31
0.0
  0
LINE
  5
1FD
330
1F
100
AcDbEntity
  8
0
  6
Continuous
 62
     8
370
     0
100
AcDbLine
 10
400.1792545771561
 20
93.53838951433829
 30
0.0
 11
400.1792545771561
 21
98.53839033390216
 31
0.0
  0
LINE
  5
1FE
330
1F
100
AcDbEntity
  8
0
  6
Continuous
 62
     8
370
     0
100
AcDbLine
 10
339.1792557543478
 20
98.53839033390216
 30
0.0
 11
339.1792557543478
 21
100.0383896484487
 31
0.0
  0
LINE
  5
1FF
330
1F
100
AcDbEntity
  8
0
  6
Continuous
 62
     8
370
     0
100
AcDbLine
 10
339.1792557543478
 20
98.53839033390216
 30
0.0
 11
337.1792554265223
 21
98.53839033390216
 31
0.0
  0
LINE
  5
200
330
1F
100
AcDbEntity
  8
0
  6
Continuous
 62
     8
370
     0
100
AcDbLine
 10
400.1792545771561
 20
98.53839033390216
 30
0.0
 11
400.1792545771561
 21
100.0383896484487
 31
0.0
  0
LINE
  5
201
330
1F
100
AcDbEntity
  8
0
  6
Continuous
 62
     8
370
     0
100
AcDbLine
 10
402.1792549049816
 20
98.53839033390216
 30
0.0
 11
400.1792545771561
 21
98.53839033390216
 31
0.0
  0
LINE
  5
202
330
1F
100
AcDbEntity
  8
0
  6
Continuous
 62
     8
370
     0
100
AcDbLine
 10
400.1792545771561
 20
93.53838951433829
 30
0.0
 11
400.1792545771561
 21
93.03839036370448
 31
0.0
  0
LINE
  5
203
330
1F
100
AcDbEntity
  8
0
  6
Continuous
 62
     8
370
     0
100
AcDbLine
 10
390.6792558139525
 20
93.53838951433829
 30
0.0
 11
390.6792558139525
 21
93.03839036370448
 31
0.0
  0
LINE
  5
204
330
1F
100
AcDbEntity
  8
0
  6
Continuous
 62
     8
370
     0
100
AcDbLine
 10
400.1792545771561
 20
93.53838951433829
 30
0.0
 11
402.1792549049816
 21
93.53838951433829
 31
0.0
  0
LINE
  5
205
330
1F
100
AcDbEntity
  8
0
100
AcDbLine
 10
257.2653415820481
 20
-6.238953277070451
 30
0.0
 11
258.1138695951388
 21
-5.749108481752856
 31
0.0
  0
LINE
  5
206
330
1F
100
AcDbEntity
  8
0
100
AcDbLine
 10
252.8642965377337
 20
3.344404304938905
 30
0.0
 11
252.0157685246431
 21
2.854559509621311
 31
0.0
  0
LINE
  5
207
330
1F
100
AcDbEntity
  8
0
100
AcDbLine
 10
257.2653415820481
 20
-71.56222057015616
 30
0.0
 11
258.1138695951388
 21
-71.07237577483858
 31
0.0
  0
LINE
  5
208
330
1F
100
AcDbEntity
  8
0
100
AcDbLine
 10
252.8642965377337
 20
-61.97886146722102
 30
0.0
 11
252.0157685246431
 21
-62.46870626253861
 31
0.0
  0
LINE
  5
209
330
1F
100
AcDbEntity
  8
0
100
AcDbLine
 10
257.2653415820481
 20
59.08431249508948
 30
0.0
 11
258.1138695951388
 21
59.57415729040704
 31
0.0
  0
LINE
  5
20A
330
1F
100
AcDbEntity
  8
0
100
AcDbLine
 10
252.8642965377337
 20
68.66767159802458
 30
0.0
 11
252.0157685246431
 21
68.17782680270702
 31
0.0
  0
LINE
  5
20B
330
1F
100
AcDbEntity
  8
0
100
AcDbLine
 10
207.4565947605732
 20
89.99650556792812
 30
0.0
 11
207.2951594891586
 21
89.90331096944328
 31
0.0
  0
LINE
  5
20C
330
1F
100
AcDbEntity
  8
0
100
AcDbLine
 10
216.9925671781702
 20
87.19640827291113
 30
0.0
 11
216.7097249461697
 21
87.03312692791835
 31
0.0
  0
SPLINE
  5
20D
330
1F
100
AcDbEntity
  8
0
100
AcDbSpline
210
0.0
220
0.0
230
1.0
 70
     8
 71
     3
 72
    12
 73
     8
 74
     0
 42
0.000000001
 43
0.00000001
 40
0.0
 40
0.0
 40
0.0
 40
0.0
 40
0.0927603417634431
 40
0.3648115581925664
 40
0.6153967331651029
 40
0.8569423441268884
 40
0.9999999999999999
 40
0.9999999999999999
 40
0.9999999999999999
 40
0.9999999999999999
 10
198.2130398121228
 20
87.2308767428722
 30
0.0
 10
198.1616305766848
 20
87.20640970281923
 30
0.0
 10
197.9594462926569
 20
87.11018475542917
 30
0.0
 10
197.6970673960434
 20
86.82272301560937
 30
0.0
 10
197.4638794165108
 20
86.41740845574662
 30
0.0
 10
197.362681655173
 20
86.03762142558244
 30
0.0
 10
197.3533146889975
 20
85.80341453111552
 30
0.0
 10
197.3498305370434
 20
85.716298554209
 30
0.0
  0
LINE
  5
20E
330
1F
100
AcDbEntity
  8
0
100
AcDbLine
 10
204.6381372067903
 20
90.9589510378857
 30
0.0
 11
198.2034655627935
 21
87.24429416650105
 31
0.0
  0
LINE
  5
20F
330
1F
100
AcDbEntity
  8
0
100
AcDbLine
 10
197.3498305370434
 20
85.71629855420898
 30
0.0
 11
197.3498305370434
 21
-62.07758372482774
 31
0.0
  0
SPLINE
  5
210
330
1F
100
AcDbEntity
  8
0
100
AcDbSpline
210
0.0
220
0.0
230
1.0
 70
     8
 71
     3
 72
    11
 73
     7
 74
     0
 42
0.000000001
 43
0.00000001
 40
0.0
 40
0.0
 40
0.0
 40
0.0
 40
0.2953371566511723
 40
0.5591734053909877
 40
0.8251848671841399
 40
1.0
 40
1.0
 40
1.0
 40
1.0
 10
230.9803567752858
 20
-82.76641707334528
 30
0.0
 10
231.1435202996199
 20
-82.8443669645914
 30
0.0
 10
231.4524441904435
 20
-82.9919525465487
 30
0.0
 10
231.9596211971361
 20
-83.03280256053543
 30
0.0
 10
232.3941615912097
 20
-82.96785824753593
 30
0.0
 10
232.6279342712895
 20
-82.8317342621602
 30
0.0
 10
232.7206396629711
 20
-82.77775264473078
 30
0.0
  0
LINE
  5
211
330
1F
100
AcDbEntity
  8
0
100
AcDbLine
 10
232.7302139123004
 20
-82.79117006835962
 30
0.0
 11
239.1648855562972
 21
-79.07651319697499
 31
0.0
  0
LINE
  5
212
330
1F
100
AcDbEntity
  8
0
100
AcDbLine
 10
198.4534447774844
 20
-63.98903046492665
 30
0.0
 11
230.9803567752858
 21
-82.76641707334528
 31
0.0
  0
SPLINE
  5
213
330
1F
100
AcDbEntity
  8
0
100
AcDbSpline
210
0.0
220
0.0
230
1.0
 70
     8
 71
     3
 72
    12
 73
     8
 74
     0
 42
0.000000001
 43
0.00000001
 40
0.0
 40
0.0
 40
0.0
 40
0.0
 40
0.1960999926796164
 40
0.4169471912444152
 40
0.6599009575679844
 40
0.8892306087044132
 40
1.0
 40
1.0
 40
1.0
 40
1.0
 10
197.3498305370434
 20
-62.07758372482774
 30
0.0
 10
197.3597667500063
 20
-62.22716885780371
 30
0.0
 10
197.380893094938
 20
-62.54521629979494
 30
0.0
 10
197.5549358184354
 20
-63.02935075879348
 30
0.0
 10
197.841584686664
 20
-63.48652051194912
 30
0.0
 10
198.1627590179673
 20
-63.8057663895776
 30
0.0
 10
198.3820290778449
 20
-63.94400613287277
 30
0.0
 10
198.4534447774844
 20
-63.98903046492665
 30
0.0
  0
SPLINE
  5
214
330
1F
100
AcDbEntity
  8
0
100
AcDbSpline
210
0.0
220
0.0
230
1.0
 70
     8
 71
     3
 72
    12
 73
     8
 74
     0
 42
0.000000001
 43
0.00000001
 40
0.0
 40
0.0
 40
0.0
 40
0.0
 40
0.1961001410171866
 40
0.4169467971144541
 40
0.659900417537216
 40
0.8892299003943338
 40
1.0
 40
1.0
 40
1.0
 40
1.0
 10
264.6258369129433
 20
72.20474387562413
 30
0.0
 10
264.6158998797595
 20
72.35432914781649
 30
0.0
 10
264.5947718268305
 20
72.67237634458331
 30
0.0
 10
264.420732682785
 20
73.15651163426503
 30
0.0
 10
264.1340827338686
 20
73.61368059998495
 30
0.0
 10
263.8129087837572
 20
73.9329276024169
 30
0.0
 10
263.5936379723599
 20
74.07116709827125
 30
0.0
 10
263.5222216846855
 20
74.1161915661472
 30
0.0
  0
LINE
  5
215
330
1F
100
AcDbEntity
  8
0
100
AcDbLine
 10
264.6258369129433
 20
-75.58913840341259
 30
0.0
 11
264.6258369129433
 21
72.20474387562413
 31
0.0
  0
LINE
  5
216
330
1F
100
AcDbEntity
  8
0
100
AcDbLine
 10
263.5222216846855
 20
74.1161915661472
 30
0.0
 11
220.3887088647065
 21
99.01663849620542
 31
0.0
  0
LINE
  5
217
330
1F
100
AcDbEntity
  8
0
100
AcDbLine
 10
218.6388520569641
 20
99.04139168130459
 30
0.0
 11
213.3355509873308
 21
95.97986114031514
 31
0.0
  0
SPLINE
  5
218
330
1F
100
AcDbEntity
  8
0
100
AcDbSpline
210
0.0
220
0.0
230
1.0
 70
     8
 71
     3
 72
    11
 73
     7
 74
     0
 42
0.000000001
 43
0.00000001
 40
0.0
 40
0.0
 40
0.0
 40
0.0
 40
0.2953370391141352
 40
0.5591732726479998
 40
0.8251850601907261
 40
1.0
 40
1.0
 40
1.0
 40
1.0
 10
220.3887088647065
 20
99.01663849620542
 30
0.0
 10
220.2255454611048
 20
99.0945884615183
 30
0.0
 10
219.9166217492602
 20
99.24217420740897
 30
0.0
 10
219.409444577017
 20
99.28302425584596
 30
0.0
 10
218.9749039912274
 20
99.21807953235782
 30
0.0
 10
218.7411312590819
 20
99.08195559150872
 30
0.0
 10
218.6484259770212
 20
99.02797406759092
 30
0.0
  0
SPLINE
  5
219
330
1F
100
AcDbEntity
  8
0
100
AcDbSpline
210
0.0
220
0.0
230
1.0
 70
     8
 71
     3
 72
    11
 73
     7
 74
     0
 42
0.000000001
 43
0.00000001
 40
0.0
 40
0.0
 40
0.0
 40
0.0
 40
0.2016171434930409
 40
0.5221139813974444
 40
0.8206280110326832
 40
1.0
 40
1.0
 40
1.0
 40
1.0
 10
258.9867690233809
 20
-79.08389393400427
 30
0.0
 10
259.0699676849677
 20
-79.12722460892945
 30
0.0
 10
259.2854215084641
 20
-79.2394350629111
 30
0.0
 10
259.641179446527
 20
-79.31129749015341
 30
0.0
 10
260.0003868376671
 20
-79.2885904177439
 30
0.0
 10
260.1743527608622
 20
-79.17387650808891
 30
0.0
 10
260.239649949818
 20
-79.13081924895998
 30
0.0
  0
LINE
  5
21A
330
1F
100
AcDbEntity
  8
0
100
AcDbLine
 10
260.2366693773748
 20
-79.15815500998035
 30
0.0
 11
263.7722038628268
 21
-77.11713439587429
 31
0.0
  0
LINE
  5
21B
330
1F
100
AcDbEntity
  8
0
100
AcDbLine
 10
252.2692554766558
 20
-75.20595590771168
 30
0.0
 11
258.9867690233809
 21
-79.08389393400427
 31
0.0
  0
SPLINE
  5
21C
330
1F
100
AcDbEntity
  8
0
100
AcDbSpline
210
0.0
220
0.0
230
1.0
 70
     8
 71
     3
 72
    12
 73
     8
 74
     0
 42
0.000000001
 43
0.00000001
 40
0.0
 40
0.0
 40
0.0
 40
0.0
 40
0.0927605534933052
 40
0.3648117291227893
 40
0.6153971352759553
 40
0.856942468541997
 40
0.9999999999999999
 40
0.9999999999999999
 40
0.9999999999999999
 40
0.9999999999999999
 10
263.7626273085917
 20
-77.10371678216063
 30
0.0
 10
263.8140366801271
 20
-77.0792497066374
 30
0.0
 10
264.0162211326412
 20
-76.98302479430058
 30
0.0
 10
264.2785985856996
 20
-76.69556133130679
 30
0.0
 10
264.5117879938789
 20
-76.29024762899365
 30
0.0
 10
264.6129831773225
 20
-75.91046044174666
 30
0.0
 10
264.6223520508971
 20
-75.6762541656334
 30
0.0
 10
264.6258369129433
 20
-75.58913840341259
 30
0.0
  0
SPLINE
  5
21D
330
1F
100
AcDbEntity
  8
0
100
AcDbSpline
210
0.0
220
0.0
230
1.0
 70
     8
 71
     3
 72
     9
 73
     5
 74
     0
 42
0.000000001
 43
0.00000001
 40
0.0
 40
0.0
 40
0.0
 40
0.0
 40
0.1668623174625288
 40
1.0
 40
1.0
 40
1.0
 40
1.0
 10
251.6354182415236
 20
-74.92442032947766
 30
0.0
 10
251.6682751790247
 20
-74.93242997726425
 30
0.0
 10
251.8651856498896
 20
-74.98043151474978
 30
0.0
 10
252.0856108970575
 20
-75.10345794921255
 30
0.0
 10
252.2692554766558
 20
-75.20595590771168
 30
0.0
  0
LWPOLYLINE
  5
21E
330
1F
100
AcDbEntity
  8
0
100
AcDbPolyline
 90
       35
 70
   128
 43
0.0
 10
258.3528646167089
 20
-3.835267578111839
 10
258.2896575148327
 20
-3.011074226700089
 10
258.1021830643001
 20
-2.141967239804202
 10
257.7968265126607
 20
-1.257543519175783
 10
257.3839849606063
 20
-0.38792031708644
 10
256.8777222846495
 20
0.4372855576659873
 10
256.2952739116532
 20
1.189975477810918
 10
255.6564778363759
 20
1.844515150168107
 10
254.9830844668272
 20
2.37861744830488
 10
254.2980269569531
 20
2.774092730827135
 10
253.6246335874044
 20
3.017473867971049
 10
252.985836195038
 20
3.100473205525319
 10
252.4033878220417
 20
3.020263862690356
 10
251.8971251460849
 20
2.779576431772739
 10
251.4842849111196
 20
2.38660917942272
 10
251.1789283594801
 20
1.854742628926829
 10
250.9914539089476
 20
1.202089035275776
 10
250.9282441728934
 20
0.4508745710019184
 10
250.9914539089476
 20
-0.3733203010883557
 10
251.1789283594801
 20
-1.242427287984228
 10
251.4842849111196
 20
-2.126851008612661
 10
251.8971251460849
 20
-2.9964734503627
 10
252.4033878220417
 20
-3.821679325115113
 10
252.985836195038
 20
-4.574369245260044
 10
253.6246335874044
 20
-5.228909677956551
 10
254.2980269569531
 20
-5.763011976093324
 10
254.9830844668272
 20
-6.158487258615551
 10
255.6564778363759
 20
-6.401868395759493
 10
256.2952739116532
 20
-6.484866972974444
 10
256.8777222846495
 20
-6.404657630139482
 10
257.3839849606063
 20
-6.163970199221879
 10
257.7968265126607
 20
-5.77100370721115
 10
258.1021830643001
 20
-5.239137156715259
 10
258.2896575148327
 20
-4.58648356306422
 10
258.3528646167089
 20
-3.835267578111839
  0
ARC
  5
21F
330
1F
100
AcDbEntity
  8
0
100
AcDbCircle
 10
253.9546030321149
 20
0.9084504514071909
 30
0.0
 40
2.668827350771462
100
AcDbArc
 50
53.43603235300924
 51
114.1127710497407
  0
ARC
  5
220
330
1F
100
AcDbEntity
  8
0
100
AcDbCircle
 10
256.6018012559551
 20
-3.617126419284602
 30
0.0
 40
2.613751743576263
100
AcDbArc
 50
305.3454578163798
 51
5.966766256566765
  0
LWPOLYLINE
  5
221
330
1F
100
AcDbEntity
  8
0
100
AcDbPolyline
 90
       35
 70
   128
 43
0.0
 10
258.3528646167089
 20
-69.15853106888304
 10
258.2896575148327
 20
-68.33433667183485
 10
258.1021830643001
 20
-67.46523339219556
 10
257.7968265126607
 20
-66.58080567913697
 10
257.3839849606063
 20
-65.71118361774195
 10
256.8777222846495
 20
-64.8859798342625
 10
256.2952739116532
 20
-64.13329181527479
 10
255.6564778363759
 20
-63.47874681967735
 10
254.9830844668272
 20
-62.9446471831607
 10
254.2980269569531
 20
-62.54917190063845
 10
253.6246335874044
 20
-62.30578810187441
 10
252.985836195038
 20
-62.22279408756038
 10
252.4033878220417
 20
-62.30300152923813
 10
251.8971251460849
 20
-62.54368686888278
 10
251.4842849111196
 20
-62.93665298053848
 10
251.1789283594801
 20
-63.46852352346453
 10
250.9914539089476
 20
-64.12117340985898
 10
250.9282441728934
 20
-64.87238891976926
 10
250.9914539089476
 20
-65.69658483749606
 10
251.1789283594801
 20
-66.5656942008385
 10
251.4842849111196
 20
-67.45011583019397
 10
251.8971251460849
 20
-68.31973713124968
 10
252.4033878220417
 20
-69.14494699843226
 10
252.985836195038
 20
-69.89763501741996
 10
253.6246335874044
 20
-70.55217468965357
 10
254.2980269569531
 20
-71.08627432617024
 10
254.9830844668272
 20
-71.48174960869247
 10
255.6564778363759
 20
-71.72513340745652
 10
256.2952739116532
 20
-71.80813274513436
 10
256.8777222846495
 20
-71.72792530345663
 10
257.3839849606063
 20
-71.48723388010885
 10
257.7968265126607
 20
-71.09426852879245
 10
258.1021830643001
 20
-70.56240406956952
 10
258.2896575148327
 20
-69.90974809947193
 10
258.3528646167089
 20
-69.15853106888304
  0
ARC
  5
222
330
1F
100
AcDbEntity
  8
0
100
AcDbCircle
 10
253.9546031666212
 20
-64.41480293685397
 30
0.0
 40
2.668816102408272
100
AcDbArc
 50
53.43585683967277
 51
114.1128823003581
  0
ARC
  5
223
330
1F
100
AcDbEntity
  8
0
100
AcDbCircle
 10
256.6017708525957
 20
-68.94037952690101
 30
0.0
 40
2.613780902910595
100
AcDbArc
 50
305.3458215460407
 51
5.966470604414552
  0
LWPOLYLINE
  5
224
330
1F
100
AcDbEntity
  8
0
100
AcDbPolyline
 90
       35
 70
   128
 43
0.0
 10
258.3528646167089
 20
61.48799591265944
 10
258.2896575148327
 20
62.3121903097076
 10
258.1021830643001
 20
63.18129967305006
 10
257.7968265126607
 20
64.06572130240554
 10
257.3839849606063
 20
64.93534336380057
 10
256.8777222846495
 20
65.7605532309831
 10
256.2952739116532
 20
66.51324124997083
 10
255.6564778363759
 20
67.16778016186512
 10
254.9830844668272
 20
67.70187979838181
 10
254.2980269569531
 20
68.09735508090404
 10
253.6246335874044
 20
68.34073887966807
 10
252.985836195038
 20
68.42373897768522
 10
252.4033878220417
 20
68.34353153600748
 10
251.8971251460849
 20
68.10284011265969
 10
251.4842849111196
 20
67.70987400100401
 10
251.1789283594801
 20
67.17800954178108
 10
250.9914539089476
 20
66.5253535716835
 10
250.9282441728934
 20
65.77413806177321
 10
250.9914539089476
 20
64.94994214404639
 10
251.1789283594801
 20
64.0808388644071
 10
251.4842849111196
 20
63.19641115134854
 10
251.8971251460849
 20
62.32678985029281
 10
252.4033878220417
 20
61.50158606681336
 10
252.985836195038
 20
60.74889804782566
 10
253.6246335874044
 20
60.0943522918889
 10
254.2980269569531
 20
59.56025265537227
 10
254.9830844668272
 20
59.16477737285001
 10
255.6564778363759
 20
58.92139357408598
 10
256.2952739116532
 20
58.83840032011128
 10
256.8777222846495
 20
58.91860776178899
 10
257.3839849606063
 20
59.15929310143366
 10
257.7968265126607
 20
59.55225845275004
 10
258.1021830643001
 20
60.08412899567608
 10
258.2896575148327
 20
60.73677888207055
 10
258.3528646167089
 20
61.48799591265944
  0
ARC
  5
225
330
1F
100
AcDbEntity
  8
0
100
AcDbCircle
 10
253.9545994758133
 20
66.23169629489709
 30
0.0
 40
2.668845475900025
100
AcDbArc
 50
53.43622590139213
 51
114.1125132386409
  0
ARC
  5
226
330
1F
100
AcDbEntity
  8
0
100
AcDbCircle
 10
256.6018224085733
 20
61.70612952470148
 30
0.0
 40
2.613731490073731
100
AcDbArc
 50
305.3452042313806
 51
5.966978994975277
  0
ARC
  5
227
330
1F
100
AcDbEntity
  8
0
100
AcDbCircle
 10
236.7915928012139
 20
70.4728962334282
 30
0.0
 40
3.073608449122242
100
AcDbArc
 50
2.605520818693829
 51
57.39454094612454
  0
LINE
  5
228
330
1F
100
AcDbEntity
  8
0
100
AcDbLine
 10
239.862023735898
 20
70.61262015353452
 30
0.0
 11
239.862023735898
 21
63.6720213543903
 31
0.0
  0
LINE
  5
229
330
1F
100
AcDbEntity
  8
0
100
AcDbLine
 10
209.4564324293678
 20
89.79847324309239
 30
0.0
 11
238.4478099417173
 21
73.06210724877982
 31
0.0
  0
ARC
  5
22A
330
1F
100
AcDbEntity
  8
0
100
AcDbCircle
 10
238.7883268985287
 20
63.58666016552749
 30
0.0
 40
1.077084690793187
100
AcDbArc
 50
317.2442852234454
 51
4.545575871033624
  0
ARC
  5
22B
330
1F
100
AcDbEntity
  8
0
100
AcDbCircle
 10
208.2847516547726
 20
88.16294430860322
 30
0.0
 40
2.011912208101345
100
AcDbArc
 50
54.38246967636869
 51
114.3070660667933
  0
LINE
  5
22C
330
1F
100
AcDbEntity
  8
0
100
AcDbLine
 10
239.862023735898
 20
-68.6075905604582
 30
0.0
 11
239.862023735898
 21
-75.54818935960245
 31
0.0
  0
ARC
  5
22D
330
1F
100
AcDbEntity
  8
0
100
AcDbCircle
 10
238.7882694206577
 20
-75.63353063927234
 30
0.0
 40
1.077140410305395
100
AcDbArc
 50
317.2455832164998
 51
4.544277877977835
  0
LWPOLYLINE
  5
22E
330
1F
100
AcDbEntity
  8
0
100
AcDbPolyline
 90
        8
 70
   128
 43
0.0
 10
219.709480790817
 20
86.73608186268598
 10
218.9727538788466
 20
87.08695114833819
 10
218.2584122117915
 20
87.27830479655711
 10
217.5881600995459
 20
87.30431741679044
 10
216.9823636895636
 20
87.16420688281642
 10
216.4594293008427
 20
86.86222210700464
 10
216.0352462952719
 20
86.40755097202916
 10
215.8531956173071
 20
86.10570160535084
  0
LINE
  5
22F
330
1F
100
AcDbEntity
  8
0
100
AcDbLine
 10
219.709480790817
 20
86.73608186268598
 30
0.0
 11
241.6297906493517
 21
74.08175633624623
 31
0.0
  0
ARC
  5
230
330
1F
100
AcDbEntity
  8
0
100
AcDbCircle
 10
236.7000909210555
 20
66.33661241715348
 30
0.0
 40
9.180914646080943
100
AcDbArc
 50
2.476329473705183
 51
57.52369121164043
  0
LINE
  5
231
330
1F
100
AcDbEntity
  8
0
100
AcDbLine
 10
245.872432031894
 20
66.73328896680724
 30
0.0
 11
245.872432031894
 21
65.91674650015423
 31
0.0
  0
LWPOLYLINE
  5
232
330
1F
100
AcDbEntity
  8
0
100
AcDbPolyline
 90
        3
 70
   128
 43
0.0
 10
245.8581732262072
 20
65.76182518293575
 10
245.8588449416053
 20
65.76528839397147
 10
245.872432031894
 20
65.91674650015423
  0
ARC
  5
233
330
1F
100
AcDbEntity
  8
0
100
AcDbCircle
 10
236.9829010690348
 20
66.49987523842023
 30
0.0
 40
9.180947500504809
100
AcDbArc
 50
2.476436316090176
 51
57.52358436925519
  0
LINE
  5
234
330
1F
100
AcDbEntity
  8
0
100
AcDbLine
 10
246.1552742638946
 20
66.89657031179999
 30
0.0
 11
246.1552742638946
 21
66.08002784514696
 31
0.0
  0
LINE
  5
235
330
1F
100
AcDbEntity
  8
0
100
AcDbLine
 10
219.9923230228176
 20
86.89936320767876
 30
0.0
 11
241.9126328813523
 21
74.24503768123901
 31
0.0
  0
ARC
  5
236
330
1F
100
AcDbEntity
  8
0
100
AcDbCircle
 10
245.6183510709714
 20
66.0373575588331
 30
0.0
 40
0.5386160677448057
100
AcDbArc
 50
317.2689892743674
 51
4.543852399501394
  0
ARC
  5
237
330
1F
100
AcDbEntity
  8
0
100
AcDbCircle
 10
218.2352356547368
 20
84.45041610179189
 30
0.0
 40
3.014083268010475
100
AcDbArc
 50
54.34105743140439
 51
114.3486052976828
  0
LINE
  5
238
330
1F
100
AcDbEntity
  8
0
100
AcDbLine
 10
246.6856041074401
 20
68.63176749269826
 30
0.0
 11
244.1579983332361
 21
73.0097075813496
 31
0.0
  0
LINE
  5
239
330
1F
100
AcDbEntity
  8
0
100
AcDbLine
 10
244.1579983332361
 20
73.0097075813496
 30
0.0
 11
244.6427200183367
 21
74.81864179230283
 31
0.0
  0
LINE
  5
23A
330
1F
100
AcDbEntity
  8
0
100
AcDbLine
 10
215.0425747431849
 20
86.5736647485347
 30
0.0
 11
215.0425747431849
 21
86.69476085933007
 31
0.0
  0
LINE
  5
23B
330
1F
100
AcDbEntity
  8
0
100
AcDbLine
 10
217.7469575709338
 20
88.25647687681712
 30
0.0
 11
215.0425747431849
 21
86.69476085933007
 31
0.0
  0
LINE
  5
23C
330
1F
100
AcDbEntity
  8
0
100
AcDbLine
 10
244.1579983332361
 20
73.0097075813496
 30
0.0
 11
217.7469575709338
 21
88.25647687681712
 31
0.0
  0
LINE
  5
23D
330
1F
100
AcDbEntity
  8
0
100
AcDbLine
 10
219.5510112745941
 20
89.2980603542924
 30
0.0
 11
217.7469575709338
 21
88.25647687681712
 31
0.0
  0
ARC
  5
23E
330
1F
100
AcDbEntity
  8
0
100
AcDbCircle
 10
236.5087364076898
 20
69.49333303469353
 30
0.0
 40
3.073622337777556
100
AcDbArc
 50
2.605538060066142
 51
57.3944004664849
  0
LINE
  5
23F
330
1F
100
AcDbEntity
  8
0
100
AcDbLine
 10
248.2058843971656
 20
65.22293424460625
 30
0.0
 11
239.5791811746252
 21
60.24284447842496
 31
0.0
  0
LINE
  5
240
330
1F
100
AcDbEntity
  8
0
100
AcDbLine
 10
248.2058843971656
 20
65.22293424460625
 30
0.0
 11
248.2058843971656
 21
-63.79051997103649
 31
0.0
  0
LINE
  5
241
330
1F
100
AcDbEntity
  8
0
100
AcDbLine
 10
248.2058843971656
 20
-63.79051997103649
 30
0.0
 11
239.5791811746252
 21
-68.77060973721777
 31
0.0
  0
LINE
  5
242
330
1F
100
AcDbEntity
  8
0
100
AcDbLine
 10
239.5791811746252
 20
-68.77060973721777
 30
0.0
 11
239.5791811746252
 21
-78.16082376891477
 31
0.0
  0
LINE
  5
243
330
1F
100
AcDbEntity
  8
0
100
AcDbLine
 10
239.5791811746252
 20
69.63305851012194
 30
0.0
 11
239.5791811746252
 21
60.24284447842496
 31
0.0
  0
LINE
  5
244
330
1F
100
AcDbEntity
  8
0
100
AcDbLine
 10
245.589589141349
 20
-14.67534252202267
 30
0.0
 11
245.589589141349
 21
13.08704659085119
 31
0.0
  0
ARC
  5
245
330
1F
100
AcDbEntity
  8
0
100
AcDbCircle
 10
244.2963662302734
 20
13.29682765364721
 30
0.0
 40
1.310127319018525
100
AcDbArc
 50
350.7859844596184
 51
129.2033253981096
  0
LINE
  5
246
330
1F
100
AcDbEntity
  8
0
100
AcDbLine
 10
243.4682684500778
 20
14.31205553864342
 30
0.0
 11
240.6398415202608
 21
12.67923942752822
 31
0.0
  0
ARC
  5
247
330
1F
100
AcDbEntity
  8
0
100
AcDbCircle
 10
243.1241657325527
 20
8.795424345051075
 30
0.0
 40
4.610410652713774
100
AcDbArc
 50
122.6054530133126
 51
177.39453143627
  0
LINE
  5
248
330
1F
100
AcDbEntity
  8
0
100
AcDbLine
 10
238.5185211582619
 20
9.005005932893539
 30
0.0
 11
238.5185211582619
 21
-18.75738317998034
 31
0.0
  0
ARC
  5
249
330
1F
100
AcDbEntity
  8
0
100
AcDbCircle
 10
239.8117436925992
 20
-18.96716483011279
 30
0.0
 40
1.310127041187292
100
AcDbArc
 50
170.785956466896
 51
309.2033379877166
  0
LINE
  5
24A
330
1F
100
AcDbEntity
  8
0
100
AcDbLine
 10
240.6398415202608
 20
-19.98239231785739
 30
0.0
 11
243.4682684500778
 21
-18.3495762067422
 31
0.0
  0
ARC
  5
24B
330
1F
100
AcDbEntity
  8
0
100
AcDbCircle
 10
240.9839424279054
 20
-14.46575967743007
 30
0.0
 40
4.610412846785135
100
AcDbArc
 50
302.6054622719919
 51
357.3945170426648
  0
LINE
  5
24C
330
1F
100
AcDbEntity
  8
0
100
AcDbLine
 10
205.6380553826431
 20
90.85993829748904
 30
0.0
 11
238.1649673804445
 21
72.08255168907039
 31
0.0
  0
LINE
  5
24D
330
1F
100
AcDbEntity
  8
0
100
AcDbLine
 10
239.8620240651703
 20
69.22333403998269
 30
0.0
 11
246.0845637058944
 21
65.63113836742747
 31
0.0
  0
LINE
  5
24E
330
1F
100
AcDbEntity
  8
0
100
AcDbLine
 10
246.0845637058944
 20
65.63113836742747
 30
0.0
 11
246.7916706029848
 21
66.03934249024866
 31
0.0
  0
LINE
  5
24F
330
1F
100
AcDbEntity
  8
0
100
AcDbLine
 10
246.7916706029848
 20
66.03934249024866
 30
0.0
 11
248.2058843971656
 21
65.22293424460625
 31
0.0
  0
ARC
  5
250
330
1F
100
AcDbEntity
  8
0
100
AcDbCircle
 10
205.0522182632987
 20
90.04217239366167
 30
0.0
 40
1.00595536872385
100
AcDbArc
 50
54.38266863813821
 51
114.3072480630493
  0
LINE
  5
251
330
1F
100
AcDbEntity
  8
0
100
AcDbLine
 10
239.9327352817149
 20
-11.40971029979227
 30
0.0
 11
239.9327352817149
 21
12.13093941450956
 31
0.0
  0
ARC
  5
252
330
1F
100
AcDbEntity
  8
0
100
AcDbCircle
 10
235.2881995165619
 20
-11.19133256755701
 30
0.0
 40
4.649666795343735
100
AcDbArc
 50
314.00671568576
 51
357.3080378732284
  0
ARC
  5
253
330
1F
100
AcDbEntity
  8
0
100
AcDbCircle
 10
238.6400544677907
 20
-78.2874910763695
 30
0.0
 40
0.9476305072483523
100
AcDbArc
 50
303.6305205515284
 51
7.68156923536234
  0
SPLINE
  5
254
330
1F
100
AcDbEntity
  8
0
100
AcDbSpline
210
0.0
220
0.0
230
1.0
 70
     8
 71
     3
 72
    11
 73
     7
 74
     0
 42
0.000000001
 43
0.00000001
 40
0.0
 40
0.0
 40
0.0
 40
0.0
 40
0.1555536214784914
 40
0.5717076423021508
 40
0.9940219346392383
 40
1.0
 40
1.0
 40
1.0
 40
1.0
 10
250.6245787635504
 20
76.56440783638598
 30
0.0
 10
250.710228101536
 20
76.51883254488365
 30
0.0
 10
251.0250158938036
 20
76.3513292607789
 30
0.0
 10
251.6658818649734
 20
76.1269186159077
 30
0.0
 10
252.2286537457951
 20
75.96271042502181
 30
0.0
 10
252.5152349465608
 20
75.88000383403102
 30
0.0
 10
252.519235020619
 20
75.87884942303623
 30
0.0
  0
LINE
  5
255
330
1F
100
AcDbEntity
  8
0
100
AcDbLine
 10
249.6908087493465
 20
77.10346179149985
 30
0.0
 11
250.6245787635504
 21
76.56440783638598
 31
0.0
  0
LINE
  5
256
330
1F
100
AcDbEntity
  8
0
100
AcDbLine
 10
249.6908087493465
 20
77.10346179149985
 30
0.0
 11
248.2765949551657
 21
76.28705354585745
 31
0.0
  0
LINE
  5
257
330
1F
100
AcDbEntity
  8
0
100
AcDbLine
 10
248.2765949551657
 20
76.28705354585745
 30
0.0
 11
214.3354691631835
 21
95.88084839991848
 31
0.0
  0
LINE
  5
258
330
1F
100
AcDbEntity
  8
0
100
AcDbLine
 10
249.6908087493465
 20
-73.95659035414889
 30
0.0
 11
250.6245787635504
 21
-74.49564430926276
 31
0.0
  0
LINE
  5
259
330
1F
100
AcDbEntity
  8
0
100
AcDbLine
 10
249.6908087493465
 20
-73.95659035414889
 30
0.0
 11
249.6908087493465
 21
77.10346179149985
 31
0.0
  0
LWPOLYLINE
  5
25A
330
1F
100
AcDbEntity
  8
0
100
AcDbPolyline
 90
       37
 70
   128
 43
0.0
 10
254.9941085018908
 20
58.93592679628486
 10
255.7308354138612
 20
58.58505142692951
 10
256.4451770809163
 20
58.3937038624137
 10
257.1154305102509
 20
58.36768439813792
 10
257.7212256031443
 20
58.50780177615439
 10
258.2441599918652
 20
58.80978046826306
 10
258.668344314525
 20
59.26445692660235
 10
258.9808869038356
 20
59.85801080984805
 10
259.1722941821697
 20
60.57240913111195
 10
259.236749884433
 20
61.3859446918693
 10
259.1722941821697
 20
62.27389922240758
 10
258.9808869038356
 20
63.20929168324361
 10
258.668344314525
 20
64.1636995591141
 10
258.2441599918652
 20
65.10812881171515
 10
257.7212256031443
 20
66.01388078119797
 10
257.1154305102509
 20
66.85342820184934
 10
256.4451770809163
 20
67.60127295875287
 10
255.7308354138612
 20
68.23468064377718
 10
254.9941085018908
 20
68.73441814501143
 10
254.2573815899204
 20
69.08528743066367
 10
253.5430412399543
 20
69.27664031854329
 10
252.8727891277087
 20
69.30265293877662
 10
252.2669927177263
 20
69.16254240480262
 10
251.7440583290055
 20
68.86055762899082
 10
251.3198753234346
 20
68.40588041031225
 10
251.007331417035
 20
67.8123272874058
 10
250.8159241387009
 20
67.0979289661419
 10
250.7514684364375
 20
66.28439340538455
 10
250.8159241387009
 20
65.39643887484633
 10
251.007331417035
 20
64.46104641401027
 10
251.3198753234346
 20
63.50663777780048
 10
251.7440583290055
 20
62.56220928553876
 10
252.2669927177263
 20
61.65646339975902
 10
252.8727891277087
 20
60.81690913506523
 10
253.5430412399543
 20
60.06907122220412
 10
254.2573815899204
 20
59.435658213816
 10
254.9941085018908
 20
58.93592679628486
  0
LWPOLYLINE
  5
25B
330
1F
100
AcDbEntity
  8
0
100
AcDbPolyline
 90
       37
 70
   128
 43
0.0
 10
254.9941085018908
 20
-6.387338975875082
 10
255.7308354138612
 20
-6.738211683610288
 10
256.4451770809163
 20
-6.929562289977653
 10
257.1154305102509
 20
-6.955577571707522
 10
257.7212256031443
 20
-6.815464376236974
 10
258.2441599918652
 20
-6.513482832392484
 10
258.668344314525
 20
-6.058807704863241
 10
258.9808869038356
 20
-5.465252680923186
 10
259.1722941821697
 20
-4.750854264601415
 10
259.236749884433
 20
-3.937318798901956
 10
259.1722941821697
 20
-3.049364363421546
 10
258.9808869038356
 20
-2.113971807527633
 10
258.668344314525
 20
-1.159562790962823
 10
258.2441599918652
 20
-0.2151348691718482
 10
257.7212256031443
 20
0.6906138683437177
 10
257.1154305102509
 20
1.530163190152336
 10
256.4451770809163
 20
2.278006045898636
 10
255.7308354138612
 20
2.911416772774473
 10
254.9941085018908
 20
3.411150851925768
 10
254.2573815899204
 20
3.762023559660975
 10
253.5430412399543
 20
3.953373405689035
 10
252.8727891277087
 20
3.979387927079614
 10
252.2669927177263
 20
3.839275491948356
 10
251.7440583290055
 20
3.537293948103866
 10
251.3198753234346
 20
3.082618060235319
 10
251.007331417035
 20
2.489063796634582
 10
250.8159241387009
 20
1.774665380312797
 10
250.7514684364375
 20
0.9611299146132524
 10
250.8159241387009
 20
0.073175479132928
 10
251.007331417035
 20
-0.8622170767609845
 10
251.3198753234346
 20
-1.816626853665113
 10
251.7440583290055
 20
-2.76105401511677
 10
252.2669927177263
 20
-3.666802752632336
 10
252.8727891277087
 20
-4.506352834780245
 10
253.5430412399543
 20
-5.254194930187239
 10
254.2573815899204
 20
-5.887604896723772
 10
254.9941085018908
 20
-6.387338975875082
  0
LWPOLYLINE
  5
25C
330
1F
100
AcDbEntity
  8
0
100
AcDbPolyline
 90
       37
 70
   128
 43
0.0
 10
254.9941085018908
 20
-71.71060626896079
 10
255.7308354138612
 20
-72.06147555461298
 10
256.4451770809163
 20
-72.2528292028319
 10
257.1154305102509
 20
-72.27884258340455
 10
257.7212256031443
 20
-72.13873128909123
 10
258.2441599918652
 20
-71.83674651327946
 10
258.668344314525
 20
-71.38207005494016
 10
258.9808869038356
 20
-70.78851617169444
 10
259.1722941821697
 20
-70.07411785043053
 10
259.236749884433
 20
-69.26058228967318
 10
259.1722941821697
 20
-68.37262775913493
 10
258.9808869038356
 20
-67.43723529829887
 10
258.668344314525
 20
-66.4828274224284
 10
258.2441599918652
 20
-65.53839816982736
 10
257.7212256031443
 20
-64.63265228404765
 10
257.1154305102509
 20
-63.79309877969315
 10
256.4451770809163
 20
-63.04526010649273
 10
255.7308354138612
 20
-62.41184633776533
 10
254.9941085018908
 20
-61.91211492023415
 10
254.2573815899204
 20
-61.56123955087881
 10
253.5430412399543
 20
-61.36989274670233
 10
252.8727891277087
 20
-61.34387404276586
 10
252.2669927177263
 20
-61.48399066044301
 10
251.7440583290055
 20
-61.78596935255166
 10
251.3198753234346
 20
-62.24064657123028
 10
251.007331417035
 20
-62.83419969413666
 10
250.8159241387009
 20
-63.54859801540059
 10
250.7514684364375
 20
-64.36213357615793
 10
250.8159241387009
 20
-65.25008810669618
 10
251.007331417035
 20
-66.18548056753222
 10
251.3198753234346
 20
-67.13988920374202
 10
251.7440583290055
 20
-68.08431769600375
 10
252.2669927177263
 20
-68.99006966548659
 10
252.8727891277087
 20
-69.82961784647726
 10
253.5430412399543
 20
-70.5774618430415
 10
254.2573815899204
 20
-71.21086876772648
 10
254.9941085018908
 20
-71.71060626896079
  0
ARC
  5
25D
330
1F
100
AcDbEntity
  8
0
100
AcDbCircle
 10
257.3234907191412
 20
61.2854791925574
 30
0.0
 40
2.64652717012603
100
AcDbArc
 50
247.6116254932614
 51
290.0570016969235
  0
ARC
  5
25E
330
1F
100
AcDbEntity
  8
0
100
AcDbCircle
 10
253.9513368265555
 20
67.1272439073771
 30
0.0
 40
2.646870717913144
100
AcDbArc
 50
129.9406172501483
 51
172.3802203947447
  0
LINE
  5
25F
330
1F
100
AcDbEntity
  8
0
100
AcDbLine
 10
248.2765949551657
 20
-74.7729985997913
 30
0.0
 11
248.2765949551657
 21
76.28705354585745
 31
0.0
  0
LINE
  5
260
330
1F
100
AcDbEntity
  8
0
100
AcDbLine
 10
249.6908087493465
 20
-73.95659035414889
 30
0.0
 11
248.2765949551657
 21
-74.7729985997913
 31
0.0
  0
ARC
  5
261
330
1F
100
AcDbEntity
  8
0
100
AcDbCircle
 10
213.783406089606
 20
95.20402545596704
 30
0.0
 40
0.8734202508912625
100
AcDbArc
 50
50.79696255489301
 51
189.213974037055
  0
LINE
  5
262
330
1F
100
AcDbEntity
  8
0
100
AcDbLine
 10
239.8620240651703
 20
-69.91537022252423
 30
0.0
 11
248.2765949551657
 21
-74.7729985997913
 31
0.0
  0
LINE
  5
263
330
1F
100
AcDbEntity
  8
0
100
AcDbLine
 10
212.9212553690028
 20
95.06417171225493
 30
0.0
 11
212.9212553690028
 21
87.79827730676922
 31
0.0
  0
LINE
  5
264
330
1F
100
AcDbEntity
  8
0
100
AcDbLine
 10
240.8507667407226
 20
-68.03653790327927
 30
0.0
 11
243.1500709390772
 21
-69.36389796333609
 31
0.0
  0
ARC
  5
265
330
1F
100
AcDbEntity
  8
0
100
AcDbCircle
 10
244.5302311725286
 20
-67.67184732040847
 30
0.0
 40
2.183547033666176
100
AcDbArc
 50
230.7967993113017
 51
9.2140263783957
  0
LINE
  5
266
330
1F
100
AcDbEntity
  8
0
100
AcDbLine
 10
246.6856041074401
 20
-67.32221156754099
 30
0.0
 11
246.6856041074401
 21
-64.66815349131694
 31
0.0
  0
LINE
  5
267
330
1F
100
AcDbEntity
  8
0
100
AcDbLine
 10
246.6856041074401
 20
65.97811189099096
 30
0.0
 11
246.6856041074401
 21
69.93829844322516
 31
0.0
  0
LWPOLYLINE
  5
268
330
1F
100
AcDbEntity
  8
0
100
AcDbPolyline
 90
       15
 70
   128
 43
0.0
 10
246.6856041074401
 20
69.93829844322516
 10
246.6207335221368
 20
70.75424242227689
 10
246.4285030631676
 20
71.61514670521498
 10
246.1159670593021
 20
72.4894101580623
 10
245.6945920875133
 20
73.34495905293824
 10
245.1798447241156
 20
74.1503915260275
 10
244.5906107085091
 20
74.87615852194864
 10
243.9485153252468
 20
75.49561925247602
 10
243.2771199797353
 20
75.98604036939142
 10
242.6010621391073
 20
76.32943315342499
 10
241.9451504920675
 20
76.5131975414202
 10
241.3334548403826
 20
76.53058060005895
 10
240.7884223321519
 20
76.38094944911299
 10
240.3300536226272
 20
76.06979840853771
 10
239.9751692556313
 20
75.60853980233966
  0
LINE
  5
269
330
1F
100
AcDbEntity
  8
0
100
AcDbLine
 10
239.9751692556313
 20
75.60853980233966
 30
0.0
 11
221.2226810685372
 21
86.43412080377848
 31
0.0
  0
LWPOLYLINE
  5
26A
330
1F
100
AcDbEntity
  8
0
100
AcDbPolyline
 90
       15
 70
   128
 43
0.0
 10
221.2226810685372
 20
86.43412080377848
 10
220.8677967015414
 20
87.3051201785324
 10
220.4094279920166
 20
88.14549246633393
 10
219.8643954837859
 20
88.92440475665748
 10
219.2526998321011
 20
89.6132704645263
 10
218.5967881850612
 20
90.1868055446308
 10
217.9207303444332
 20
90.62397252870454
 10
217.2493349989217
 20
90.90872797761958
 10
216.6072396156594
 20
91.03061479658061
 10
216.0180056000528
 20
90.98516291416445
 10
215.5032582366552
 20
90.77404509651095
 10
215.0818832648664
 20
90.40500538842315
 10
214.7693472610009
 20
89.8915883248076
 10
214.5771168020317
 20
89.2526286055724
 10
214.5122462167284
 20
88.51158261006353
  0
LINE
  5
26B
330
1F
100
AcDbEntity
  8
0
100
AcDbLine
 10
214.5122462167284
 20
88.51158261006353
 30
0.0
 11
214.5122462167284
 21
86.87981784033667
 31
0.0
  0
LINE
  5
26C
330
1F
100
AcDbEntity
  8
0
100
AcDbLine
 10
241.2171841976867
 20
76.3255397666149
 30
0.0
 11
239.9751692556313
 21
75.60853980233966
 31
0.0
  0
LINE
  5
26D
330
1F
100
AcDbEntity
  8
0
100
AcDbLine
 10
219.1084403892714
 20
89.75290586665662
 30
0.0
 11
219.1084403892714
 21
89.04253618702194
 31
0.0
  0
LINE
  5
26E
330
1F
100
AcDbEntity
  8
0
100
AcDbLine
 10
245.4469609132656
 20
-65.38321148511105
 30
0.0
 11
246.6856041074401
 21
-66.0982649807664
 31
0.0
  0
ARC
  5
26F
330
1F
100
AcDbEntity
  8
0
100
AcDbCircle
 10
257.3234990815454
 20
-4.037639714501992
 30
0.0
 40
2.64666368954541
100
AcDbArc
 50
247.6126471318708
 51
290.0557299684751
  0
ARC
  5
270
330
1F
100
AcDbEntity
  8
0
100
AcDbCircle
 10
253.9510534037932
 20
1.804132994394436
 30
0.0
 40
2.646569304057889
100
AcDbArc
 50
129.9380783697197
 51
172.3827236261871
  0
ARC
  5
271
330
1F
100
AcDbEntity
  8
0
100
AcDbCircle
 10
257.323498341637
 20
-69.36106118235814
 30
0.0
 40
2.646517689606008
100
AcDbArc
 50
247.6113624682569
 51
290.0569009548989
  0
ARC
  5
272
330
1F
100
AcDbEntity
  8
0
100
AcDbCircle
 10
253.9507765041595
 20
-63.51898061376188
 30
0.0
 40
2.646274440883502
100
AcDbArc
 50
129.9356044616823
 51
172.3852331832103
  0
SPLINE
  5
273
330
1F
100
AcDbEntity
  8
0
100
AcDbSpline
210
0.0
220
0.0
230
1.0
 70
     8
 71
     3
 72
    10
 73
     6
 74
     0
 42
0.000000001
 43
0.00000001
 40
0.0
 40
0.0
 40
0.0
 40
0.0
 40
0.0157787769514015
 40
0.8529416344337262
 40
1.0
 40
1.0
 40
1.0
 40
1.0
 10
251.6382341778397
 20
-74.91566182386016
 30
0.0
 10
251.6324065372407
 20
-74.91390732217651
 30
0.0
 10
251.3173860947364
 20
-74.81906552687923
 30
0.0
 10
250.9656971850549
 20
-74.68331841752132
 30
0.0
 10
250.668921751823
 20
-74.52004061933268
 30
0.0
 10
250.6245787635504
 20
-74.49564430926276
 30
0.0
  0
LINE
  5
274
330
1F
100
AcDbEntity
  8
0
  6
Continuous
 62
     8
370
     0
100
AcDbLine
 10
237.4579753993708
 20
72.49068793048534
 30
0.0
 11
238.4478099417173
 21
73.06210724877982
 31
0.0
  0
LINE
  5
275
330
1F
100
AcDbEntity
  8
0
  6
Continuous
 62
     8
370
     0
100
AcDbLine
 10
239.862023735898
 20
70.61262015353452
 30
0.0
 11
239.4540004247363
 21
70.37707330975644
 31
0.0
  0
LINE
  5
276
330
1F
100
AcDbEntity
  8
0
  6
Continuous
 62
     8
370
     0
100
AcDbLine
 10
239.5791811746252
 20
63.50873981931269
 30
0.0
 11
239.862023735898
 21
63.6720213543903
 31
0.0
  0
LINE
  5
277
330
1F
100
AcDbEntity
  8
0
  6
Continuous
 62
     8
370
     0
100
AcDbLine
 10
209.4564324293678
 20
89.79847324309239
 30
0.0
 11
208.4665978870212
 21
89.22705392479787
 31
0.0
  0
LINE
  5
278
330
1F
100
AcDbEntity
  8
0
  6
Continuous
 62
     8
370
     0
100
AcDbLine
 10
239.862023735898
 20
-68.6075905604582
 30
0.0
 11
239.5791811746252
 21
-68.77087209553581
 31
0.0
  0
LINE
  5
279
330
1F
100
AcDbEntity
  8
0
  6
Continuous
 62
     8
370
     0
100
AcDbLine
 10
239.5791811746252
 20
-75.71147089468005
 30
0.0
 11
239.862023735898
 21
-75.54818935960245
 31
0.0
  0
LINE
  5
27A
330
1F
100
AcDbEntity
  8
0
  6
Continuous
 62
     8
370
     0
100
AcDbLine
 10
241.6297906493517
 20
74.08175633624623
 30
0.0
 11
241.9126328813523
 21
74.24503768123901
 31
0.0
  0
LINE
  5
27B
330
1F
100
AcDbEntity
  8
0
  6
Continuous
 62
     8
370
     0
100
AcDbLine
 10
246.1552742638946
 20
66.89657031179999
 30
0.0
 11
245.872432031894
 21
66.73328896680724
 31
0.0
  0
LINE
  5
27C
330
1F
100
AcDbEntity
  8
0
  6
Continuous
 62
     8
370
     0
100
AcDbLine
 10
245.872432031894
 20
65.91674650015423
 30
0.0
 11
246.1552742638946
 21
66.08002784514696
 31
0.0
  0
LINE
  5
27D
330
1F
100
AcDbEntity
  8
0
  6
Continuous
 62
     8
370
     0
100
AcDbLine
 10
219.9923230228176
 20
86.89936320767876
 30
0.0
 11
219.709480790817
 21
86.73608186268598
 31
0.0
  0
ARC
  5
27E
330
1F
100
AcDbEntity
  8
0
  6
Continuous
 62
     8
370
     0
100
AcDbCircle
 10
230.2555985411776
 20
65.88348313653037
 30
0.0
 40
0.7683838246533279
100
AcDbArc
 50
2.604694047776196
 51
57.39518285958424
  0
ARC
  5
27F
330
1F
100
AcDbEntity
  8
0
  6
Continuous
 62
     8
370
     0
100
AcDbCircle
 10
232.9724548529907
 20
66.42598937694945
 30
0.0
 40
2.305201945941476
100
AcDbArc
 50
122.6054185496981
 51
177.3946531936067
  0
ARC
  5
280
330
1F
100
AcDbEntity
  8
0
  6
Continuous
 62
     8
370
     0
100
AcDbCircle
 10
230.0740647636929
 20
65.77867616330892
 30
0.0
 40
3.073622337777585
100
AcDbArc
 50
2.605538060066118
 51
57.39440046648401
  0
ARC
  5
281
330
1F
100
AcDbEntity
  8
0
  6
Continuous
 62
     8
370
     0
100
AcDbCircle
 10
232.0838495706496
 20
67.96546685162573
 30
0.0
 40
2.305531508463952
100
AcDbArc
 50
242.6096299331703
 51
297.3903392622772
  0
LINE
  5
282
330
1F
100
AcDbEntity
  8
0
  6
Continuous
 62
     8
370
     0
100
AcDbLine
 10
239.5791811746252
 20
69.63305851012194
 30
0.0
 11
233.1445095306284
 21
65.91840163873732
 31
0.0
  0
LINE
  5
283
330
1F
100
AcDbEntity
  8
0
  6
Continuous
 62
     8
370
     0
100
AcDbLine
 10
231.7302957364477
 20
68.36789481768577
 30
0.0
 11
238.1649673804445
 21
72.08255168907039
 31
0.0
  0
ARC
  5
284
330
1F
100
AcDbEntity
  8
0
  6
Continuous
 62
     8
370
     0
100
AcDbCircle
 10
232.0838495706496
 20
-79.82841542741102
 30
0.0
 40
2.305531508463917
100
AcDbArc
 50
242.6096299331698
 51
297.3903392622776
  0
LINE
  5
285
330
1F
100
AcDbEntity
  8
0
  6
Continuous
 62
     8
370
     0
100
AcDbLine
 10
231.023188510085
 20
-81.87548007004492
 30
0.0
 11
231.023188510085
 21
65.91840220899181
 31
0.0
  0
LINE
  5
286
330
1F
100
AcDbEntity
  8
0
  6
Continuous
 62
     8
370
     0
100
AcDbLine
 10
233.1445095306284
 20
65.91840163873732
 30
0.0
 11
233.1445095306284
 21
-81.87548064029939
 31
0.0
  0
LINE
  5
287
330
1F
100
AcDbEntity
  8
0
  6
Continuous
 62
     8
370
     0
100
AcDbLine
 10
230.6696357200843
 20
66.53077512355927
 30
0.0
 11
198.1427237222829
 21
85.30816173197789
 31
0.0
  0
ARC
  5
288
330
1F
100
AcDbEntity
  8
0
  6
Continuous
 62
     8
370
     0
100
AcDbCircle
 10
200.4455428551894
 20
85.20337598536804
 30
0.0
 40
2.305201945941582
100
AcDbArc
 50
122.6054185497007
 51
177.3946531936061
  0
LINE
  5
289
330
1F
100
AcDbEntity
  8
0
  6
Continuous
 62
     8
370
     0
100
AcDbLine
 10
199.2033837386462
 20
87.14528142610439
 30
0.0
 11
231.7302957364477
 21
68.36789481768577
 31
0.0
  0
ARC
  5
28A
330
1F
100
AcDbEntity
  8
0
  6
Continuous
 62
     8
370
     0
100
AcDbCircle
 10
230.807654223022
 20
-81.91044925155687
 30
0.0
 40
0.2183526334977187
100
AcDbArc
 50
230.7955166385984
 51
9.215604790889847
  0
LINE
  5
28B
330
1F
100
AcDbEntity
  8
0
  6
Continuous
 62
     8
370
     0
100
AcDbLine
 10
198.1427237222829
 20
-63.30226301371183
 30
0.0
 11
230.6696357200843
 21
-82.07964962213046
 31
0.0
  0
ARC
  5
28C
330
1F
100
AcDbEntity
  8
0
  6
Continuous
 62
     8
370
     0
100
AcDbCircle
 10
198.5567609011898
 20
-62.65497102668283
 30
0.0
 40
0.7683838246535176
100
AcDbArc
 50
182.6046940477845
 51
237.3951828595783
  0
LINE
  5
28D
330
1F
100
AcDbEntity
  8
0
  6
Continuous
 62
     8
370
     0
100
AcDbLine
 10
197.7891709322822
 20
85.10399217989234
 30
0.0
 11
197.7891709322822
 21
-62.68989009914438
 31
0.0
  0
ARC
  5
28E
330
1F
100
AcDbEntity
  8
0
  6
Continuous
 62
     8
370
     0
100
AcDbCircle
 10
198.0047052193453
 20
85.13896136140428
 30
0.0
 40
0.2183526334977366
100
AcDbArc
 50
50.79551663860072
 51
189.215604790885
  0
LINE
  5
28F
330
1F
100
AcDbEntity
  8
0
  6
Continuous
 62
     8
370
     0
100
AcDbLine
 10
233.1445095306284
 20
-81.87548064029939
 30
0.0
 11
239.5791811746252
 21
-78.16082376891477
 31
0.0
  0
LINE
  5
290
330
1F
100
AcDbEntity
  8
0
  6
Continuous
 62
     8
370
     0
100
AcDbLine
 10
205.6380553826431
 20
90.85993829748904
 30
0.0
 11
199.2033837386462
 21
87.14528142610439
 31
0.0
  0
ARC
  5
291
330
1F
100
AcDbEntity
  8
0
  6
Continuous
 62
     8
370
     0
100
AcDbCircle
 10
198.0677179385218
 20
85.76759616151577
 30
0.0
 40
0.7196934619068522
100
AcDbArc
 50
184.0592110042259
 51
247.2298275995747
  0
ARC
  5
292
330
1F
100
AcDbEntity
  8
0
  6
Continuous
 62
     8
370
     0
100
AcDbCircle
 10
198.6172390107163
 20
86.32665809453275
 30
0.0
 40
1.006831565393888
100
AcDbArc
 50
54.3968542286104
 51
114.1457125791904
  0
ARC
  5
293
330
1F
100
AcDbEntity
  8
0
  6
Continuous
 62
     8
370
     0
100
AcDbCircle
 10
198.1005147615063
 20
-62.0027251795978
 30
0.0
 40
0.7544074540004018
100
AcDbArc
 50
185.6947324767611
 51
245.6254527855396
  0
LINE
  5
294
330
1F
100
AcDbEntity
  8
0
  6
Continuous
 62
     8
370
     0
100
AcDbLine
 10
243.4679233727556
 20
14.31185816821264
 30
0.0
 11
245.589589141349
 21
13.08704659085119
 31
0.0
  0
LINE
  5
295
330
1F
100
AcDbEntity
  8
0
  6
Continuous
 62
     8
370
     0
100
AcDbLine
 10
239.9327352817149
 20
-11.40971029979227
 30
0.0
 11
245.589589141349
 21
-14.67534252202267
 31
0.0
  0
LINE
  5
296
330
1F
100
AcDbEntity
  8
0
  6
Continuous
 62
     8
370
     0
100
AcDbLine
 10
238.5185208289897
 20
-18.75777994939375
 30
0.0
 11
240.6398415202608
 21
-19.98239231785739
 31
0.0
  0
LINE
  5
297
330
1F
100
AcDbEntity
  8
0
  6
Continuous
 62
     8
370
     0
100
AcDbLine
 10
238.5185201704452
 20
-15.49214734699369
 30
0.0
 11
243.4682684500778
 21
-18.3495762067422
 31
0.0
  0
ARC
  5
298
330
1F
100
AcDbEntity
  8
0
  6
Continuous
 62
     8
370
     0
100
AcDbCircle
 10
232.1655781280999
 20
-81.98393214744826
 30
0.0
 40
0.9849205146910721
100
AcDbArc
 50
304.8430817498575
 51
6.321768371679359
  0
ARC
  5
299
330
1F
100
AcDbEntity
  8
0
  6
Continuous
 62
     8
370
     0
100
AcDbCircle
 10
231.4206353013427
 20
-82.1535531410442
 30
0.0
 40
0.7546271272344665
100
AcDbArc
 50
174.3797968550761
 51
234.3015507460893
  0
ARC
  5
29A
330
1F
100
AcDbEntity
  8
0
  6
Continuous
 62
     8
370
     0
100
AcDbCircle
 10
198.8425549959312
 20
-63.39930640324339
 30
0.0
 40
0.7065275868838224
100
AcDbArc
 50
172.1053195033629
 51
236.5824756751889
  0
LINE
  5
29B
330
1F
100
AcDbEntity
  8
0
  6
Continuous
 62
     8
370
     0
100
AcDbLine
 10
252.519235020619
 20
75.87884942303623
 30
0.0
 11
259.2367485673441
 21
72.00091139674365
 31
0.0
  0
LINE
  5
29C
330
1F
100
AcDbEntity
  8
0
  6
Continuous
 62
     8
370
     0
100
AcDbLine
 10
219.6387702328169
 20
98.94237894090793
 30
0.0
 11
214.3354691631835
 21
95.88084839991848
 31
0.0
  0
LINE
  5
29D
330
1F
100
AcDbEntity
  8
0
  6
Continuous
 62
     8
370
     0
100
AcDbLine
 10
262.772283052796
 20
74.04193201084973
 30
0.0
 11
219.6387702328169
 21
98.94237894090793
 31
0.0
  0
LINE
  5
29E
330
1F
100
AcDbEntity
  8
0
  6
Continuous
 62
     8
370
     0
100
AcDbLine
 10
259.2367485673441
 20
72.00091139674365
 30
0.0
 11
262.772283052796
 21
74.04193201084973
 31
0.0
  0
ARC
  5
29F
330
1F
100
AcDbEntity
  8
0
  6
Continuous
 62
     8
370
     0
100
AcDbCircle
 10
257.5805190191348
 20
69.41169356482754
 30
0.0
 40
3.07362087731615
100
AcDbArc
 50
2.605523951499781
 51
57.39441457504972
  0
ARC
  5
2A0
330
1F
100
AcDbEntity
  8
0
  6
Continuous
 62
     8
370
     0
100
AcDbCircle
 10
260.2974094963511
 20
70.23376426091497
 30
0.0
 40
0.7685022778325057
100
AcDbArc
 50
242.6095044172853
 51
297.3906188014192
  0
ARC
  5
2A1
330
1F
100
AcDbEntity
  8
0
  6
Continuous
 62
     8
370
     0
100
AcDbCircle
 10
257.6410287296893
 20
69.44662564911906
 30
0.0
 40
2.305212446927497
100
AcDbArc
 50
2.605485749416296
 51
57.39451439621035
  0
ARC
  5
2A2
330
1F
100
AcDbEntity
  8
0
  6
Continuous
 62
     8
370
     0
100
AcDbCircle
 10
259.6508165868055
 20
71.35360160395638
 30
0.0
 40
0.7684154426994529
100
AcDbArc
 50
122.6060389251383
 51
177.3940841675028
  0
LINE
  5
2A3
330
1F
100
AcDbEntity
  8
0
  6
Continuous
 62
     8
370
     0
100
AcDbLine
 10
259.9438580986125
 20
-78.24246482158082
 30
0.0
 11
259.9438580986125
 21
69.5514174574559
 31
0.0
  0
ARC
  5
2A4
330
1F
100
AcDbEntity
  8
0
  6
Continuous
 62
     8
370
     0
100
AcDbCircle
 10
259.2972453016901
 20
-78.34735594138826
 30
0.0
 40
0.6550650778039573
100
AcDbArc
 50
230.7967041991663
 51
9.214047555585456
  0
LINE
  5
2A5
330
1F
100
AcDbEntity
  8
0
  6
Continuous
 62
     8
370
     0
100
AcDbLine
 10
252.1656822306183
 20
-74.97703317052697
 30
0.0
 11
258.8831957773434
 21
-78.85497119681955
 31
0.0
  0
ARC
  5
2A6
330
1F
100
AcDbEntity
  8
0
  6
Continuous
 62
     8
370
     0
100
AcDbCircle
 10
250.4535143930423
 20
-77.75079952067667
 30
0.0
 40
3.25964698537318
100
AcDbArc
 50
58.3141350690202
 51
86.99176904403706
  0
ARC
  5
2A7
330
1F
100
AcDbEntity
  8
0
  6
Continuous
 62
     8
370
     0
100
AcDbCircle
 10
255.388352804225
 20
80.6568091538241
 30
0.0
 40
6.280230222975423
100
AcDbArc
 50
220.6647890918044
 51
239.1264358681785
  0
LINE
  5
2A8
330
1F
100
AcDbEntity
  8
0
  6
Continuous
 62
     8
370
     0
100
AcDbLine
 10
258.8831957773434
 20
71.38853848217616
 30
0.0
 11
252.1656822306183
 21
75.26647650846874
 31
0.0
  0
ARC
  5
2A9
330
1F
100
AcDbEntity
  8
0
  6
Continuous
 62
     8
370
     0
100
AcDbCircle
 10
261.1160535045866
 20
71.45271417893355
 30
0.0
 40
3.073620877316307
100
AcDbArc
 50
2.605523951501224
 51
57.39441457504907
  0
LINE
  5
2AA
330
1F
100
AcDbEntity
  8
0
  6
Continuous
 62
     8
370
     0
100
AcDbLine
 10
264.1864968469768
 20
71.59243883190129
 30
0.0
 11
260.6509623615248
 21
69.5514182177952
 31
0.0
  0
LINE
  5
2AB
330
1F
100
AcDbEntity
  8
0
  6
Continuous
 62
     8
370
     0
100
AcDbLine
 10
260.6509623615248
 20
69.5514182177952
 30
0.0
 11
260.6509623615248
 21
-78.24246406124152
 31
0.0
  0
ARC
  5
2AC
330
1F
100
AcDbEntity
  8
0
  6
Continuous
 62
     8
370
     0
100
AcDbCircle
 10
260.2974094963511
 20
-77.56011801812178
 30
0.0
 40
0.7685022778324805
100
AcDbArc
 50
242.6095044172848
 51
297.3906188014201
  0
ARC
  5
2AD
330
1F
100
AcDbEntity
  8
0
  6
Continuous
 62
     8
370
     0
100
AcDbCircle
 10
252.9333030400804
 20
75.23153963024893
 30
0.0
 40
0.7684154426994894
100
AcDbArc
 50
122.6060389251389
 51
177.3940841675009
  0
LINE
  5
2AE
330
1F
100
AcDbEntity
  8
0
  6
Continuous
 62
     8
370
     0
100
AcDbLine
 10
264.1864968469768
 20
-76.20144344713546
 30
0.0
 11
264.1864968469768
 21
71.59243883190129
 31
0.0
  0
LINE
  5
2AF
330
1F
100
AcDbEntity
  8
0
  6
Continuous
 62
     8
370
     0
100
AcDbLine
 10
260.6509623615248
 20
-78.24246406124152
 30
0.0
 11
264.1864968469768
 21
-76.20144344713546
 31
0.0
  0
ARC
  5
2B0
330
1F
100
AcDbEntity
  8
0
  6
Continuous
 62
     8
370
     0
100
AcDbCircle
 10
263.2075927790268
 20
73.46947414335207
 30
0.0
 40
0.7191679691220336
100
AcDbArc
 50
64.02883855584233
 51
127.2501679591841
  0
ARC
  5
2B1
330
1F
100
AcDbEntity
  8
0
  6
Continuous
 62
     8
370
     0
100
AcDbCircle
 10
263.9075464289525
 20
72.25632742102349
 30
0.0
 40
0.7201120707796275
100
AcDbArc
 50
292.7910040167088
 51
355.9252874223349
  0
ARC
  5
2B2
330
1F
100
AcDbEntity
  8
0
  6
Continuous
 62
     8
370
     0
100
AcDbCircle
 10
263.8751502662316
 20
-75.51427679433311
 30
0.0
 40
0.7544101683204341
100
AcDbArc
 50
294.3746832335709
 51
354.3050542335424
  0
ARC
  5
2B3
330
1F
100
AcDbEntity
  8
0
  6
Continuous
 62
     8
370
     0
100
AcDbCircle
 10
220.0781485928079
 20
98.32904925674262
 30
0.0
 40
0.7544711026320317
100
AcDbArc
 50
65.69295227020858
 51
125.6171310285998
  0
LINE
  5
2B4
330
1F
100
AcDbEntity
  8
0
  6
Continuous
 62
     8
370
     0
100
AcDbLine
 10
218.0483549529913
 20
90.55293473210645
 30
0.0
 11
214.5122462167284
 21
88.51158261006353
 31
0.0
  0
ARC
  5
2B5
330
1F
100
AcDbEntity
  8
0
  6
Continuous
 62
     8
370
     0
100
AcDbCircle
 10
219.0529331134725
 20
98.12461303708088
 30
0.0
 40
1.005955368723579
100
AcDbArc
 50
54.38266863812915
 51
114.3072480630582
  0
ARC
  5
2B6
330
1F
100
AcDbEntity
  8
0
  6
Continuous
 62
     8
370
     0
100
AcDbCircle
 10
259.6444731985491
 20
-78.34007066331245
 30
0.0
 40
1.011210899840044
100
AcDbArc
 50
306.6267964577492
 51
5.539069127914895
  0
ARC
  5
2B7
330
1F
100
AcDbEntity
  8
0
  6
Continuous
 62
     8
370
     0
100
AcDbCircle
 10
259.1335422494054
 20
-78.87960346134662
 30
0.0
 40
0.2515553707032627
100
AcDbArc
 50
174.3806011874425
 51
234.2933345414376
  0
ARC
  5
2B8
330
1F
100
AcDbEntity
  8
0
  6
Continuous
 62
     8
370
     0
100
AcDbCircle
 10
263.2064588001247
 20
-76.30960374759995
 30
0.0
 40
0.9859884501728046
100
AcDbArc
 50
305.0145666161237
 51
6.297868274377132
  0
ARC
  5
2B9
330
1F
100
AcDbEntity
  8
0
  6
Continuous
 62
     8
370
     0
100
AcDbCircle
 10
252.4174996911705
 20
-75.00099307384014
 30
0.0
 40
0.2529547596028944
100
AcDbArc
 50
174.5647891958752
 51
234.122775913617
  0
LINE
  5
2BA
330
1F
100
AcDbEntity
  8
0
  6
Continuous
 62
     8
370
     0
100
AcDbLine
 10
246.6856041074401
 20
-67.32287810956933
 30
0.0
 11
243.1500709390772
 21
-69.36389796333609
 31
0.0
  0
TEXT
  5
32F
330
1F
100
AcDbEntity
  8
0
  6
Continuous
 62
     7
370
     0
100
AcDbText
 10
71.78613250170264
 20
434.365606692375
 30
0.0
 40
21.0
  1
622E50R
100
AcDbText
  0
DIMENSION
  5
330
102
{ACAD_XDICTIONARY
360
331
102
}
330
1F
100
AcDbEntity
  8
0
100
AcDbDimension
280
     0
  2
*D4
 10
411.4332893091002
 20
91.03839003587893
 30
0.0
 11
407.8332893091002
 21
86.08838988080208
 31
0.0
 70
    32
 71
     5
 42
9.9000003101537
 73
     0
 74
     0
 75
     0
  3
ISO-25
100
AcDbAlignedDimension
 13
385.0792558437548
 23
81.13838972572523
 33
0.0
 14
387.1792561715803
 24
91.03839003587893
 34
0.0
 50
90.0
100
AcDbRotatedDimension
1001
ACAD
1000
DSTYLE
1002
{
1070
   176
1070
     1
1070
   177
1070
     1
1070
   271
1070
     0
1070
    77
1070
     1
1070
   280
1070
     0
1070
   179
1070
     2
1070
   143
1040
0.0393700787401575
1070
    41
1040
3.2
1070
    44
1040
1.0
1070
    42
1040
0.1
1070
   147
1040
2.0
1070
    73
1070
     0
1070
    74
1070
     1
1070
   140
1040
3.2
1070
   284
1070
     0
1070
    78
1070
     0
1002
}
  0
DIMENSION
  5
333
102
{ACAD_XDICTIONARY
360
334
102
}
330
1F
100
AcDbEntity
  8
0
100
AcDbDimension
280
     0
  2
*D5
 10
421.6724885059298
 20
79.13838976169757
 30
0.0
 11
418.0724885059298
 21
85.08838989878825
 31
0.0
 70
    32
 71
     5
 42
11.90000027418137
 73
     0
 74
     1
 75
     1
  3
ISO-25
100
AcDbAlignedDimension
 13
387.1792561715803
 23
91.03839003587893
 33
0.0
 14
385.0792558437548
 24
79.13838976169757
 34
0.0
 50
90.0
100
AcDbRotatedDimension
1001
ACAD
1000
DSTYLE
1002
{
1070
   179
1070
     2
1070
   143
1040
0.0393700787401575
1070
    41
1040
3.2
1070
   176
1070
     1
1070
   177
1070
     1
1070
   271
1070
     0
1070
    44
1040
1.0
1070
    42
1040
0.1
1070
   147
1040
2.0
1070
    74
1070
     1
1070
   140
1040
3.2
1070
   284
1070
     0
1070
    78
1070
     0
1002
}
  0
LWPOLYLINE
  5
379
330
1F
100
AcDbEntity
  8
0
  6
HIDDEN
 62
     1
 48
0.2
100
AcDbPolyline
 90
        6
 70
     0
 43
0.0
 10
387.1792561715803
 20
330.5618798177511
 10
352.1792561715803
 20
330.5618798177511
 42
0.414213562373095
 10
344.1792561715803
 20
322.5618798177511
 10
344.1792561715803
 20
176.5618798177511
 42
0.414213562373095
 10
352.1792561715803
 20
168.5618798177511
 10
387.1792561715803
 20
168.5618798177511
  0
LWPOLYLINE
  5
37B
330
1F
100
AcDbEntity
  8
0
  6
HIDDEN
 62
     1
 48
0.2
100
AcDbPolyline
 90
        6
 70
     0
 43
0.0
 10
83.27597796482411
 20
330.5618798177511
 10
118.2759779648241
 20
330.5618798177511
 42
-0.414213562373095
 10
126.2759779648241
 20
322.5618798177511
 10
126.2759779648241
 20
176.5618798177511
 42
-0.414213562373095
 10
118.2759779648241
 20
168.5618798177511
 10
83.27597796482411
 20
168.5618798177511
  0
LINE
  5
37C
330
1F
100
AcDbEntity
  8
0
  6
HIDDEN
 62
     1
 48
0.2
100
AcDbLine
 10
83.27597796482411
 20
330.5618798177511
 30
0.0
 11
83.27597796482411
 21
341.1949721591174
 31
0.0
  0
LINE
  5
37D
330
1F
100
AcDbEntity
  8
0
  6
HIDDEN
 62
     1
 48
0.2
100
AcDbLine
 10
83.27597796482411
 20
168.5618798177511
 30
0.0
 11
83.27597796482411
 21
156.1949697749316
 31
0.0
  0
LINE
  5
37E
330
1F
100
AcDbEntity
  8
0
100
AcDbLine
 10
1178.502672248868
 20
172.6949734108149
 30
0.0
 11
1177.402672254828
 21
172.6949734108149
 31
0.0
  0
LINE
  5
37F
330
1F
100
AcDbEntity
  8
0
100
AcDbLine
 10
1177.402672254828
 20
178.6949706690013
 30
0.0
 11
1178.502672248868
 21
178.6949706690013
 31
0.0
  0
LINE
  5
380
330
1F
100
AcDbEntity
  8
0
100
AcDbLine
 10
1178.502672248868
 20
245.6949709409475
 30
0.0
 11
1177.402672254828
 21
245.6949709409475
 31
0.0
  0
LINE
  5
381
330
1F
100
AcDbEntity
  8
0
100
AcDbLine
 10
1177.402672254828
 20
251.6949709931015
 30
0.0
 11
1178.502672248868
 21
251.6949709931015
 31
0.0
  0
LINE
  5
382
330
1F
100
AcDbEntity
  8
0
100
AcDbLine
 10
1178.502672248868
 20
318.6949712650477
 30
0.0
 11
1177.402672254828
 21
318.6949712650477
 31
0.0
  0
LINE
  5
383
330
1F
100
AcDbEntity
  8
0
100
AcDbLine
 10
1177.402672254828
 20
324.694968523234
 30
0.0
 11
1178.502672248868
 21
324.694968523234
 31
0.0
  0
LINE
  5
384
330
1F
100
AcDbEntity
  8
0
100
AcDbLine
 10
1166.602671974686
 20
161.1949724571406
 30
0.0
 11
1166.602671974686
 21
336.1949694769083
 31
0.0
  0
LINE
  5
385
330
1F
100
AcDbEntity
  8
0
100
AcDbLine
 10
1168.602671836851
 20
161.1949724571406
 30
0.0
 11
1168.602671836851
 21
336.1949694769083
 31
0.0
  0
LINE
  5
386
330
1F
100
AcDbEntity
  8
0
100
AcDbLine
 10
1168.602671836851
 20
340.1949701325594
 30
0.0
 11
1166.602671974686
 21
340.1949701325594
 31
0.0
  0
LINE
  5
387
330
1F
100
AcDbEntity
  8
0
100
AcDbLine
 10
1166.602671974686
 20
340.1949701325594
 30
0.0
 11
1166.602671974686
 21
336.1949694769083
 31
0.0
  0
LINE
  5
388
330
1F
100
AcDbEntity
  8
0
100
AcDbLine
 10
1168.602671836851
 20
336.1949694769083
 30
0.0
 11
1168.602671836851
 21
340.1949701325594
 31
0.0
  0
LINE
  5
389
330
1F
100
AcDbEntity
  8
0
100
AcDbLine
 10
1166.602671974686
 20
157.1949718014895
 30
0.0
 11
1168.602671836851
 21
157.1949718014895
 31
0.0
  0
LINE
  5
38A
330
1F
100
AcDbEntity
  8
0
100
AcDbLine
 10
1166.602671974686
 20
161.1949724571406
 30
0.0
 11
1166.602671974686
 21
157.1949718014895
 31
0.0
  0
LINE
  5
38B
330
1F
100
AcDbEntity
  8
0
100
AcDbLine
 10
1168.602671836851
 20
157.1949718014895
 30
0.0
 11
1168.602671836851
 21
161.1949724571406
 31
0.0
  0
LINE
  5
38C
330
1F
100
AcDbEntity
  8
0
100
AcDbLine
 10
1166.602671974686
 20
340.1949701325594
 30
0.0
 11
1166.202671722857
 21
340.1949701325594
 31
0.0
  0
LINE
  5
38D
330
1F
100
AcDbEntity
  8
0
100
AcDbLine
 10
1166.202671722857
 20
157.1949718014895
 30
0.0
 11
1166.602671974686
 21
157.1949718014895
 31
0.0
  0
LINE
  5
38E
330
1F
100
AcDbEntity
  8
0
100
AcDbLine
 10
1166.202671722857
 20
341.1949721591174
 30
0.0
 11
1157.102671814499
 21
341.1949721591174
 31
0.0
  0
LINE
  5
38F
330
1F
100
AcDbEntity
  8
0
100
AcDbLine
 10
1166.202671722857
 20
339.1949681060015
 30
0.0
 11
1166.202671722857
 21
341.1949721591174
 31
0.0
  0
LINE
  5
390
330
1F
100
AcDbEntity
  8
0
100
AcDbLine
 10
1155.602672034291
 20
339.1949681060015
 30
0.0
 11
1155.602672034291
 21
158.1949738280474
 31
0.0
  0
LINE
  5
391
330
1F
100
AcDbEntity
  8
0
100
AcDbLine
 10
1157.102671814499
 20
156.1949697749316
 30
0.0
 11
1166.202671722857
 21
156.1949697749316
 31
0.0
  0
LINE
  5
392
330
1F
100
AcDbEntity
  8
0
100
AcDbLine
 10
1166.202671722857
 20
156.1949697749316
 30
0.0
 11
1166.202671722857
 21
158.1949738280474
 31
0.0
  0
LINE
  5
393
330
1F
100
AcDbEntity
  8
0
100
AcDbLine
 10
1166.202671722857
 20
158.1949738280474
 30
0.0
 11
1166.202671722857
 21
339.1949681060015
 31
0.0
  0
LINE
  5
394
330
1F
100
AcDbEntity
  8
0
100
AcDbLine
 10
1155.602672034291
 20
157.6949728147685
 30
0.0
 11
1155.602672034291
 21
158.1949738280474
 31
0.0
  0
ARC
  5
395
330
1F
100
AcDbEntity
  8
0
100
AcDbCircle
 10
1157.102671834615
 20
157.6949709670245
 30
0.0
 40
1.5
100
AcDbArc
 50
180.0
 51
270.0
  0
LINE
  5
396
330
1F
100
AcDbEntity
  8
0
100
AcDbLine
 10
1155.602672034291
 20
339.1949681060015
 30
0.0
 11
1155.602672034291
 21
339.6949691192805
 31
0.0
  0
ARC
  5
397
330
1F
100
AcDbEntity
  8
0
100
AcDbCircle
 10
1157.102671834615
 20
339.6949709670245
 30
0.0
 40
1.5
100
AcDbArc
 50
90.0
 51
180.0
  0
LINE
  5
398
330
1F
100
AcDbEntity
  8
0
100
AcDbLine
 10
1177.402672254828
 20
327.6949746029078
 30
0.0
 11
1168.602671836851
 21
327.6949746029078
 31
0.0
  0
LINE
  5
399
330
1F
100
AcDbEntity
  8
0
100
AcDbLine
 10
1177.402672254828
 20
320.1949743048846
 30
0.0
 11
1177.402672254828
 21
327.6949746029078
 31
0.0
  0
LINE
  5
39A
330
1F
100
AcDbEntity
  8
0
100
AcDbLine
 10
1168.602671836851
 20
169.6949673311412
 30
0.0
 11
1177.402672254828
 21
169.6949673311412
 31
0.0
  0
LINE
  5
39B
330
1F
100
AcDbEntity
  8
0
100
AcDbLine
 10
1177.402672254828
 20
169.6949673311412
 30
0.0
 11
1177.402672254828
 21
177.1949676291644
 31
0.0
  0
LINE
  5
39C
330
1F
100
AcDbEntity
  8
0
100
AcDbLine
 10
1177.402672254828
 20
177.1949676291644
 30
0.0
 11
1177.402672254828
 21
320.1949743048846
 31
0.0
  0
LINE
  5
39D
330
1F
100
AcDbEntity
  8
0
100
AcDbLine
 10
1178.402672418741
 20
327.6949746029078
 30
0.0
 11
1178.402672418741
 21
324.694968523234
 31
0.0
  0
LINE
  5
39E
330
1F
100
AcDbEntity
  8
0
100
AcDbLine
 10
1178.402672418741
 20
318.6949712650477
 30
0.0
 11
1178.402672418741
 21
251.6949709931015
 31
0.0
  0
LINE
  5
39F
330
1F
100
AcDbEntity
  8
0
100
AcDbLine
 10
1178.402672418741
 20
245.6949709409475
 30
0.0
 11
1178.402672418741
 21
178.6949706690013
 31
0.0
  0
LINE
  5
3A0
330
1F
100
AcDbEntity
  8
0
100
AcDbLine
 10
1178.402672418741
 20
172.6949734108149
 30
0.0
 11
1178.402672418741
 21
169.6949673311412
 31
0.0
  0
LINE
  5
3A1
330
1F
100
AcDbEntity
  8
0
100
AcDbLine
 10
1177.402672254828
 20
169.6949673311412
 30
0.0
 11
1178.402672418741
 21
169.6949673311412
 31
0.0
  0
LINE
  5
3A2
330
1F
100
AcDbEntity
  8
0
100
AcDbLine
 10
1177.402672254828
 20
327.6949746029078
 30
0.0
 11
1178.402672418741
 21
327.6949746029078
 31
0.0
  0
LINE
  5
3A3
330
1F
100
AcDbEntity
  8
0
100
AcDbLine
 10
1187.502671861437
 20
157.6949728147685
 30
0.0
 11
1187.502671861437
 21
158.1949738280474
 31
0.0
  0
ARC
  5
3A4
330
1F
100
AcDbEntity
  8
0
100
AcDbCircle
 10
1186.002671834615
 20
157.6949709670245
 30
0.0
 40
1.5
100
AcDbArc
 50
270.0
 51
0.0
  0
LINE
  5
3A5
330
1F
100
AcDbEntity
  8
0
100
AcDbLine
 10
1178.502672248868
 20
158.1949738280474
 30
0.0
 11
1178.502672248868
 21
156.1949697749316
 31
0.0
  0
LINE
  5
3A6
330
1F
100
AcDbEntity
  8
0
100
AcDbLine
 10
1178.502672248868
 20
156.1949697749316
 30
0.0
 11
1186.002672546891
 21
156.1949697749316
 31
0.0
  0
LINE
  5
3A7
330
1F
100
AcDbEntity
  8
0
100
AcDbLine
 10
1178.502672248868
 20
339.1949681060015
 30
0.0
 11
1178.502672248868
 21
158.1949738280474
 31
0.0
  0
LINE
  5
3A8
330
1F
100
AcDbEntity
  8
0
100
AcDbLine
 10
1187.502671861437
 20
158.1949738280474
 30
0.0
 11
1187.502671861437
 21
339.1949681060015
 31
0.0
  0
LINE
  5
3A9
330
1F
100
AcDbEntity
  8
0
100
AcDbLine
 10
1186.002672546891
 20
341.1949721591174
 30
0.0
 11
1178.502672248868
 21
341.1949721591174
 31
0.0
  0
LINE
  5
3AA
330
1F
100
AcDbEntity
  8
0
100
AcDbLine
 10
1178.502672248868
 20
341.1949721591174
 30
0.0
 11
1178.502672248868
 21
339.1949681060015
 31
0.0
  0
LINE
  5
3AB
330
1F
100
AcDbEntity
  8
0
100
AcDbLine
 10
1187.502671861437
 20
339.1949681060015
 30
0.0
 11
1187.502671861437
 21
339.6949691192805
 31
0.0
  0
ARC
  5
3AC
330
1F
100
AcDbEntity
  8
0
100
AcDbCircle
 10
1186.002671834615
 20
339.6949709670245
 30
0.0
 40
1.5
100
AcDbArc
 50
0.0
 51
90.0
  0
LINE
  5
3AD
330
1F
100
AcDbEntity
  8
0
  6
Continuous
 62
     8
370
     0
100
AcDbLine
 10
1166.602671974686
 20
336.1949694769083
 30
0.0
 11
1168.602671836851
 21
336.1949694769083
 31
0.0
  0
LINE
  5
3AE
330
1F
100
AcDbEntity
  8
0
  6
Continuous
 62
     8
370
     0
100
AcDbLine
 10
1168.602671836851
 20
161.1949724571406
 30
0.0
 11
1166.602671974686
 21
161.1949724571406
 31
0.0
  0
LINE
  5
3AF
330
1F
100
AcDbEntity
  8
0
  6
Continuous
 62
     8
370
     0
100
AcDbLine
 10
1166.202671722857
 20
336.1949694769083
 30
0.0
 11
1166.602671974686
 21
336.1949694769083
 31
0.0
  0
LINE
  5
3B0
330
1F
100
AcDbEntity
  8
0
  6
Continuous
 62
     8
370
     0
100
AcDbLine
 10
1166.602671974686
 20
161.1949724571406
 30
0.0
 11
1166.202671722857
 21
161.1949724571406
 31
0.0
  0
LINE
  5
3B1
330
1F
100
AcDbEntity
  8
0
  6
Continuous
 62
     8
370
     0
100
AcDbLine
 10
1157.102671814499
 20
341.1949721591174
 30
0.0
 11
1157.102671814499
 21
339.1949681060015
 31
0.0
  0
LINE
  5
3B2
330
1F
100
AcDbEntity
  8
0
  6
Continuous
 62
     8
370
     0
100
AcDbLine
 10
1157.102671814499
 20
339.1949681060015
 30
0.0
 11
1166.202671722857
 21
339.1949681060015
 31
0.0
  0
LINE
  5
3B3
330
1F
100
AcDbEntity
  8
0
  6
Continuous
 62
     8
370
     0
100
AcDbLine
 10
1155.602672034291
 20
339.1949681060015
 30
0.0
 11
1157.102671814499
 21
339.1949681060015
 31
0.0
  0
LINE
  5
3B4
330
1F
100
AcDbEntity
  8
0
  6
Continuous
 62
     8
370
     0
100
AcDbLine
 10
1157.102671814499
 20
158.1949738280474
 30
0.0
 11
1155.602672034291
 21
158.1949738280474
 31
0.0
  0
LINE
  5
3B5
330
1F
100
AcDbEntity
  8
0
  6
Continuous
 62
     8
370
     0
100
AcDbLine
 10
1157.102671814499
 20
158.1949738280474
 30
0.0
 11
1157.102671814499
 21
339.1949681060015
 31
0.0
  0
LINE
  5
3B6
330
1F
100
AcDbEntity
  8
0
  6
Continuous
 62
     8
370
     0
100
AcDbLine
 10
1166.202671722857
 20
158.1949738280474
 30
0.0
 11
1157.102671814499
 21
158.1949738280474
 31
0.0
  0
LINE
  5
3B7
330
1F
100
AcDbEntity
  8
0
  6
Continuous
 62
     8
370
     0
100
AcDbLine
 10
1157.102671814499
 20
158.1949738280474
 30
0.0
 11
1157.102671814499
 21
156.1949697749316
 31
0.0
  0
LINE
  5
3B8
330
1F
100
AcDbEntity
  8
0
  6
Continuous
 62
     8
370
     0
100
AcDbLine
 10
1168.602671836851
 20
320.1949743048846
 30
0.0
 11
1177.402672254828
 21
320.1949743048846
 31
0.0
  0
LINE
  5
3B9
330
1F
100
AcDbEntity
  8
0
  6
Continuous
 62
     8
370
     0
100
AcDbLine
 10
1177.402672254828
 20
177.1949676291644
 30
0.0
 11
1168.602671836851
 21
177.1949676291644
 31
0.0
  0
LINE
  5
3BA
330
1F
100
AcDbEntity
  8
0
  6
Continuous
 62
     8
370
     0
100
AcDbLine
 10
1187.502671861437
 20
158.1949738280474
 30
0.0
 11
1186.002672546891
 21
158.1949738280474
 31
0.0
  0
LINE
  5
3BB
330
1F
100
AcDbEntity
  8
0
  6
Continuous
 62
     8
370
     0
100
AcDbLine
 10
1186.002672546891
 20
158.1949738280474
 30
0.0
 11
1186.002672546891
 21
156.1949697749316
 31
0.0
  0
LINE
  5
3BC
330
1F
100
AcDbEntity
  8
0
  6
Continuous
 62
     8
370
     0
100
AcDbLine
 10
1186.002672546891
 20
158.1949738280474
 30
0.0
 11
1178.502672248868
 21
158.1949738280474
 31
0.0
  0
LINE
  5
3BD
330
1F
100
AcDbEntity
  8
0
  6
Continuous
 62
     8
370
     0
100
AcDbLine
 10
1186.002672546891
 20
339.1949681060015
 30
0.0
 11
1186.002672546891
 21
158.1949738280474
 31
0.0
  0
LINE
  5
3BE
330
1F
100
AcDbEntity
  8
0
  6
Continuous
 62
     8
370
     0
100
AcDbLine
 10
1178.502672248868
 20
339.1949681060015
 30
0.0
 11
1186.002672546891
 21
339.1949681060015
 31
0.0
  0
LINE
  5
3BF
330
1F
100
AcDbEntity
  8
0
  6
Continuous
 62
     8
370
     0
100
AcDbLine
 10
1187.502671861437
 20
339.1949681060015
 30
0.0
 11
1186.002672546891
 21
339.1949681060015
 31
0.0
  0
LINE
  5
3C0
330
1F
100
AcDbEntity
  8
0
  6
Continuous
 62
     8
370
     0
100
AcDbLine
 10
1186.002672546891
 20
341.1949721591174
 30
0.0
 11
1186.002672546891
 21
339.1949681060015
 31
0.0
  0
ARC
  5
3C1
330
1F
100
AcDbEntity
  8
0
100
AcDbCircle
 10
1095.381821672657
 20
158.1949709670245
 30
0.0
 40
2.0
100
AcDbArc
 50
270.0
 51
0.0
  0
LINE
  5
3C2
330
1F
100
AcDbEntity
  8
0
100
AcDbLine
 10
1097.381820778587
 20
158.1949738280475
 30
0.0
 11
1097.381820778587
 21
339.1949681060016
 31
0.0
  0
LINE
  5
3C3
330
1F
100
AcDbEntity
  8
0
100
AcDbLine
 10
1034.381821627953
 20
156.1949697749316
 30
0.0
 11
1095.381820450762
 21
156.1949697749316
 31
0.0
  0
ARC
  5
3C4
330
1F
100
AcDbEntity
  8
0
100
AcDbCircle
 10
1095.381821672657
 20
339.1949709670245
 30
0.0
 40
2.0
100
AcDbArc
 50
0.0
 51
90.0
  0
LINE
  5
3C5
330
1F
100
AcDbEntity
  8
0
100
AcDbLine
 10
1095.381820450762
 20
341.1949721591174
 30
0.0
 11
1034.381821627953
 21
341.1949721591174
 31
0.0
  0
ARC
  5
3C6
330
1F
100
AcDbEntity
  8
0
100
AcDbCircle
 10
1034.381821672657
 20
158.1949709670245
 30
0.0
 40
2.000000000000014
100
AcDbArc
 50
180.0
 51
270.0
  0
LINE
  5
3C7
330
1F
100
AcDbEntity
  8
0
100
AcDbLine
 10
1032.381821300128
 20
339.1949681060016
 30
0.0
 11
1032.381821300128
 21
158.1949738280475
 31
0.0
  0
ARC
  5
3C8
330
1F
100
AcDbEntity
  8
0
100
AcDbCircle
 10
1034.381821672657
 20
339.1949709670246
 30
0.0
 40
2.0
100
AcDbArc
 50
90.0
 51
180.0
  0
ARC
  5
3C9
330
1F
100
AcDbEntity
  8
0
  6
Continuous
 62
     8
370
     0
100
AcDbCircle
 10
1095.381821672657
 20
158.1949709670245
 30
0.0
 40
0.5
100
AcDbArc
 50
270.0
 51
0.0
  0
LINE
  5
3CA
330
1F
100
AcDbEntity
  8
0
  6
Continuous
 62
     8
370
     0
100
AcDbLine
 10
1095.381820450762
 20
157.6949728147685
 30
0.0
 11
1095.381820450762
 21
156.1949697749316
 31
0.0
  0
LINE
  5
3CB
330
1F
100
AcDbEntity
  8
0
  6
Continuous
 62
     8
370
     0
100
AcDbLine
 10
1097.381820778587
 20
158.1949738280475
 30
0.0
 11
1095.881821464041
 21
158.1949738280475
 31
0.0
  0
LINE
  5
3CC
330
1F
100
AcDbEntity
  8
0
  6
Continuous
 62
     8
370
     0
100
AcDbLine
 10
1097.381820778587
 20
339.1949681060016
 30
0.0
 11
1095.881821464041
 21
339.1949681060016
 31
0.0
  0
LINE
  5
3CD
330
1F
100
AcDbEntity
  8
0
  6
Continuous
 62
     8
370
     0
100
AcDbLine
 10
1095.881821464041
 20
339.1949681060016
 30
0.0
 11
1095.881821464041
 21
158.1949738280475
 31
0.0
  0
ARC
  5
3CE
330
1F
100
AcDbEntity
  8
0
  6
Continuous
 62
     8
370
     0
100
AcDbCircle
 10
1034.381821672657
 20
158.1949709670245
 30
0.0
 40
0.5
100
AcDbArc
 50
180.0
 51
270.0
  0
LINE
  5
3CF
330
1F
100
AcDbEntity
  8
0
  6
Continuous
 62
     8
370
     0
100
AcDbLine
 10
1095.381820450762
 20
157.6949728147685
 30
0.0
 11
1034.381821627953
 21
157.6949728147685
 31
0.0
  0
ARC
  5
3D0
330
1F
100
AcDbEntity
  8
0
  6
Continuous
 62
     8
370
     0
100
AcDbCircle
 10
1095.381821672657
 20
339.1949709670245
 30
0.0
 40
0.5
100
AcDbArc
 50
0.0
 51
90.0
  0
LINE
  5
3D1
330
1F
100
AcDbEntity
  8
0
  6
Continuous
 62
     8
370
     0
100
AcDbLine
 10
1034.381821627953
 20
339.6949691192805
 30
0.0
 11
1095.381820450762
 21
339.6949691192805
 31
0.0
  0
ARC
  5
3D2
330
1F
100
AcDbEntity
  8
0
  6
Continuous
 62
     8
370
     0
100
AcDbCircle
 10
1034.381821672657
 20
339.1949709670246
 30
0.0
 40
0.5
100
AcDbArc
 50
90.0
 51
180.0
  0
LINE
  5
3D3
330
1F
100
AcDbEntity
  8
0
  6
Continuous
 62
     8
370
     0
100
AcDbLine
 10
1033.881822477319
 20
158.1949738280475
 30
0.0
 11
1033.881822477319
 21
339.1949681060016
 31
0.0
  0
LINE
  5
3D4
330
1F
100
AcDbEntity
  8
0
  6
Continuous
 62
     8
370
     0
100
AcDbLine
 10
1034.381821627953
 20
157.6949728147685
 30
0.0
 11
1034.381821627953
 21
156.1949697749316
 31
0.0
  0
LINE
  5
3D5
330
1F
100
AcDbEntity
  8
0
  6
Continuous
 62
     8
370
     0
100
AcDbLine
 10
1095.381820450762
 20
341.1949721591174
 30
0.0
 11
1095.381820450762
 21
339.6949691192805
 31
0.0
  0
LINE
  5
3D6
330
1F
100
AcDbEntity
  8
0
  6
Continuous
 62
     8
370
     0
100
AcDbLine
 10
1034.381821627953
 20
341.1949721591174
 30
0.0
 11
1034.381821627953
 21
339.6949691192805
 31
0.0
  0
LINE
  5
3D7
330
1F
100
AcDbEntity
  8
0
  6
Continuous
 62
     8
370
     0
100
AcDbLine
 10
1033.881822477319
 20
158.1949738280475
 30
0.0
 11
1032.381821300128
 21
158.1949738280475
 31
0.0
  0
LINE
  5
3D8
330
1F
100
AcDbEntity
  8
0
  6
Continuous
 62
     8
370
     0
100
AcDbLine
 10
1033.881822477319
 20
339.1949681060016
 30
0.0
 11
1032.381821300128
 21
339.1949681060016
 31
0.0
  0
CIRCLE
  5
3D9
330
1F
100
AcDbEntity
  8
0
100
AcDbCircle
 10
770.9785442109586
 20
249.5618798177511
 30
0.0
 40
5.25
  0
CIRCLE
  5
3DA
330
1F
100
AcDbEntity
  8
0
100
AcDbCircle
 10
770.9785442109587
 20
169.561879817751
 30
0.0
 40
5.25
  0
CIRCLE
  5
3DB
330
1F
100
AcDbEntity
  8
0
100
AcDbCircle
 10
770.9785442109586
 20
329.5618798177511
 30
0.0
 40
5.250000000000057
  0
ARC
  5
3DC
330
1F
100
AcDbEntity
  8
0
100
AcDbCircle
 10
826.4785442109585
 20
340.0618798177512
 30
0.0
 40
2.0
100
AcDbArc
 50
0.0
 51
90.0
  0
LINE
  5
3DD
330
1F
100
AcDbEntity
  8
0
100
AcDbLine
 10
826.478544255662
 20
342.061881009844
 30
0.0
 11
780.478544166255
 21
342.061881009844
 31
0.0
  0
LINE
  5
3DE
330
1F
100
AcDbEntity
  8
0
100
AcDbLine
 10
828.4785445834875
 20
159.0618826787741
 30
0.0
 11
828.4785445834875
 21
340.0618769567282
 31
0.0
  0
LINE
  5
3DF
330
1F
100
AcDbEntity
  8
0
100
AcDbLine
 10
778.4785438384295
 20
340.0618769567282
 30
0.0
 11
778.4785438384295
 21
159.0618826787741
 31
0.0
  0
ARC
  5
3E0
330
1F
100
AcDbEntity
  8
0
100
AcDbCircle
 10
780.4785442109585
 20
340.0618798177512
 30
0.0
 40
2.0
100
AcDbArc
 50
90.0
 51
180.0
  0
LINE
  5
3E1
330
1F
100
AcDbEntity
  8
0
100
AcDbLine
 10
780.478544166255
 20
157.0618786256582
 30
0.0
 11
826.478544255662
 21
157.0618786256582
 31
0.0
  0
ARC
  5
3E2
330
1F
100
AcDbEntity
  8
0
100
AcDbCircle
 10
826.4785442109585
 20
159.0618798177511
 30
0.0
 40
2.0
100
AcDbArc
 50
270.0
 51
0.0
  0
ARC
  5
3E3
330
1F
100
AcDbEntity
  8
0
100
AcDbCircle
 10
780.4785442109585
 20
159.0618798177511
 30
0.0
 40
2.0
100
AcDbArc
 50
180.0
 51
270.0
  0
LINE
  5
3E4
330
1F
100
AcDbEntity
  8
0
100
AcDbLine
 10
780.478544166255
 20
157.0618786256582
 30
0.0
 11
778.4785438384295
 21
157.0618786256582
 31
0.0
  0
LINE
  5
3E5
330
1F
100
AcDbEntity
  8
0
100
AcDbLine
 10
778.4785438384295
 20
157.0618786256582
 30
0.0
 11
778.4785438384295
 21
159.0618826787741
 31
0.0
  0
LINE
  5
3E6
330
1F
100
AcDbEntity
  8
0
100
AcDbLine
 10
778.4785438384295
 20
340.0618769567282
 30
0.0
 11
778.4785438384295
 21
342.061881009844
 31
0.0
  0
LINE
  5
3E7
330
1F
100
AcDbEntity
  8
0
100
AcDbLine
 10
778.4785438384295
 20
342.061881009844
 30
0.0
 11
780.478544166255
 21
342.061881009844
 31
0.0
  0
SPLINE
  5
3E8
330
1F
100
AcDbEntity
  8
0
100
AcDbSpline
210
0.0
220
0.0
230
1.0
 70
    24
 71
     3
 72
    11
 73
     7
 74
     0
 42
0.000000001
 43
0.00000001
 40
0.0
 40
0.0
 40
0.0
 40
0.0
 40
0.1555536214784914
 40
0.5717076423021508
 40
0.9940219346392383
 40
1.0
 40
1.0
 40
1.0
 40
1.0
 10
777.1579936202049
 20
342.061881009844
 30
0.0
 10
777.0416062393183
 20
342.061881009844
 30
0.0
 10
776.6138466379155
 20
342.061881009844
 30
0.0
 10
775.8858103941375
 20
342.061881009844
 30
0.0
 10
775.2867356479303
 20
342.061881009844
 30
0.0
 10
774.9827866877056
 20
342.061881009844
 30
0.0
 10
774.9785441960573
 20
342.061881009844
 30
0.0
  0
SPLINE
  5
3E9
330
1F
100
AcDbEntity
  8
0
100
AcDbSpline
210
0.0
220
0.0
230
1.0
 70
    24
 71
     3
 72
    11
 73
     7
 74
     0
 42
0.000000001
 43
0.00000001
 40
0.0
 40
0.0
 40
0.0
 40
0.0
 40
0.0059798360250515
 40
0.4517707800852256
 40
0.9180858010899049
 40
1.0
 40
1.0
 40
1.0
 40
1.0
 10
774.9785441960573
 20
157.0618786256582
 30
0.0
 10
774.982786702191
 20
157.0618786256582
 30
0.0
 10
775.3033039032434
 20
157.0618786256577
 30
0.0
 10
775.9539135327193
 20
157.0618786256586
 30
0.0
 10
776.6866506061116
 20
157.0618786256581
 30
0.0
 10
777.0967223536045
 20
157.0618786256582
 30
0.0
 10
777.1579936202049
 20
157.0618786256582
 30
0.0
  0
CIRCLE
  5
3EA
330
1F
100
AcDbEntity
  8
0
100
AcDbCircle
 10
770.9785442109586
 20
329.5618798177511
 30
0.0
 40
6.0
  0
CIRCLE
  5
3EB
330
1F
100
AcDbEntity
  8
0
100
AcDbCircle
 10
770.9785442109586
 20
249.5618798177511
 30
0.0
 40
6.0
  0
CIRCLE
  5
3EC
330
1F
100
AcDbEntity
  8
0
100
AcDbCircle
 10
770.9785442109587
 20
169.561879817751
 30
0.0
 40
6.0
  0
LINE
  5
3ED
330
1F
100
AcDbEntity
  8
0
100
AcDbLine
 10
778.4785438384295
 20
157.0618786256582
 30
0.0
 11
777.1579936202049
 21
157.0618786256582
 31
0.0
  0
LINE
  5
3EE
330
1F
100
AcDbEntity
  8
0
100
AcDbLine
 10
778.4785438384295
 20
342.061881009844
 30
0.0
 11
777.1579936202049
 21
342.061881009844
 31
0.0
  0
LINE
  5
3EF
330
1F
100
AcDbEntity
  8
0
100
AcDbLine
 10
763.4785451050282
 20
340.0618769567282
 30
0.0
 11
763.4785451050282
 21
159.0618826787741
 31
0.0
  0
LINE
  5
3F0
330
1F
100
AcDbEntity
  8
0
100
AcDbLine
 10
774.9785441960573
 20
342.061881009844
 30
0.0
 11
765.4785454328537
 21
342.061881009844
 31
0.0
  0
ARC
  5
3F1
330
1F
100
AcDbEntity
  8
0
100
AcDbCircle
 10
765.4785442109585
 20
340.0618798177511
 30
0.0
 40
2.0
100
AcDbArc
 50
90.0
 51
180.0
  0
LINE
  5
3F2
330
1F
100
AcDbEntity
  8
0
100
AcDbLine
 10
765.4785454328537
 20
157.0618786256582
 30
0.0
 11
774.9785441960573
 21
157.0618786256582
 31
0.0
  0
ARC
  5
3F3
330
1F
100
AcDbEntity
  8
0
100
AcDbCircle
 10
765.4785442109586
 20
159.061879817751
 30
0.0
 40
2.0
100
AcDbArc
 50
180.0
 51
270.0
  0
ARC
  5
3F4
330
1F
100
AcDbEntity
  8
0
  6
Continuous
 62
     8
370
     0
100
AcDbCircle
 10
826.4785442109585
 20
340.0618798177512
 30
0.0
 40
0.5
100
AcDbArc
 50
0.0
 51
90.0
  0
LINE
  5
3F5
330
1F
100
AcDbEntity
  8
0
  6
Continuous
 62
     8
370
     0
100
AcDbLine
 10
826.9785434062958
 20
340.0618769567282
 30
0.0
 11
828.4785445834875
 21
340.0618769567282
 31
0.0
  0
LINE
  5
3F6
330
1F
100
AcDbEntity
  8
0
  6
Continuous
 62
     8
370
     0
100
AcDbLine
 10
826.478544255662
 20
342.061881009844
 30
0.0
 11
826.478544255662
 21
340.5618779700071
 31
0.0
  0
LINE
  5
3F7
330
1F
100
AcDbEntity
  8
0
  6
Continuous
 62
     8
370
     0
100
AcDbLine
 10
780.478544166255
 20
340.5618779700071
 30
0.0
 11
780.478544166255
 21
342.061881009844
 31
0.0
  0
LINE
  5
3F8
330
1F
100
AcDbEntity
  8
0
  6
Continuous
 62
     8
370
     0
100
AcDbLine
 10
780.478544166255
 20
340.5618779700071
 30
0.0
 11
826.478544255662
 21
340.5618779700071
 31
0.0
  0
LINE
  5
3F9
330
1F
100
AcDbEntity
  8
0
  6
Continuous
 62
     8
370
     0
100
AcDbLine
 10
826.9785434062958
 20
340.0618769567282
 30
0.0
 11
826.9785434062958
 21
159.0618826787741
 31
0.0
  0
LINE
  5
3FA
330
1F
100
AcDbEntity
  8
0
  6
Continuous
 62
     8
370
     0
100
AcDbLine
 10
828.4785445834875
 20
159.0618826787741
 30
0.0
 11
826.9785434062958
 21
159.0618826787741
 31
0.0
  0
ARC
  5
3FB
330
1F
100
AcDbEntity
  8
0
  6
Continuous
 62
     8
370
     0
100
AcDbCircle
 10
780.4785442109585
 20
340.0618798177512
 30
0.0
 40
0.5
100
AcDbArc
 50
90.0
 51
180.0
  0
LINE
  5
3FC
330
1F
100
AcDbEntity
  8
0
  6
Continuous
 62
     8
370
     0
100
AcDbLine
 10
779.9785450156212
 20
159.0618826787741
 30
0.0
 11
779.9785450156212
 21
340.0618769567282
 31
0.0
  0
ARC
  5
3FD
330
1F
100
AcDbEntity
  8
0
  6
Continuous
 62
     8
370
     0
100
AcDbCircle
 10
780.4785442109585
 20
159.0618798177511
 30
0.0
 40
0.5
100
AcDbArc
 50
180.0
 51
270.0
  0
LINE
  5
3FE
330
1F
100
AcDbEntity
  8
0
  6
Continuous
 62
     8
370
     0
100
AcDbLine
 10
826.478544255662
 20
158.5618816654951
 30
0.0
 11
780.478544166255
 21
158.5618816654951
 31
0.0
  0
ARC
  5
3FF
330
1F
100
AcDbEntity
  8
0
  6
Continuous
 62
     8
370
     0
100
AcDbCircle
 10
826.4785442109585
 20
159.0618798177511
 30
0.0
 40
0.5
100
AcDbArc
 50
270.0
 51
0.0
  0
LINE
  5
400
330
1F
100
AcDbEntity
  8
0
  6
Continuous
 62
     8
370
     0
100
AcDbLine
 10
779.9785450156212
 20
159.0618826787741
 30
0.0
 11
778.4785438384295
 21
159.0618826787741
 31
0.0
  0
LINE
  5
401
330
1F
100
AcDbEntity
  8
0
  6
Continuous
 62
     8
370
     0
100
AcDbLine
 10
778.4785438384295
 20
340.0618769567282
 30
0.0
 11
779.9785450156212
 21
340.0618769567282
 31
0.0
  0
LINE
  5
402
330
1F
100
AcDbEntity
  8
0
  6
Continuous
 62
     8
370
     0
100
AcDbLine
 10
826.478544255662
 20
158.5618816654951
 30
0.0
 11
826.478544255662
 21
157.0618786256582
 31
0.0
  0
LINE
  5
403
330
1F
100
AcDbEntity
  8
0
  6
Continuous
 62
     8
370
     0
100
AcDbLine
 10
780.478544166255
 20
157.0618786256582
 30
0.0
 11
780.478544166255
 21
158.5618816654951
 31
0.0
  0
LINE
  5
404
330
1F
100
AcDbEntity
  8
0
  6
Continuous
 62
     8
370
     0
100
AcDbLine
 10
774.9785441960573
 20
342.061881009844
 30
0.0
 11
774.9785441960573
 21
341.561879996565
 31
0.0
  0
ARC
  5
405
330
1F
100
AcDbEntity
  8
0
  6
Continuous
 62
     8
370
     0
100
AcDbCircle
 10
774.9785442109585
 20
346.5618798177511
 30
0.0
 40
5.000000000000002
100
AcDbArc
 50
270.0
 51
295.8419327631668
  0
ARC
  5
406
330
1F
100
AcDbEntity
  8
0
  6
Continuous
 62
     8
370
     0
100
AcDbCircle
 10
774.9785442109587
 20
152.561879817751
 30
0.0
 40
5.000000000000028
100
AcDbArc
 50
64.15806723683313
 51
90.0
  0
LINE
  5
407
330
1F
100
AcDbEntity
  8
0
  6
Continuous
 62
     8
370
     0
100
AcDbLine
 10
774.9785441960573
 20
157.0618786256582
 30
0.0
 11
774.9785441960573
 21
157.5618796389372
 31
0.0
  0
ARC
  5
408
330
1F
100
AcDbEntity
  8
0
  6
Continuous
 62
     8
370
     0
100
AcDbCircle
 10
765.4785442109585
 20
340.0618798177511
 30
0.0
 40
1.5
100
AcDbArc
 50
90.0
 51
180.0
  0
LINE
  5
409
330
1F
100
AcDbEntity
  8
0
  6
Continuous
 62
     8
370
     0
100
AcDbLine
 10
763.9785423930168
 20
159.0618826787741
 30
0.0
 11
763.9785423930168
 21
340.0618769567282
 31
0.0
  0
ARC
  5
40A
330
1F
100
AcDbEntity
  8
0
  6
Continuous
 62
     8
370
     0
100
AcDbCircle
 10
765.4785442109586
 20
159.061879817751
 30
0.0
 40
1.5
100
AcDbArc
 50
180.0
 51
270.0
  0
LINE
  5
40B
330
1F
100
AcDbEntity
  8
0
  6
Continuous
 62
     8
370
     0
100
AcDbLine
 10
774.9785441960573
 20
157.5618796389372
 30
0.0
 11
765.4785454328537
 21
157.5618796389372
 31
0.0
  0
LINE
  5
40C
330
1F
100
AcDbEntity
  8
0
  6
Continuous
 62
     8
370
     0
100
AcDbLine
 10
765.4785454328537
 20
341.561879996565
 30
0.0
 11
774.9785441960573
 21
341.561879996565
 31
0.0
  0
LINE
  5
40D
330
1F
100
AcDbEntity
  8
0
  6
Continuous
 62
     8
370
     0
100
AcDbLine
 10
763.4785451050282
 20
159.0618826787741
 30
0.0
 11
763.9785423930168
 21
159.0618826787741
 31
0.0
  0
LINE
  5
40E
330
1F
100
AcDbEntity
  8
0
  6
Continuous
 62
     8
370
     0
100
AcDbLine
 10
763.4785451050282
 20
340.0618769567282
 30
0.0
 11
763.9785423930168
 21
340.0618769567282
 31
0.0
  0
LINE
  5
40F
330
1F
100
AcDbEntity
  8
0
  6
Continuous
 62
     8
370
     0
100
AcDbLine
 10
765.4785454328537
 20
342.061881009844
 30
0.0
 11
765.4785454328537
 21
341.561879996565
 31
0.0
  0
LINE
  5
410
330
1F
100
AcDbEntity
  8
0
  6
Continuous
 62
     8
370
     0
100
AcDbLine
 10
765.4785454328537
 20
157.0618786256582
 30
0.0
 11
765.4785454328537
 21
157.5618796389372
 31
0.0
  0
LINE
  5
411
330
1F
100
AcDbEntity
  8
0
100
AcDbLine
 10
927.2701016996889
 20
244.3118798885316
 30
0.0
 11
926.7701006864099
 21
244.3118798885316
 31
0.0
  0
LINE
  5
412
330
1F
100
AcDbEntity
  8
0
100
AcDbLine
 10
926.7701006864099
 20
254.8118797469706
 30
0.0
 11
927.2701016996889
 21
254.8118797469706
 31
0.0
  0
LINE
  5
413
330
1F
100
AcDbEntity
  8
0
100
AcDbLine
 10
927.2701016996889
 20
164.3118821423323
 30
0.0
 11
926.7701006864099
 21
164.3118821423323
 31
0.0
  0
LINE
  5
414
330
1F
100
AcDbEntity
  8
0
100
AcDbLine
 10
926.7701006864099
 20
174.8118810694487
 30
0.0
 11
927.2701016996889
 21
174.8118810694487
 31
0.0
  0
LINE
  5
415
330
1F
100
AcDbEntity
  8
0
100
AcDbLine
 10
927.2701016996889
 20
324.3118785660536
 30
0.0
 11
926.7701006864099
 21
324.3118785660536
 31
0.0
  0
LINE
  5
416
330
1F
100
AcDbEntity
  8
0
100
AcDbLine
 10
926.7701006864099
 20
334.81187749317
 30
0.0
 11
927.2701016996889
 21
334.81187749317
 31
0.0
  0
LINE
  5
417
330
1F
100
AcDbEntity
  8
0
100
AcDbLine
 10
928.7701010142355
 20
179.5618795197279
 30
0.0
 11
928.8701008443622
 21
179.5618795197279
 31
0.0
  0
LINE
  5
418
330
1F
100
AcDbEntity
  8
0
100
AcDbLine
 10
928.8701008443622
 20
173.5618822615416
 30
0.0
 11
928.7701010142355
 21
173.5618822615416
 31
0.0
  0
LINE
  5
419
330
1F
100
AcDbEntity
  8
0
100
AcDbLine
 10
928.7701010142355
 20
252.5618798438282
 30
0.0
 11
928.8701008443622
 21
252.5618798438282
 31
0.0
  0
LINE
  5
41A
330
1F
100
AcDbEntity
  8
0
100
AcDbLine
 10
928.8701008443622
 20
246.5618797916741
 30
0.0
 11
928.7701010142355
 21
246.5618797916741
 31
0.0
  0
LINE
  5
41B
330
1F
100
AcDbEntity
  8
0
100
AcDbLine
 10
928.7701010142355
 20
325.5618773739607
 30
0.0
 11
928.8701008443622
 21
325.5618773739607
 31
0.0
  0
LINE
  5
41C
330
1F
100
AcDbEntity
  8
0
100
AcDbLine
 10
928.8701008443622
 20
319.5618801157743
 30
0.0
 11
928.7701010142355
 21
319.5618801157743
 31
0.0
  0
LINE
  5
41D
330
1F
100
AcDbEntity
  8
0
100
AcDbLine
 10
927.2701016996889
 20
249.5618798177511
 30
0.0
 11
927.2701016996889
 21
254.8118797469706
 31
0.0
  0
LINE
  5
41E
330
1F
100
AcDbEntity
  8
0
100
AcDbLine
 10
927.2701016996889
 20
244.3118798885316
 30
0.0
 11
927.2701016996889
 21
249.5618798177511
 31
0.0
  0
LINE
  5
41F
330
1F
100
AcDbEntity
  8
0
100
AcDbLine
 10
927.2701016996889
 20
169.5618816058905
 30
0.0
 11
927.2701016996889
 21
174.8118810694487
 31
0.0
  0
LINE
  5
420
330
1F
100
AcDbEntity
  8
0
100
AcDbLine
 10
927.2701016996889
 20
164.3118821423323
 30
0.0
 11
927.2701016996889
 21
169.5618816058905
 31
0.0
  0
LINE
  5
421
330
1F
100
AcDbEntity
  8
0
100
AcDbLine
 10
927.2701016996889
 20
329.5618780296118
 30
0.0
 11
927.2701016996889
 21
334.81187749317
 31
0.0
  0
LINE
  5
422
330
1F
100
AcDbEntity
  8
0
100
AcDbLine
 10
927.2701016996889
 20
324.3118785660536
 30
0.0
 11
927.2701016996889
 21
329.5618780296118
 31
0.0
  0
LINE
  5
423
330
1F
100
AcDbEntity
  8
0
100
AcDbLine
 10
938.6701014262526
 20
158.0618806522162
 30
0.0
 11
940.6701012884168
 21
158.0618806522162
 31
0.0
  0
LINE
  5
424
330
1F
100
AcDbEntity
  8
0
100
AcDbLine
 10
940.6701012884168
 20
158.0618806522162
 30
0.0
 11
940.6701012884168
 21
160.0618772547514
 31
0.0
  0
LINE
  5
425
330
1F
100
AcDbEntity
  8
0
100
AcDbLine
 10
938.6701014262526
 20
160.0618772547514
 30
0.0
 11
938.6701014262526
 21
158.0618806522162
 31
0.0
  0
LINE
  5
426
330
1F
100
AcDbEntity
  8
0
100
AcDbLine
 10
940.6701012884168
 20
168.5618795793326
 30
0.0
 11
940.6701012884168
 21
160.0618772547514
 31
0.0
  0
LINE
  5
427
330
1F
100
AcDbEntity
  8
0
100
AcDbLine
 10
938.6701014262526
 20
168.5618795793326
 30
0.0
 11
938.6701014262526
 21
160.0618772547514
 31
0.0
  0
LINE
  5
428
330
1F
100
AcDbEntity
  8
0
100
AcDbLine
 10
940.6701012884168
 20
168.5618795793326
 30
0.0
 11
940.6701012884168
 21
170.5618761818678
 31
0.0
  0
LINE
  5
429
330
1F
100
AcDbEntity
  8
0
100
AcDbLine
 10
938.6701014262526
 20
170.5618761818678
 30
0.0
 11
938.6701014262526
 21
168.5618795793326
 31
0.0
  0
LINE
  5
42A
330
1F
100
AcDbEntity
  8
0
100
AcDbLine
 10
940.6701012884168
 20
328.5618834536344
 30
0.0
 11
940.6701012884168
 21
330.5618800561697
 31
0.0
  0
LINE
  5
42B
330
1F
100
AcDbEntity
  8
0
100
AcDbLine
 10
938.6701014262526
 20
330.5618800561697
 30
0.0
 11
938.6701014262526
 21
328.5618834536344
 31
0.0
  0
LINE
  5
42C
330
1F
100
AcDbEntity
  8
0
100
AcDbLine
 10
940.6701012884168
 20
339.0618823807508
 30
0.0
 11
940.6701012884168
 21
330.5618800561697
 31
0.0
  0
LINE
  5
42D
330
1F
100
AcDbEntity
  8
0
100
AcDbLine
 10
938.6701014262526
 20
339.0618823807508
 30
0.0
 11
938.6701014262526
 21
330.5618800561697
 31
0.0
  0
LINE
  5
42E
330
1F
100
AcDbEntity
  8
0
100
AcDbLine
 10
940.6701012884168
 20
341.0618789832861
 30
0.0
 11
938.6701014262526
 21
341.0618789832861
 31
0.0
  0
LINE
  5
42F
330
1F
100
AcDbEntity
  8
0
100
AcDbLine
 10
940.6701012884168
 20
339.0618823807508
 30
0.0
 11
940.6701012884168
 21
341.0618789832861
 31
0.0
  0
LINE
  5
430
330
1F
100
AcDbEntity
  8
0
100
AcDbLine
 10
938.6701014262526
 20
341.0618789832861
 30
0.0
 11
938.6701014262526
 21
339.0618823807508
 31
0.0
  0
LINE
  5
431
330
1F
100
AcDbEntity
  8
0
100
AcDbLine
 10
940.6701012884168
 20
158.0618806522162
 30
0.0
 11
941.0701015402465
 21
158.0618806522162
 31
0.0
  0
LINE
  5
432
330
1F
100
AcDbEntity
  8
0
100
AcDbLine
 10
941.0701015402465
 20
341.0618789832861
 30
0.0
 11
940.6701012884168
 21
341.0618789832861
 31
0.0
  0
LINE
  5
433
330
1F
100
AcDbEntity
  8
0
100
AcDbLine
 10
928.8701008443622
 20
328.5618834536344
 30
0.0
 11
928.8701008443622
 21
170.5618761818678
 31
0.0
  0
LINE
  5
434
330
1F
100
AcDbEntity
  8
0
100
AcDbLine
 10
941.0701015402465
 20
170.5618761818678
 30
0.0
 11
941.0701015402465
 21
159.0618826787741
 31
0.0
  0
LINE
  5
435
330
1F
100
AcDbEntity
  8
0
100
AcDbLine
 10
941.0701015402465
 20
340.0618769567282
 30
0.0
 11
941.0701015402465
 21
328.5618834536344
 31
0.0
  0
LINE
  5
436
330
1F
100
AcDbEntity
  8
0
100
AcDbLine
 10
932.5701010783105
 20
232.5618788938791
 30
0.0
 11
932.5701010783105
 21
266.5618807416231
 31
0.0
  0
ARC
  5
437
330
1F
100
AcDbEntity
  8
0
100
AcDbCircle
 10
935.5701014284878
 20
266.5618798177512
 30
0.0
 40
3.0
100
AcDbArc
 50
90.0
 51
180.0
  0
LINE
  5
438
330
1F
100
AcDbEntity
  8
0
100
AcDbLine
 10
935.5701015700488
 20
269.5618793707163
 30
0.0
 11
939.5701012943773
 21
269.5618793707163
 31
0.0
  0
ARC
  5
439
330
1F
100
AcDbEntity
  8
0
100
AcDbCircle
 10
939.5701014284878
 20
266.5618798177512
 30
0.0
 40
3.0
100
AcDbArc
 50
0.0
 51
90.0
  0
LINE
  5
43A
330
1F
100
AcDbEntity
  8
0
100
AcDbLine
 10
942.5701013204543
 20
266.5618807416231
 30
0.0
 11
942.5701013204543
 21
232.5618788938791
 31
0.0
  0
ARC
  5
43B
330
1F
100
AcDbEntity
  8
0
100
AcDbCircle
 10
939.5701014284878
 20
232.5618798177511
 30
0.0
 40
3.0
100
AcDbArc
 50
270.0
 51
0.0
  0
LINE
  5
43C
330
1F
100
AcDbEntity
  8
0
100
AcDbLine
 10
939.5701012943773
 20
229.561880264786
 30
0.0
 11
935.5701015700488
 21
229.561880264786
 31
0.0
  0
ARC
  5
43D
330
1F
100
AcDbEntity
  8
0
100
AcDbCircle
 10
935.5701014284878
 20
232.5618798177511
 30
0.0
 40
3.0
100
AcDbArc
 50
180.0
 51
270.0
  0
LINE
  5
43E
330
1F
100
AcDbEntity
  8
0
100
AcDbLine
 10
928.8701008443622
 20
170.5618761818678
 30
0.0
 11
941.0701015402465
 21
170.5618761818678
 31
0.0
  0
LINE
  5
43F
330
1F
100
AcDbEntity
  8
0
100
AcDbLine
 10
928.8701008443622
 20
328.5618834536344
 30
0.0
 11
941.0701015402465
 21
328.5618834536344
 31
0.0
  0
LINE
  5
440
330
1F
100
AcDbEntity
  8
0
100
AcDbLine
 10
941.0701015402465
 20
157.0618786256582
 30
0.0
 11
950.1701014486043
 21
157.0618786256582
 31
0.0
  0
LINE
  5
441
330
1F
100
AcDbEntity
  8
0
100
AcDbLine
 10
941.0701015402465
 20
159.0618826787741
 30
0.0
 11
941.0701015402465
 21
157.0618786256582
 31
0.0
  0
LINE
  5
442
330
1F
100
AcDbEntity
  8
0
100
AcDbLine
 10
950.1701014486043
 20
342.061881009844
 30
0.0
 11
941.0701015402465
 21
342.061881009844
 31
0.0
  0
LINE
  5
443
330
1F
100
AcDbEntity
  8
0
100
AcDbLine
 10
941.0701015402465
 20
342.061881009844
 30
0.0
 11
941.0701015402465
 21
340.0618769567282
 31
0.0
  0
LINE
  5
444
330
1F
100
AcDbEntity
  8
0
100
AcDbLine
 10
951.6701012288122
 20
159.0618826787741
 30
0.0
 11
951.6701012288122
 21
340.0618769567282
 31
0.0
  0
LINE
  5
445
330
1F
100
AcDbEntity
  8
0
100
AcDbLine
 10
951.6701012288122
 20
340.5618779700071
 30
0.0
 11
951.6701012288122
 21
340.0618769567282
 31
0.0
  0
ARC
  5
446
330
1F
100
AcDbEntity
  8
0
100
AcDbCircle
 10
950.1701014284878
 20
340.5618798177511
 30
0.0
 40
1.500000000000057
100
AcDbArc
 50
0.0
 51
90.0
  0
ARC
  5
447
330
1F
100
AcDbEntity
  8
0
100
AcDbCircle
 10
950.1701014284878
 20
158.5618798177511
 30
0.0
 40
1.5
100
AcDbArc
 50
269.9999999999956
 51
0.0
  0
LINE
  5
448
330
1F
100
AcDbEntity
  8
0
100
AcDbLine
 10
951.6701012288122
 20
159.0618826787741
 30
0.0
 11
951.6701012288122
 21
158.5618816654951
 31
0.0
  0
ARC
  5
449
330
1F
100
AcDbEntity
  8
0
100
AcDbCircle
 10
921.2701014284878
 20
340.5618798177511
 30
0.0
 40
1.5
100
AcDbArc
 50
90.0
 51
180.0
  0
LINE
  5
44A
330
1F
100
AcDbEntity
  8
0
100
AcDbLine
 10
919.7701014016657
 20
340.5618779700071
 30
0.0
 11
919.7701014016657
 21
340.0618769567282
 31
0.0
  0
LINE
  5
44B
330
1F
100
AcDbEntity
  8
0
100
AcDbLine
 10
919.7701014016657
 20
340.0618769567282
 30
0.0
 11
919.7701014016657
 21
159.0618826787741
 31
0.0
  0
LINE
  5
44C
330
1F
100
AcDbEntity
  8
0
100
AcDbLine
 10
926.2701015357761
 20
342.061881009844
 30
0.0
 11
921.2701007162123
 21
342.061881009844
 31
0.0
  0
LINE
  5
44D
330
1F
100
AcDbEntity
  8
0
100
AcDbLine
 10
926.7701006864099
 20
340.0618769567282
 30
0.0
 11
926.7701006864099
 21
341.561879996565
 31
0.0
  0
ARC
  5
44E
330
1F
100
AcDbEntity
  8
0
100
AcDbCircle
 10
926.2701014284878
 20
341.5618798177511
 30
0.0
 40
0.5
100
AcDbArc
 50
0.0
 51
90.0
  0
LINE
  5
44F
330
1F
100
AcDbEntity
  8
0
100
AcDbLine
 10
926.7701006864099
 20
159.0618826787741
 30
0.0
 11
926.7701006864099
 21
340.0618769567282
 31
0.0
  0
LINE
  5
450
330
1F
100
AcDbEntity
  8
0
100
AcDbLine
 10
919.7701014016657
 20
159.0618826787741
 30
0.0
 11
919.7701014016657
 21
158.5618816654951
 31
0.0
  0
ARC
  5
451
330
1F
100
AcDbEntity
  8
0
100
AcDbCircle
 10
921.2701014284878
 20
158.561879817751
 30
0.0
 40
1.5
100
AcDbArc
 50
180.0
 51
269.9999999999956
  0
LINE
  5
452
330
1F
100
AcDbEntity
  8
0
100
AcDbLine
 10
921.2701007162123
 20
157.0618786256582
 30
0.0
 11
926.2701015357761
 21
157.0618786256582
 31
0.0
  0
ARC
  5
453
330
1F
100
AcDbEntity
  8
0
100
AcDbCircle
 10
926.2701014284878
 20
157.561879817751
 30
0.0
 40
0.5
100
AcDbArc
 50
270.0
 51
0.0
  0
LINE
  5
454
330
1F
100
AcDbEntity
  8
0
100
AcDbLine
 10
926.7701006864099
 20
157.5618796389372
 30
0.0
 11
926.7701006864099
 21
159.0618826787741
 31
0.0
  0
SPLINE
  5
455
330
1F
100
AcDbEntity
  8
0
100
AcDbSpline
210
0.0
220
0.0
230
1.0
 70
    24
 71
     3
 72
    11
 73
     7
 74
     0
 42
0.000000001
 43
0.00000001
 40
0.0
 40
0.0
 40
0.0
 40
0.0
 40
0.1555536214784914
 40
0.5717076423021508
 40
0.9940219346392383
 40
1.0
 40
1.0
 40
1.0
 40
1.0
 10
926.7701006864099
 20
342.061881009844
 30
0.0
 10
926.7653616119092
 20
342.061881009844
 30
0.0
 10
926.7479440482177
 20
342.061881009844
 30
0.0
 10
926.569658943904
 20
342.061881009844
 30
0.0
 10
926.3728540637308
 20
342.061881009844
 30
0.0
 10
926.2715160031114
 20
342.061881009844
 30
0.0
 10
926.2701015357761
 20
342.061881009844
 30
0.0
  0
LINE
  5
456
330
1F
100
AcDbEntity
  8
0
100
AcDbLine
 10
926.7701006864099
 20
341.561879996565
 30
0.0
 11
926.7701006864099
 21
342.061881009844
 31
0.0
  0
SPLINE
  5
457
330
1F
100
AcDbEntity
  8
0
100
AcDbSpline
210
0.0
220
0.0
230
1.0
 70
    24
 71
     3
 72
    11
 73
     7
 74
     0
 42
0.000000001
 43
0.00000001
 40
0.0
 40
0.0
 40
0.0
 40
0.0
 40
0.0059798360250515
 40
0.4517707800852256
 40
0.9180858010899049
 40
1.0
 40
1.0
 40
1.0
 40
1.0
 10
926.2701015357761
 20
157.0618786256582
 30
0.0
 10
926.2715159790473
 20
157.0618786256582
 30
0.0
 10
926.3783757888037
 20
157.0618786256577
 30
0.0
 10
926.5929355493568
 20
157.0618786256586
 30
0.0
 10
926.7594166689094
 20
157.0618786256581
 30
0.0
 10
926.7687118395086
 20
157.0618786256582
 30
0.0
 10
926.7701006864099
 20
157.0618786256582
 30
0.0
  0
LINE
  5
458
330
1F
100
AcDbEntity
  8
0
100
AcDbLine
 10
926.7701006864099
 20
157.0618786256582
 30
0.0
 11
926.7701006864099
 21
157.5618796389372
 31
0.0
  0
LINE
  5
459
330
1F
100
AcDbEntity
  8
0
100
AcDbLine
 10
928.7701010142355
 20
157.0618786256582
 30
0.0
 11
928.7701010142355
 21
342.061881009844
 31
0.0
  0
LINE
  5
45A
330
1F
100
AcDbEntity
  8
0
100
AcDbLine
 10
926.7701006864099
 20
157.0618786256582
 30
0.0
 11
928.7701010142355
 21
157.0618786256582
 31
0.0
  0
LINE
  5
45B
330
1F
100
AcDbEntity
  8
0
100
AcDbLine
 10
926.7701006864099
 20
342.061881009844
 30
0.0
 11
928.7701010142355
 21
342.061881009844
 31
0.0
  0
LINE
  5
45C
330
1F
100
AcDbEntity
  8
0
  6
Continuous
 62
     8
370
     0
100
AcDbLine
 10
940.6701012884168
 20
160.0618772547514
 30
0.0
 11
938.6701014262526
 21
160.0618772547514
 31
0.0
  0
LINE
  5
45D
330
1F
100
AcDbEntity
  8
0
  6
Continuous
 62
     8
370
     0
100
AcDbLine
 10
938.6701014262526
 20
168.5618795793326
 30
0.0
 11
940.6701012884168
 21
168.5618795793326
 31
0.0
  0
LINE
  5
45E
330
1F
100
AcDbEntity
  8
0
  6
Continuous
 62
     8
370
     0
100
AcDbLine
 10
940.6701012884168
 20
330.5618800561697
 30
0.0
 11
938.6701014262526
 21
330.5618800561697
 31
0.0
  0
LINE
  5
45F
330
1F
100
AcDbEntity
  8
0
  6
Continuous
 62
     8
370
     0
100
AcDbLine
 10
938.6701014262526
 20
339.0618823807508
 30
0.0
 11
940.6701012884168
 21
339.0618823807508
 31
0.0
  0
LINE
  5
460
330
1F
100
AcDbEntity
  8
0
  6
Continuous
 62
     8
370
     0
100
AcDbLine
 10
941.0701015402465
 20
160.0618772547514
 30
0.0
 11
940.6701012884168
 21
160.0618772547514
 31
0.0
  0
LINE
  5
461
330
1F
100
AcDbEntity
  8
0
  6
Continuous
 62
     8
370
     0
100
AcDbLine
 10
940.6701012884168
 20
168.5618795793326
 30
0.0
 11
941.0701015402465
 21
168.5618795793326
 31
0.0
  0
LINE
  5
462
330
1F
100
AcDbEntity
  8
0
  6
Continuous
 62
     8
370
     0
100
AcDbLine
 10
941.0701015402465
 20
330.5618800561697
 30
0.0
 11
940.6701012884168
 21
330.5618800561697
 31
0.0
  0
LINE
  5
463
330
1F
100
AcDbEntity
  8
0
  6
Continuous
 62
     8
370
     0
100
AcDbLine
 10
940.6701012884168
 20
339.0618823807508
 30
0.0
 11
941.0701015402465
 21
339.0618823807508
 31
0.0
  0
LINE
  5
464
330
1F
100
AcDbEntity
  8
0
  6
Continuous
 62
     8
370
     0
100
AcDbLine
 10
950.1701014486043
 20
159.0618826787741
 30
0.0
 11
941.0701015402465
 21
159.0618826787741
 31
0.0
  0
LINE
  5
465
330
1F
100
AcDbEntity
  8
0
  6
Continuous
 62
     8
370
     0
100
AcDbLine
 10
950.1701014486043
 20
340.0618769567282
 30
0.0
 11
950.1701014486043
 21
159.0618826787741
 31
0.0
  0
LINE
  5
466
330
1F
100
AcDbEntity
  8
0
  6
Continuous
 62
     8
370
     0
100
AcDbLine
 10
941.0701015402465
 20
340.0618769567282
 30
0.0
 11
950.1701014486043
 21
340.0618769567282
 31
0.0
  0
LINE
  5
467
330
1F
100
AcDbEntity
  8
0
  6
Continuous
 62
     8
370
     0
100
AcDbLine
 10
950.1701014486043
 20
157.0618786256582
 30
0.0
 11
950.1701014486043
 21
159.0618826787741
 31
0.0
  0
LINE
  5
468
330
1F
100
AcDbEntity
  8
0
  6
Continuous
 62
     8
370
     0
100
AcDbLine
 10
950.1701014486043
 20
340.0618769567282
 30
0.0
 11
950.1701014486043
 21
342.061881009844
 31
0.0
  0
LINE
  5
469
330
1F
100
AcDbEntity
  8
0
  6
Continuous
 62
     8
370
     0
100
AcDbLine
 10
951.6701012288122
 20
159.0618826787741
 30
0.0
 11
950.1701014486043
 21
159.0618826787741
 31
0.0
  0
LINE
  5
46A
330
1F
100
AcDbEntity
  8
0
  6
Continuous
 62
     8
370
     0
100
AcDbLine
 10
950.1701014486043
 20
340.0618769567282
 30
0.0
 11
951.6701012288122
 21
340.0618769567282
 31
0.0
  0
LINE
  5
46B
330
1F
100
AcDbEntity
  8
0
  6
Continuous
 62
     8
370
     0
100
AcDbLine
 10
921.2701007162123
 20
340.0618769567282
 30
0.0
 11
921.2701007162123
 21
342.061881009844
 31
0.0
  0
LINE
  5
46C
330
1F
100
AcDbEntity
  8
0
  6
Continuous
 62
     8
370
     0
100
AcDbLine
 10
921.2701007162123
 20
340.0618769567282
 30
0.0
 11
919.7701014016657
 21
340.0618769567282
 31
0.0
  0
LINE
  5
46D
330
1F
100
AcDbEntity
  8
0
  6
Continuous
 62
     8
370
     0
100
AcDbLine
 10
921.2701007162123
 20
159.0618826787741
 30
0.0
 11
921.2701007162123
 21
340.0618769567282
 31
0.0
  0
LINE
  5
46E
330
1F
100
AcDbEntity
  8
0
  6
Continuous
 62
     8
370
     0
100
AcDbLine
 10
921.2701007162123
 20
159.0618826787741
 30
0.0
 11
919.7701014016657
 21
159.0618826787741
 31
0.0
  0
LINE
  5
46F
330
1F
100
AcDbEntity
  8
0
  6
Continuous
 62
     8
370
     0
100
AcDbLine
 10
926.2701015357761
 20
342.061881009844
 30
0.0
 11
926.2701015357761
 21
340.0618769567282
 31
0.0
  0
LINE
  5
470
330
1F
100
AcDbEntity
  8
0
  6
Continuous
 62
     8
370
     0
100
AcDbLine
 10
921.2701007162123
 20
340.0618769567282
 30
0.0
 11
926.2701015357761
 21
340.0618769567282
 31
0.0
  0
LINE
  5
471
330
1F
100
AcDbEntity
  8
0
  6
Continuous
 62
     8
370
     0
100
AcDbLine
 10
926.2701015357761
 20
340.0618769567282
 30
0.0
 11
926.2701015357761
 21
159.0618826787741
 31
0.0
  0
LINE
  5
472
330
1F
100
AcDbEntity
  8
0
  6
Continuous
 62
     8
370
     0
100
AcDbLine
 10
926.2701015357761
 20
159.0618826787741
 30
0.0
 11
921.2701007162123
 21
159.0618826787741
 31
0.0
  0
LINE
  5
473
330
1F
100
AcDbEntity
  8
0
  6
Continuous
 62
     8
370
     0
100
AcDbLine
 10
926.2701015357761
 20
340.0618769567282
 30
0.0
 11
926.7701006864099
 21
340.0618769567282
 31
0.0
  0
LINE
  5
474
330
1F
100
AcDbEntity
  8
0
  6
Continuous
 62
     8
370
     0
100
AcDbLine
 10
926.2701015357761
 20
159.0618826787741
 30
0.0
 11
926.7701006864099
 21
159.0618826787741
 31
0.0
  0
LINE
  5
475
330
1F
100
AcDbEntity
  8
0
  6
Continuous
 62
     8
370
     0
100
AcDbLine
 10
921.2701007162123
 20
157.0618786256582
 30
0.0
 11
921.2701007162123
 21
159.0618826787741
 31
0.0
  0
LINE
  5
476
330
1F
100
AcDbEntity
  8
0
  6
Continuous
 62
     8
370
     0
100
AcDbLine
 10
926.2701015357761
 20
159.0618826787741
 30
0.0
 11
926.2701015357761
 21
157.0618786256582
 31
0.0
  0
LINE
  5
477
330
1F
100
AcDbEntity
  8
0
100
AcDbLine
 10
776.2285448666096
 20
400.2500516552213
 30
0.0
 11
776.2285448666096
 21
399.7500506419423
 31
0.0
  0
LINE
  5
478
330
1F
100
AcDbEntity
  8
0
100
AcDbLine
 10
765.7285459394932
 20
399.7500506419423
 30
0.0
 11
765.7285459394932
 21
400.2500516552213
 31
0.0
  0
LINE
  5
479
330
1F
100
AcDbEntity
  8
0
100
AcDbLine
 10
785.4785449858189
 20
401.7500509697679
 30
0.0
 11
785.4785449858189
 21
402.8500509638074
 31
0.0
  0
LINE
  5
47A
330
1F
100
AcDbEntity
  8
0
100
AcDbLine
 10
791.4785441066504
 20
402.8500509638074
 30
0.0
 11
791.4785441066504
 21
401.7500509697679
 31
0.0
  0
LINE
  5
47B
330
1F
100
AcDbEntity
  8
0
100
AcDbLine
 10
805.4785443059534
 20
401.7500509697679
 30
0.0
 11
805.4785443059534
 21
402.8500509638074
 31
0.0
  0
LINE
  5
47C
330
1F
100
AcDbEntity
  8
0
100
AcDbLine
 10
811.4785445909381
 20
402.8500509638074
 30
0.0
 11
811.4785445909381
 21
401.7500509697679
 31
0.0
  0
LINE
  5
47D
330
1F
100
AcDbEntity
  8
0
100
AcDbLine
 10
776.2285448666096
 20
400.2500516552213
 30
0.0
 11
765.7285459394932
 21
400.2500516552213
 31
0.0
  0
CIRCLE
  5
47E
330
1F
100
AcDbEntity
  8
0
100
AcDbCircle
 10
803.4785442109587
 20
398.2500513840201
 30
0.0
 40
1.499999999999999
  0
LINE
  5
47F
330
1F
100
AcDbEntity
  8
0
100
AcDbLine
 10
802.3378590410009
 20
398.0706897753957
 30
0.0
 11
802.7528695933886
 21
399.148231856871
 31
0.0
  0
LINE
  5
480
330
1F
100
AcDbEntity
  8
0
100
AcDbLine
 10
802.7528695933886
 20
399.148231856871
 30
0.0
 11
803.8935547051385
 21
399.3275952715161
 31
0.0
  0
LINE
  5
481
330
1F
100
AcDbEntity
  8
0
100
AcDbLine
 10
803.8935547051385
 20
399.3275952715161
 30
0.0
 11
804.6192293809161
 21
398.4294128793958
 31
0.0
  0
LINE
  5
482
330
1F
100
AcDbEntity
  8
0
100
AcDbLine
 10
804.6192293809161
 20
398.4294128793958
 30
0.0
 11
804.2042188285284
 21
397.3518707979205
 31
0.0
  0
LINE
  5
483
330
1F
100
AcDbEntity
  8
0
100
AcDbLine
 10
803.0635337167785
 20
397.1725073832753
 30
0.0
 11
802.3378590410009
 21
398.0706897753957
 31
0.0
  0
LINE
  5
484
330
1F
100
AcDbEntity
  8
0
100
AcDbLine
 10
804.2042188285284
 20
397.3518707979205
 30
0.0
 11
803.0635337167785
 21
397.1725073832753
 31
0.0
  0
LINE
  5
485
330
1F
100
AcDbEntity
  8
0
100
AcDbLine
 10
782.4785444940806
 20
413.6500512439492
 30
0.0
 11
823.4785437639237
 21
413.6500512439492
 31
0.0
  0
LINE
  5
486
330
1F
100
AcDbEntity
  8
0
100
AcDbLine
 10
782.4785444940806
 20
411.650051381785
 30
0.0
 11
823.4785437639237
 21
411.650051381785
 31
0.0
  0
LINE
  5
487
330
1F
100
AcDbEntity
  8
0
100
AcDbLine
 10
827.4785444195747
 20
411.650051381785
 30
0.0
 11
827.4785444195747
 21
413.6500512439492
 31
0.0
  0
LINE
  5
488
330
1F
100
AcDbEntity
  8
0
100
AcDbLine
 10
827.4785444195747
 20
413.6500512439492
 30
0.0
 11
823.4785437639237
 21
413.6500512439492
 31
0.0
  0
LINE
  5
489
330
1F
100
AcDbEntity
  8
0
100
AcDbLine
 10
823.4785437639237
 20
411.650051381785
 30
0.0
 11
827.4785444195747
 21
411.650051381785
 31
0.0
  0
LINE
  5
48A
330
1F
100
AcDbEntity
  8
0
100
AcDbLine
 10
780.478544166255
 20
413.6500512439492
 30
0.0
 11
780.478544166255
 21
411.650051381785
 31
0.0
  0
LINE
  5
48B
330
1F
100
AcDbEntity
  8
0
100
AcDbLine
 10
782.4785444940806
 20
413.6500512439492
 30
0.0
 11
780.478544166255
 21
413.6500512439492
 31
0.0
  0
LINE
  5
48C
330
1F
100
AcDbEntity
  8
0
100
AcDbLine
 10
780.478544166255
 20
411.650051381785
 30
0.0
 11
782.4785444940806
 21
411.650051381785
 31
0.0
  0
LINE
  5
48D
330
1F
100
AcDbEntity
  8
0
100
AcDbLine
 10
827.4785444195747
 20
413.6500512439492
 30
0.0
 11
827.4785444195747
 21
414.0500514957789
 31
0.0
  0
LINE
  5
48E
330
1F
100
AcDbEntity
  8
0
100
AcDbLine
 10
780.478544166255
 20
414.0500514957789
 30
0.0
 11
780.478544166255
 21
413.6500512439492
 31
0.0
  0
LINE
  5
48F
330
1F
100
AcDbEntity
  8
0
100
AcDbLine
 10
828.4785445834875
 20
414.0500514957789
 30
0.0
 11
828.4785445834875
 21
423.1500514041367
 31
0.0
  0
LINE
  5
490
330
1F
100
AcDbEntity
  8
0
100
AcDbLine
 10
826.478544255662
 20
414.0500514957789
 30
0.0
 11
828.4785445834875
 21
414.0500514957789
 31
0.0
  0
LINE
  5
491
330
1F
100
AcDbEntity
  8
0
100
AcDbLine
 10
778.4785438384295
 20
423.1500514041367
 30
0.0
 11
778.4785438384295
 21
414.0500514957789
 31
0.0
  0
LINE
  5
492
330
1F
100
AcDbEntity
  8
0
100
AcDbLine
 10
778.4785438384295
 20
414.0500514957789
 30
0.0
 11
780.478544166255
 21
414.0500514957789
 31
0.0
  0
LINE
  5
493
330
1F
100
AcDbEntity
  8
0
100
AcDbLine
 10
780.478544166255
 20
414.0500514957789
 30
0.0
 11
826.478544255662
 21
414.0500514957789
 31
0.0
  0
LINE
  5
494
330
1F
100
AcDbEntity
  8
0
100
AcDbLine
 10
826.478544255662
 20
424.6500511843446
 30
0.0
 11
780.478544166255
 21
424.6500511843446
 31
0.0
  0
ARC
  5
495
330
1F
100
AcDbEntity
  8
0
100
AcDbCircle
 10
826.9785442109585
 20
423.1500513840202
 30
0.0
 40
1.5
100
AcDbArc
 50
0.0
 51
90.0
  0
LINE
  5
496
330
1F
100
AcDbEntity
  8
0
100
AcDbLine
 10
826.478544255662
 20
424.6500511843446
 30
0.0
 11
826.9785434062958
 21
424.6500511843446
 31
0.0
  0
LINE
  5
497
330
1F
100
AcDbEntity
  8
0
100
AcDbLine
 10
779.9785450156212
 20
424.6500511843446
 30
0.0
 11
780.478544166255
 21
424.6500511843446
 31
0.0
  0
ARC
  5
498
330
1F
100
AcDbEntity
  8
0
100
AcDbCircle
 10
779.9785442109585
 20
423.1500513840202
 30
0.0
 40
1.5
100
AcDbArc
 50
90.0
 51
180.0
  0
LINE
  5
499
330
1F
100
AcDbEntity
  8
0
100
AcDbLine
 10
778.4785438384295
 20
401.8500507998946
 30
0.0
 11
780.478544166255
 21
401.8500507998946
 31
0.0
  0
LINE
  5
49A
330
1F
100
AcDbEntity
  8
0
100
AcDbLine
 10
780.478544166255
 20
402.8500509638074
 30
0.0
 11
780.478544166255
 21
401.8500507998946
 31
0.0
  0
LINE
  5
49B
330
1F
100
AcDbEntity
  8
0
100
AcDbLine
 10
780.478544166255
 20
402.8500509638074
 30
0.0
 11
810.9785440433204
 21
402.8500509638074
 31
0.0
  0
LINE
  5
49C
330
1F
100
AcDbEntity
  8
0
100
AcDbLine
 10
778.4785438384295
 20
401.8500507998946
 30
0.0
 11
778.4785438384295
 21
414.0500514957789
 31
0.0
  0
LINE
  5
49D
330
1F
100
AcDbEntity
  8
0
100
AcDbLine
 10
818.4785438756824
 20
402.8500509638074
 30
0.0
 11
818.4785438756824
 21
411.650051381785
 31
0.0
  0
LINE
  5
49E
330
1F
100
AcDbEntity
  8
0
100
AcDbLine
 10
810.9785440433204
 20
402.8500509638074
 30
0.0
 11
818.4785438756824
 21
402.8500509638074
 31
0.0
  0
CIRCLE
  5
49F
330
1F
100
AcDbEntity
  8
0
100
AcDbCircle
 10
803.4785442109587
 20
398.2500513840201
 30
0.0
 40
1.649999999999977
  0
LINE
  5
4A0
330
1F
100
AcDbEntity
  8
0
100
AcDbLine
 10
826.478544255662
 20
401.7500509697679
 30
0.0
 11
778.4785438384295
 21
401.7500509697679
 31
0.0
  0
LINE
  5
4A1
330
1F
100
AcDbEntity
  8
0
100
AcDbLine
 10
778.4785438384295
 20
399.7500506419423
 30
0.0
 11
778.4785438384295
 21
401.7500509697679
 31
0.0
  0
LINE
  5
4A2
330
1F
100
AcDbEntity
  8
0
100
AcDbLine
 10
778.4785438384295
 20
399.7500506419423
 30
0.0
 11
777.1579936202049
 21
399.7500506419423
 31
0.0
  0
SPLINE
  5
4A3
330
1F
100
AcDbEntity
  8
0
100
AcDbSpline
210
0.0
220
0.0
230
1.0
 70
     8
 71
     3
 72
    11
 73
     7
 74
     0
 42
0.000000001
 43
0.00000001
 40
0.0
 40
0.0
 40
0.0
 40
0.0
 40
0.0059798360250515
 40
0.4517707800852256
 40
0.9180858010899049
 40
1.0
 40
1.0
 40
1.0
 40
1.0
 10
774.9785441960573
 20
399.2500514913085
 30
0.0
 10
774.982786702191
 20
399.2514659345797
 30
0.0
 10
775.3033039032434
 20
399.3583257443361
 30
0.0
 10
775.9539135327193
 20
399.5728855048891
 30
0.0
 10
776.6866506061116
 20
399.7393666244418
 30
0.0
 10
777.0967223536045
 20
399.7486617950408
 30
0.0
 10
777.1579936202049
 20
399.7500506419423
 30
0.0
  0
LINE
  5
4A4
330
1F
100
AcDbEntity
  8
0
100
AcDbLine
 10
765.4785454328537
 20
392.7500513571981
 30
0.0
 11
826.478544255662
 21
392.7500513571981
 31
0.0
  0
LINE
  5
4A5
330
1F
100
AcDbEntity
  8
0
100
AcDbLine
 10
764.9785444195747
 20
392.7500513571981
 30
0.0
 11
765.4785454328537
 21
392.7500513571981
 31
0.0
  0
ARC
  5
4A6
330
1F
100
AcDbEntity
  8
0
100
AcDbCircle
 10
764.9785442109587
 20
394.2500513840201
 30
0.0
 40
1.500000000000057
100
AcDbArc
 50
180.0
 51
270.0
  0
LINE
  5
4A7
330
1F
100
AcDbEntity
  8
0
100
AcDbLine
 10
763.4785451050282
 20
399.2500514913085
 30
0.0
 11
763.4785451050282
 21
394.2500506717446
 31
0.0
  0
LINE
  5
4A8
330
1F
100
AcDbEntity
  8
0
100
AcDbLine
 10
774.9785441960573
 20
399.7500506419423
 30
0.0
 11
765.4785454328537
 21
399.7500506419423
 31
0.0
  0
ARC
  5
4A9
330
1F
100
AcDbEntity
  8
0
100
AcDbCircle
 10
763.9785442109587
 20
399.2500513840201
 30
0.0
 40
0.5000000000000568
100
AcDbArc
 50
90.0
 51
180.0
  0
LINE
  5
4AA
330
1F
100
AcDbEntity
  8
0
100
AcDbLine
 10
765.4785454328537
 20
399.7500506419423
 30
0.0
 11
763.9785423930168
 21
399.7500506419423
 31
0.0
  0
LINE
  5
4AB
330
1F
100
AcDbEntity
  8
0
100
AcDbLine
 10
826.478544255662
 20
392.7500513571981
 30
0.0
 11
826.9785434062958
 21
392.7500513571981
 31
0.0
  0
ARC
  5
4AC
330
1F
100
AcDbEntity
  8
0
100
AcDbCircle
 10
826.9785442109587
 20
394.2500513840201
 30
0.0
 40
1.5
100
AcDbArc
 50
270.0
 51
0.0
  0
LINE
  5
4AD
330
1F
100
AcDbEntity
  8
0
100
AcDbLine
 10
777.1579936202049
 20
399.7500506419423
 30
0.0
 11
774.9785441960573
 21
399.7500506419423
 31
0.0
  0
LINE
  5
4AE
330
1F
100
AcDbEntity
  8
0
100
AcDbLine
 10
828.4785445834875
 20
394.2500506717446
 30
0.0
 11
828.4785445834875
 21
401.7500509697679
 31
0.0
  0
LINE
  5
4AF
330
1F
100
AcDbEntity
  8
0
100
AcDbLine
 10
828.4785445834875
 20
401.7500509697679
 30
0.0
 11
826.478544255662
 21
401.7500509697679
 31
0.0
  0
LINE
  5
4B0
330
1F
100
AcDbEntity
  8
0
  6
Continuous
 62
     8
370
     0
100
AcDbLine
 10
823.4785437639237
 20
413.6500512439492
 30
0.0
 11
823.4785437639237
 21
411.650051381785
 31
0.0
  0
LINE
  5
4B1
330
1F
100
AcDbEntity
  8
0
  6
Continuous
 62
     8
370
     0
100
AcDbLine
 10
782.4785444940806
 20
411.650051381785
 30
0.0
 11
782.4785444940806
 21
413.6500512439492
 31
0.0
  0
LINE
  5
4B2
330
1F
100
AcDbEntity
  8
0
  6
Continuous
 62
     8
370
     0
100
AcDbLine
 10
823.4785437639237
 20
414.0500514957789
 30
0.0
 11
823.4785437639237
 21
413.6500512439492
 31
0.0
  0
LINE
  5
4B3
330
1F
100
AcDbEntity
  8
0
  6
Continuous
 62
     8
370
     0
100
AcDbLine
 10
782.4785444940806
 20
413.6500512439492
 30
0.0
 11
782.4785444940806
 21
414.0500514957789
 31
0.0
  0
LINE
  5
4B4
330
1F
100
AcDbEntity
  8
0
  6
Continuous
 62
     8
370
     0
100
AcDbLine
 10
828.4785445834875
 20
423.1500514041367
 30
0.0
 11
826.478544255662
 21
423.1500514041367
 31
0.0
  0
LINE
  5
4B5
330
1F
100
AcDbEntity
  8
0
  6
Continuous
 62
     8
370
     0
100
AcDbLine
 10
826.478544255662
 20
423.1500514041367
 30
0.0
 11
826.478544255662
 21
414.0500514957789
 31
0.0
  0
LINE
  5
4B6
330
1F
100
AcDbEntity
  8
0
  6
Continuous
 62
     8
370
     0
100
AcDbLine
 10
780.478544166255
 20
414.0500514957789
 30
0.0
 11
780.478544166255
 21
423.1500514041367
 31
0.0
  0
LINE
  5
4B7
330
1F
100
AcDbEntity
  8
0
  6
Continuous
 62
     8
370
     0
100
AcDbLine
 10
780.478544166255
 20
423.1500514041367
 30
0.0
 11
778.4785438384295
 21
423.1500514041367
 31
0.0
  0
LINE
  5
4B8
330
1F
100
AcDbEntity
  8
0
  6
Continuous
 62
     8
370
     0
100
AcDbLine
 10
780.478544166255
 20
423.1500514041367
 30
0.0
 11
826.478544255662
 21
423.1500514041367
 31
0.0
  0
LINE
  5
4B9
330
1F
100
AcDbEntity
  8
0
  6
Continuous
 62
     8
370
     0
100
AcDbLine
 10
826.478544255662
 20
424.6500511843446
 30
0.0
 11
826.478544255662
 21
423.1500514041367
 31
0.0
  0
LINE
  5
4BA
330
1F
100
AcDbEntity
  8
0
  6
Continuous
 62
     8
370
     0
100
AcDbLine
 10
780.478544166255
 20
423.1500514041367
 30
0.0
 11
780.478544166255
 21
424.6500511843446
 31
0.0
  0
LINE
  5
4BB
330
1F
100
AcDbEntity
  8
0
  6
Continuous
 62
     8
370
     0
100
AcDbLine
 10
810.9785440433204
 20
411.650051381785
 30
0.0
 11
810.9785440433204
 21
402.8500509638074
 31
0.0
  0
LINE
  5
4BC
330
1F
100
AcDbEntity
  8
0
  6
Continuous
 62
     8
370
     0
100
AcDbLine
 10
765.4785454328537
 20
399.2500514913085
 30
0.0
 11
774.9785441960573
 21
399.2500514913085
 31
0.0
  0
LINE
  5
4BD
330
1F
100
AcDbEntity
  8
0
  6
Continuous
 62
     8
370
     0
100
AcDbLine
 10
765.4785454328537
 20
394.2500506717446
 30
0.0
 11
765.4785454328537
 21
399.2500514913085
 31
0.0
  0
LINE
  5
4BE
330
1F
100
AcDbEntity
  8
0
  6
Continuous
 62
     8
370
     0
100
AcDbLine
 10
826.478544255662
 20
394.2500506717446
 30
0.0
 11
765.4785454328537
 21
394.2500506717446
 31
0.0
  0
LINE
  5
4BF
330
1F
100
AcDbEntity
  8
0
  6
Continuous
 62
     8
370
     0
100
AcDbLine
 10
826.478544255662
 20
401.7500509697679
 30
0.0
 11
826.478544255662
 21
394.2500506717446
 31
0.0
  0
LINE
  5
4C0
330
1F
100
AcDbEntity
  8
0
  6
Continuous
 62
     8
370
     0
100
AcDbLine
 10
826.478544255662
 20
392.7500513571981
 30
0.0
 11
826.478544255662
 21
394.2500506717446
 31
0.0
  0
LINE
  5
4C1
330
1F
100
AcDbEntity
  8
0
  6
Continuous
 62
     8
370
     0
100
AcDbLine
 10
765.4785454328537
 20
392.7500513571981
 30
0.0
 11
765.4785454328537
 21
394.2500506717446
 31
0.0
  0
LINE
  5
4C2
330
1F
100
AcDbEntity
  8
0
  6
Continuous
 62
     8
370
     0
100
AcDbLine
 10
765.4785454328537
 20
394.2500506717446
 30
0.0
 11
763.4785451050282
 21
394.2500506717446
 31
0.0
  0
LINE
  5
4C3
330
1F
100
AcDbEntity
  8
0
  6
Continuous
 62
     8
370
     0
100
AcDbLine
 10
763.4785451050282
 20
399.2500514913085
 30
0.0
 11
765.4785454328537
 21
399.2500514913085
 31
0.0
  0
LINE
  5
4C4
330
1F
100
AcDbEntity
  8
0
  6
Continuous
 62
     8
370
     0
100
AcDbLine
 10
774.9785441960573
 20
399.2500514913085
 30
0.0
 11
774.9785441960573
 21
399.7500506419423
 31
0.0
  0
LINE
  5
4C5
330
1F
100
AcDbEntity
  8
0
  6
Continuous
 62
     8
370
     0
100
AcDbLine
 10
765.4785454328537
 20
399.2500514913085
 30
0.0
 11
765.4785454328537
 21
399.7500506419423
 31
0.0
  0
LINE
  5
4C6
330
1F
100
AcDbEntity
  8
0
  6
Continuous
 62
     8
370
     0
100
AcDbLine
 10
828.4785445834875
 20
394.2500506717446
 30
0.0
 11
826.478544255662
 21
394.2500506717446
 31
0.0
  0
LINE
  5
4C7
330
1F
100
AcDbEntity
  8
0
100
AcDbLine
 10
765.7285459394932
 20
92.53838935042552
 30
0.0
 11
765.7285459394932
 21
93.03839036370448
 31
0.0
  0
LINE
  5
4C8
330
1F
100
AcDbEntity
  8
0
100
AcDbLine
 10
776.2285448666096
 20
93.03839036370448
 30
0.0
 11
776.2285448666096
 21
92.53838935042552
 31
0.0
  0
LINE
  5
4C9
330
1F
100
AcDbEntity
  8
0
100
AcDbLine
 10
811.4785445909381
 20
91.03839003587893
 30
0.0
 11
811.4785445909381
 21
89.9383900418394
 31
0.0
  0
LINE
  5
4CA
330
1F
100
AcDbEntity
  8
0
100
AcDbLine
 10
805.4785443059534
 20
89.9383900418394
 30
0.0
 11
805.4785443059534
 21
91.03839003587893
 31
0.0
  0
LINE
  5
4CB
330
1F
100
AcDbEntity
  8
0
100
AcDbLine
 10
791.4785441066504
 20
91.03839003587893
 30
0.0
 11
791.4785441066504
 21
89.9383900418394
 31
0.0
  0
LINE
  5
4CC
330
1F
100
AcDbEntity
  8
0
100
AcDbLine
 10
785.4785449858189
 20
89.9383900418394
 30
0.0
 11
785.4785449858189
 21
91.03839003587893
 31
0.0
  0
LINE
  5
4CD
330
1F
100
AcDbEntity
  8
0
100
AcDbLine
 10
765.7285459394932
 20
92.53838935042552
 30
0.0
 11
776.2285448666096
 21
92.53838935042552
 31
0.0
  0
LINE
  5
4CE
330
1F
100
AcDbEntity
  8
0
100
AcDbLine
 10
782.4785444940806
 20
81.13838962386183
 30
0.0
 11
780.478544166255
 21
81.13838962386183
 31
0.0
  0
LINE
  5
4CF
330
1F
100
AcDbEntity
  8
0
100
AcDbLine
 10
780.478544166255
 20
81.13838962386183
 30
0.0
 11
780.478544166255
 21
79.13838976169757
 31
0.0
  0
LINE
  5
4D0
330
1F
100
AcDbEntity
  8
0
100
AcDbLine
 10
780.478544166255
 20
79.13838976169757
 30
0.0
 11
782.4785444940806
 21
79.13838976169757
 31
0.0
  0
LINE
  5
4D1
330
1F
100
AcDbEntity
  8
0
100
AcDbLine
 10
823.4785437639237
 20
79.13838976169757
 30
0.0
 11
782.4785444940806
 21
79.13838976169757
 31
0.0
  0
LINE
  5
4D2
330
1F
100
AcDbEntity
  8
0
100
AcDbLine
 10
823.4785437639237
 20
81.13838962386183
 30
0.0
 11
782.4785444940806
 21
81.13838962386183
 31
0.0
  0
LINE
  5
4D3
330
1F
100
AcDbEntity
  8
0
100
AcDbLine
 10
827.4785444195747
 20
79.13838976169757
 30
0.0
 11
827.4785444195747
 21
81.13838962386183
 31
0.0
  0
LINE
  5
4D4
330
1F
100
AcDbEntity
  8
0
100
AcDbLine
 10
823.4785437639237
 20
79.13838976169757
 30
0.0
 11
827.4785444195747
 21
79.13838976169757
 31
0.0
  0
LINE
  5
4D5
330
1F
100
AcDbEntity
  8
0
100
AcDbLine
 10
827.4785444195747
 20
81.13838962386183
 30
0.0
 11
823.4785437639237
 21
81.13838962386183
 31
0.0
  0
LINE
  5
4D6
330
1F
100
AcDbEntity
  8
0
100
AcDbLine
 10
780.478544166255
 20
79.13838976169757
 30
0.0
 11
780.478544166255
 21
78.73838950986794
 31
0.0
  0
LINE
  5
4D7
330
1F
100
AcDbEntity
  8
0
100
AcDbLine
 10
827.4785444195747
 20
78.73838950986794
 30
0.0
 11
827.4785444195747
 21
79.13838976169757
 31
0.0
  0
LINE
  5
4D8
330
1F
100
AcDbEntity
  8
0
100
AcDbLine
 10
826.478544255662
 20
78.73838950986794
 30
0.0
 11
780.478544166255
 21
78.73838950986794
 31
0.0
  0
LINE
  5
4D9
330
1F
100
AcDbEntity
  8
0
100
AcDbLine
 10
828.4785445834875
 20
69.63838960151008
 30
0.0
 11
828.4785445834875
 21
78.73838950986794
 31
0.0
  0
LINE
  5
4DA
330
1F
100
AcDbEntity
  8
0
100
AcDbLine
 10
828.4785445834875
 20
78.73838950986794
 30
0.0
 11
826.478544255662
 21
78.73838950986794
 31
0.0
  0
LINE
  5
4DB
330
1F
100
AcDbEntity
  8
0
100
AcDbLine
 10
778.4785438384295
 20
78.73838950986794
 30
0.0
 11
778.4785438384295
 21
69.63838960151008
 31
0.0
  0
LINE
  5
4DC
330
1F
100
AcDbEntity
  8
0
100
AcDbLine
 10
780.478544166255
 20
78.73838950986794
 30
0.0
 11
778.4785438384295
 21
78.73838950986794
 31
0.0
  0
LINE
  5
4DD
330
1F
100
AcDbEntity
  8
0
100
AcDbLine
 10
780.478544166255
 20
68.13838982130221
 30
0.0
 11
826.478544255662
 21
68.13838982130221
 31
0.0
  0
LINE
  5
4DE
330
1F
100
AcDbEntity
  8
0
100
AcDbLine
 10
780.478544166255
 20
68.13838982130221
 30
0.0
 11
779.9785450156212
 21
68.13838982130221
 31
0.0
  0
ARC
  5
4DF
330
1F
100
AcDbEntity
  8
0
100
AcDbCircle
 10
779.9785442109585
 20
69.63838962162663
 30
0.0
 40
1.5
100
AcDbArc
 50
180.0
 51
270.0
  0
LINE
  5
4E0
330
1F
100
AcDbEntity
  8
0
100
AcDbLine
 10
826.9785434062958
 20
68.13838982130221
 30
0.0
 11
826.478544255662
 21
68.13838982130221
 31
0.0
  0
ARC
  5
4E1
330
1F
100
AcDbEntity
  8
0
100
AcDbCircle
 10
826.9785442109585
 20
69.63838962162663
 30
0.0
 40
1.5
100
AcDbArc
 50
270.0
 51
0.0
  0
LINE
  5
4E2
330
1F
100
AcDbEntity
  8
0
100
AcDbLine
 10
810.9785440433204
 20
89.9383900418394
 30
0.0
 11
780.478544166255
 21
89.9383900418394
 31
0.0
  0
LINE
  5
4E3
330
1F
100
AcDbEntity
  8
0
100
AcDbLine
 10
780.478544166255
 20
89.9383900418394
 30
0.0
 11
780.478544166255
 21
90.93839020575217
 31
0.0
  0
LINE
  5
4E4
330
1F
100
AcDbEntity
  8
0
100
AcDbLine
 10
780.478544166255
 20
90.93839020575217
 30
0.0
 11
778.4785438384295
 21
90.93839020575217
 31
0.0
  0
LINE
  5
4E5
330
1F
100
AcDbEntity
  8
0
100
AcDbLine
 10
778.4785438384295
 20
90.93839020575217
 30
0.0
 11
778.4785438384295
 21
78.73838950986794
 31
0.0
  0
LINE
  5
4E6
330
1F
100
AcDbEntity
  8
0
100
AcDbLine
 10
818.4785438756824
 20
81.13838962386183
 30
0.0
 11
818.4785438756824
 21
89.9383900418394
 31
0.0
  0
LINE
  5
4E7
330
1F
100
AcDbEntity
  8
0
100
AcDbLine
 10
818.4785438756824
 20
89.9383900418394
 30
0.0
 11
810.9785440433204
 21
89.9383900418394
 31
0.0
  0
SPLINE
  5
4E8
330
1F
100
AcDbEntity
  8
0
100
AcDbSpline
210
0.0
220
0.0
230
1.0
 70
     8
 71
     3
 72
    11
 73
     7
 74
     0
 42
0.000000001
 43
0.00000001
 40
0.0
 40
0.0
 40
0.0
 40
0.0
 40
0.1555536214784914
 40
0.5717076423021508
 40
0.9940219346392383
 40
1.0
 40
1.0
 40
1.0
 40
1.0
 10
777.1579936202049
 20
93.03839036370448
 30
0.0
 10
777.0416062393183
 20
93.04312943820524
 30
0.0
 10
776.6138466379155
 20
93.06054700189667
 30
0.0
 10
775.8858103941375
 20
93.23883210621047
 30
0.0
 10
775.2867356479303
 20
93.43563698638371
 30
0.0
 10
774.9827866877056
 20
93.536975047003
 30
0.0
 10
774.9785441960573
 20
93.53838951433829
 30
0.0
  0
LINE
  5
4E9
330
1F
100
AcDbEntity
  8
0
100
AcDbLine
 10
778.4785438384295
 20
93.03839036370448
 30
0.0
 11
777.1579936202049
 21
93.03839036370448
 31
0.0
  0
LINE
  5
4EA
330
1F
100
AcDbEntity
  8
0
100
AcDbLine
 10
778.4785438384295
 20
93.03839036370448
 30
0.0
 11
778.4785438384295
 21
91.03839003587893
 31
0.0
  0
LINE
  5
4EB
330
1F
100
AcDbEntity
  8
0
100
AcDbLine
 10
778.4785438384295
 20
91.03839003587893
 30
0.0
 11
826.478544255662
 21
91.03839003587893
 31
0.0
  0
LINE
  5
4EC
330
1F
100
AcDbEntity
  8
0
100
AcDbLine
 10
826.9785434062958
 20
100.0383896484487
 30
0.0
 11
826.478544255662
 21
100.0383896484487
 31
0.0
  0
ARC
  5
4ED
330
1F
100
AcDbEntity
  8
0
100
AcDbCircle
 10
826.9785442109585
 20
98.53838962162664
 30
0.0
 40
1.5
100
AcDbArc
 50
0.0
 51
90.0
  0
LINE
  5
4EE
330
1F
100
AcDbEntity
  8
0
100
AcDbLine
 10
826.478544255662
 20
100.0383896484487
 30
0.0
 11
765.4785454328537
 21
100.0383896484487
 31
0.0
  0
LINE
  5
4EF
330
1F
100
AcDbEntity
  8
0
100
AcDbLine
 10
826.478544255662
 20
91.03839003587893
 30
0.0
 11
828.4785445834875
 21
91.03839003587893
 31
0.0
  0
LINE
  5
4F0
330
1F
100
AcDbEntity
  8
0
100
AcDbLine
 10
828.4785445834875
 20
91.03839003587893
 30
0.0
 11
828.4785445834875
 21
98.53839033390216
 31
0.0
  0
LINE
  5
4F1
330
1F
100
AcDbEntity
  8
0
100
AcDbLine
 10
765.4785454328537
 20
100.0383896484487
 30
0.0
 11
764.9785444195747
 21
100.0383896484487
 31
0.0
  0
ARC
  5
4F2
330
1F
100
AcDbEntity
  8
0
100
AcDbCircle
 10
764.9785442109585
 20
98.53838962162664
 30
0.0
 40
1.5
100
AcDbArc
 50
90.0
 51
180.0
  0
LINE
  5
4F3
330
1F
100
AcDbEntity
  8
0
100
AcDbLine
 10
765.4785454328537
 20
93.03839036370448
 30
0.0
 11
774.9785441960573
 21
93.03839036370448
 31
0.0
  0
LINE
  5
4F4
330
1F
100
AcDbEntity
  8
0
100
AcDbLine
 10
763.4785451050282
 20
98.53839033390216
 30
0.0
 11
763.4785451050282
 21
93.53838951433829
 31
0.0
  0
LINE
  5
4F5
330
1F
100
AcDbEntity
  8
0
100
AcDbLine
 10
774.9785441960573
 20
93.03839036370448
 30
0.0
 11
777.1579936202049
 21
93.03839036370448
 31
0.0
  0
ARC
  5
4F6
330
1F
100
AcDbEntity
  8
0
100
AcDbCircle
 10
763.9785442109585
 20
93.53838962162665
 30
0.0
 40
0.5
100
AcDbArc
 50
180.0
 51
270.0
  0
LINE
  5
4F7
330
1F
100
AcDbEntity
  8
0
100
AcDbLine
 10
763.9785423930168
 20
93.03839036370448
 30
0.0
 11
765.4785454328537
 21
93.03839036370448
 31
0.0
  0
LINE
  5
4F8
330
1F
100
AcDbEntity
  8
0
  6
Continuous
 62
     8
370
     0
100
AcDbLine
 10
782.4785444940806
 20
79.13838976169757
 30
0.0
 11
782.4785444940806
 21
81.13838962386183
 31
0.0
  0
LINE
  5
4F9
330
1F
100
AcDbEntity
  8
0
  6
Continuous
 62
     8
370
     0
100
AcDbLine
 10
823.4785437639237
 20
81.13838962386183
 30
0.0
 11
823.4785437639237
 21
79.13838976169757
 31
0.0
  0
LINE
  5
4FA
330
1F
100
AcDbEntity
  8
0
  6
Continuous
 62
     8
370
     0
100
AcDbLine
 10
782.4785444940806
 20
78.73838950986794
 30
0.0
 11
782.4785444940806
 21
79.13838976169757
 31
0.0
  0
LINE
  5
4FB
330
1F
100
AcDbEntity
  8
0
  6
Continuous
 62
     8
370
     0
100
AcDbLine
 10
823.4785437639237
 20
79.13838976169757
 30
0.0
 11
823.4785437639237
 21
78.73838950986794
 31
0.0
  0
LINE
  5
4FC
330
1F
100
AcDbEntity
  8
0
  6
Continuous
 62
     8
370
     0
100
AcDbLine
 10
826.478544255662
 20
78.73838950986794
 30
0.0
 11
826.478544255662
 21
69.63838960151008
 31
0.0
  0
LINE
  5
4FD
330
1F
100
AcDbEntity
  8
0
  6
Continuous
 62
     8
370
     0
100
AcDbLine
 10
780.478544166255
 20
69.63838960151008
 30
0.0
 11
780.478544166255
 21
78.73838950986794
 31
0.0
  0
LINE
  5
4FE
330
1F
100
AcDbEntity
  8
0
  6
Continuous
 62
     8
370
     0
100
AcDbLine
 10
826.478544255662
 20
69.63838960151008
 30
0.0
 11
780.478544166255
 21
69.63838960151008
 31
0.0
  0
LINE
  5
4FF
330
1F
100
AcDbEntity
  8
0
  6
Continuous
 62
     8
370
     0
100
AcDbLine
 10
826.478544255662
 20
69.63838960151008
 30
0.0
 11
828.4785445834875
 21
69.63838960151008
 31
0.0
  0
LINE
  5
500
330
1F
100
AcDbEntity
  8
0
  6
Continuous
 62
     8
370
     0
100
AcDbLine
 10
778.4785438384295
 20
69.63838960151008
 30
0.0
 11
780.478544166255
 21
69.63838960151008
 31
0.0
  0
LINE
  5
501
330
1F
100
AcDbEntity
  8
0
  6
Continuous
 62
     8
370
     0
100
AcDbLine
 10
780.478544166255
 20
68.13838982130221
 30
0.0
 11
780.478544166255
 21
69.63838960151008
 31
0.0
  0
LINE
  5
502
330
1F
100
AcDbEntity
  8
0
  6
Continuous
 62
     8
370
     0
100
AcDbLine
 10
826.478544255662
 20
69.63838960151008
 30
0.0
 11
826.478544255662
 21
68.13838982130221
 31
0.0
  0
LINE
  5
503
330
1F
100
AcDbEntity
  8
0
  6
Continuous
 62
     8
370
     0
100
AcDbLine
 10
810.9785440433204
 20
89.9383900418394
 30
0.0
 11
810.9785440433204
 21
81.13838962386183
 31
0.0
  0
LINE
  5
504
330
1F
100
AcDbEntity
  8
0
  6
Continuous
 62
     8
370
     0
100
AcDbLine
 10
774.9785441960573
 20
93.53838951433829
 30
0.0
 11
765.4785454328537
 21
93.53838951433829
 31
0.0
  0
LINE
  5
505
330
1F
100
AcDbEntity
  8
0
  6
Continuous
 62
     8
370
     0
100
AcDbLine
 10
826.478544255662
 20
98.53839033390216
 30
0.0
 11
826.478544255662
 21
91.03839003587893
 31
0.0
  0
LINE
  5
506
330
1F
100
AcDbEntity
  8
0
  6
Continuous
 62
     8
370
     0
100
AcDbLine
 10
765.4785454328537
 20
98.53839033390216
 30
0.0
 11
826.478544255662
 21
98.53839033390216
 31
0.0
  0
LINE
  5
507
330
1F
100
AcDbEntity
  8
0
  6
Continuous
 62
     8
370
     0
100
AcDbLine
 10
765.4785454328537
 20
93.53838951433829
 30
0.0
 11
765.4785454328537
 21
98.53839033390216
 31
0.0
  0
LINE
  5
508
330
1F
100
AcDbEntity
  8
0
  6
Continuous
 62
     8
370
     0
100
AcDbLine
 10
826.478544255662
 20
98.53839033390216
 30
0.0
 11
826.478544255662
 21
100.0383896484487
 31
0.0
  0
LINE
  5
509
330
1F
100
AcDbEntity
  8
0
  6
Continuous
 62
     8
370
     0
100
AcDbLine
 10
826.478544255662
 20
98.53839033390216
 30
0.0
 11
828.4785445834875
 21
98.53839033390216
 31
0.0
  0
LINE
  5
50A
330
1F
100
AcDbEntity
  8
0
  6
Continuous
 62
     8
370
     0
100
AcDbLine
 10
765.4785454328537
 20
98.53839033390216
 30
0.0
 11
765.4785454328537
 21
100.0383896484487
 31
0.0
  0
LINE
  5
50B
330
1F
100
AcDbEntity
  8
0
  6
Continuous
 62
     8
370
     0
100
AcDbLine
 10
763.4785451050282
 20
98.53839033390216
 30
0.0
 11
765.4785454328537
 21
98.53839033390216
 31
0.0
  0
LINE
  5
50C
330
1F
100
AcDbEntity
  8
0
  6
Continuous
 62
     8
370
     0
100
AcDbLine
 10
765.4785454328537
 20
93.53838951433829
 30
0.0
 11
765.4785454328537
 21
93.03839036370448
 31
0.0
  0
LINE
  5
50D
330
1F
100
AcDbEntity
  8
0
  6
Continuous
 62
     8
370
     0
100
AcDbLine
 10
774.9785441960573
 20
93.53838951433829
 30
0.0
 11
774.9785441960573
 21
93.03839036370448
 31
0.0
  0
LINE
  5
50E
330
1F
100
AcDbEntity
  8
0
  6
Continuous
 62
     8
370
     0
100
AcDbLine
 10
765.4785454328537
 20
93.53838951433829
 30
0.0
 11
763.4785451050282
 21
93.53838951433829
 31
0.0
  0
LINE
  5
50F
330
1F
100
AcDbEntity
  8
0
100
AcDbLine
 10
908.3924584279617
 20
-6.238953277070451
 30
0.0
 11
907.543930414871
 21
-5.749108481752856
 31
0.0
  0
LINE
  5
510
330
1F
100
AcDbEntity
  8
0
100
AcDbLine
 10
912.7935034722761
 20
3.344404304938905
 30
0.0
 11
913.6420314853667
 21
2.854559509621311
 31
0.0
  0
LINE
  5
511
330
1F
100
AcDbEntity
  8
0
100
AcDbLine
 10
908.3924584279617
 20
-71.56222057015616
 30
0.0
 11
907.543930414871
 21
-71.07237577483858
 31
0.0
  0
LINE
  5
512
330
1F
100
AcDbEntity
  8
0
100
AcDbLine
 10
912.7935034722761
 20
-61.97886146722102
 30
0.0
 11
913.6420314853667
 21
-62.46870626253861
 31
0.0
  0
LINE
  5
513
330
1F
100
AcDbEntity
  8
0
100
AcDbLine
 10
908.3924584279617
 20
59.08431249508948
 30
0.0
 11
907.543930414871
 21
59.57415729040704
 31
0.0
  0
LINE
  5
514
330
1F
100
AcDbEntity
  8
0
100
AcDbLine
 10
912.7935034722761
 20
68.66767159802458
 30
0.0
 11
913.6420314853667
 21
68.17782680270702
 31
0.0
  0
LINE
  5
515
330
1F
100
AcDbEntity
  8
0
100
AcDbLine
 10
958.2012052494366
 20
89.99650556792812
 30
0.0
 11
958.3626405208513
 21
89.90331096944328
 31
0.0
  0
LINE
  5
516
330
1F
100
AcDbEntity
  8
0
100
AcDbLine
 10
948.6652328318396
 20
87.19640827291113
 30
0.0
 11
948.9480750638402
 21
87.03312692791835
 31
0.0
  0
SPLINE
  5
517
330
1F
100
AcDbEntity
  8
0
100
AcDbSpline
210
0.0
220
0.0
230
1.0
 70
     8
 71
     3
 72
    12
 73
     8
 74
     0
 42
0.000000001
 43
0.00000001
 40
0.0
 40
0.0
 40
0.0
 40
0.0
 40
0.0927603417634431
 40
0.3648115581925664
 40
0.6153967331651029
 40
0.8569423441268884
 40
0.9999999999999999
 40
0.9999999999999999
 40
0.9999999999999999
 40
0.9999999999999999
 10
967.444760197887
 20
87.2308767428722
 30
0.0
 10
967.4961694333251
 20
87.20640970281923
 30
0.0
 10
967.6983537173529
 20
87.11018475542917
 30
0.0
 10
967.9607326139665
 20
86.82272301560937
 30
0.0
 10
968.193920593499
 20
86.41740845574662
 30
0.0
 10
968.2951183548369
 20
86.03762142558244
 30
0.0
 10
968.3044853210123
 20
85.80341453111552
 30
0.0
 10
968.3079694729664
 20
85.716298554209
 30
0.0
  0
LINE
  5
518
330
1F
100
AcDbEntity
  8
0
100
AcDbLine
 10
961.0196628032195
 20
90.9589510378857
 30
0.0
 11
967.4543344472164
 21
87.24429416650105
 31
0.0
  0
LINE
  5
519
330
1F
100
AcDbEntity
  8
0
100
AcDbLine
 10
968.3079694729664
 20
85.71629855420898
 30
0.0
 11
968.3079694729664
 21
-62.07758372482774
 31
0.0
  0
SPLINE
  5
51A
330
1F
100
AcDbEntity
  8
0
100
AcDbSpline
210
0.0
220
0.0
230
1.0
 70
     8
 71
     3
 72
    11
 73
     7
 74
     0
 42
0.000000001
 43
0.00000001
 40
0.0
 40
0.0
 40
0.0
 40
0.0
 40
0.2953371566511723
 40
0.5591734053909877
 40
0.8251848671841399
 40
1.0
 40
1.0
 40
1.0
 40
1.0
 10
934.677443234724
 20
-82.76641707334528
 30
0.0
 10
934.5142797103899
 20
-82.8443669645914
 30
0.0
 10
934.2053558195663
 20
-82.9919525465487
 30
0.0
 10
933.6981788128737
 20
-83.03280256053543
 30
0.0
 10
933.2636384188002
 20
-82.96785824753593
 30
0.0
 10
933.0298657387203
 20
-82.8317342621602
 30
0.0
 10
932.9371603470388
 20
-82.77775264473078
 30
0.0
  0
LINE
  5
51B
330
1F
100
AcDbEntity
  8
0
100
AcDbLine
 10
932.9275860977094
 20
-82.79117006835962
 30
0.0
 11
926.4929144537126
 21
-79.07651319697499
 31
0.0
  0
LINE
  5
51C
330
1F
100
AcDbEntity
  8
0
100
AcDbLine
 10
967.2043552325254
 20
-63.98903046492665
 30
0.0
 11
934.677443234724
 21
-82.76641707334528
 31
0.0
  0
SPLINE
  5
51D
330
1F
100
AcDbEntity
  8
0
100
AcDbSpline
210
0.0
220
0.0
230
1.0
 70
     8
 71
     3
 72
    12
 73
     8
 74
     0
 42
0.000000001
 43
0.00000001
 40
0.0
 40
0.0
 40
0.0
 40
0.0
 40
0.1960999926796164
 40
0.4169471912444152
 40
0.6599009575679844
 40
0.8892306087044132
 40
1.0
 40
1.0
 40
1.0
 40
1.0
 10
968.3079694729664
 20
-62.07758372482774
 30
0.0
 10
968.2980332600036
 20
-62.22716885780371
 30
0.0
 10
968.2769069150719
 20
-62.54521629979494
 30
0.0
 10
968.1028641915746
 20
-63.02935075879348
 30
0.0
 10
967.8162153233459
 20
-63.48652051194912
 30
0.0
 10
967.4950409920425
 20
-63.8057663895776
 30
0.0
 10
967.275770932165
 20
-63.94400613287277
 30
0.0
 10
967.2043552325254
 20
-63.98903046492665
 30
0.0
  0
SPLINE
  5
51E
330
1F
100
AcDbEntity
  8
0
100
AcDbSpline
210
0.0
220
0.0
230
1.0
 70
     8
 71
     3
 72
    12
 73
     8
 74
     0
 42
0.000000001
 43
0.00000001
 40
0.0
 40
0.0
 40
0.0
 40
0.0
 40
0.1961001410171866
 40
0.4169467971144541
 40
0.659900417537216
 40
0.8892299003943338
 40
1.0
 40
1.0
 40
1.0
 40
1.0
 10
901.0319630970665
 20
72.20474387562413
 30
0.0
 10
901.0419001302503
 20
72.35432914781649
 30
0.0
 10
901.0630281831793
 20
72.67237634458331
 30
0.0
 10
901.2370673272248
 20
73.15651163426503
 30
0.0
 10
901.5237172761413
 20
73.61368059998495
 30
0.0
 10
901.8448912262527
 20
73.9329276024169
 30
0.0
 10
902.0641620376499
 20
74.07116709827125
 30
0.0
 10
902.1355783253243
 20
74.1161915661472
 30
0.0
  0
LINE
  5
51F
330
1F
100
AcDbEntity
  8
0
100
AcDbLine
 10
901.0319630970665
 20
-75.58913840341259
 30
0.0
 11
901.0319630970665
 21
72.20474387562413
 31
0.0
  0
LINE
  5
520
330
1F
100
AcDbEntity
  8
0
100
AcDbLine
 10
902.1355783253243
 20
74.1161915661472
 30
0.0
 11
945.2690911453034
 21
99.01663849620542
 31
0.0
  0
LINE
  5
521
330
1F
100
AcDbEntity
  8
0
100
AcDbLine
 10
947.0189479530457
 20
99.04139168130459
 30
0.0
 11
952.3222490226791
 21
95.97986114031514
 31
0.0
  0
SPLINE
  5
522
330
1F
100
AcDbEntity
  8
0
100
AcDbSpline
210
0.0
220
0.0
230
1.0
 70
     8
 71
     3
 72
    11
 73
     7
 74
     0
 42
0.000000001
 43
0.00000001
 40
0.0
 40
0.0
 40
0.0
 40
0.0
 40
0.2953370391141352
 40
0.5591732726479998
 40
0.8251850601907261
 40
1.0
 40
1.0
 40
1.0
 40
1.0
 10
945.2690911453034
 20
99.01663849620542
 30
0.0
 10
945.432254548905
 20
99.0945884615183
 30
0.0
 10
945.7411782607496
 20
99.24217420740897
 30
0.0
 10
946.2483554329929
 20
99.28302425584596
 30
0.0
 10
946.6828960187825
 20
99.21807953235782
 30
0.0
 10
946.916668750928
 20
99.08195559150872
 30
0.0
 10
947.0093740329887
 20
99.02797406759092
 30
0.0
  0
SPLINE
  5
523
330
1F
100
AcDbEntity
  8
0
100
AcDbSpline
210
0.0
220
0.0
230
1.0
 70
     8
 71
     3
 72
    11
 73
     7
 74
     0
 42
0.000000001
 43
0.00000001
 40
0.0
 40
0.0
 40
0.0
 40
0.0
 40
0.2016171434930409
 40
0.5221139813974444
 40
0.8206280110326832
 40
1.0
 40
1.0
 40
1.0
 40
1.0
 10
906.6710309866289
 20
-79.08389393400427
 30
0.0
 10
906.5878323250422
 20
-79.12722460892945
 30
0.0
 10
906.3723785015457
 20
-79.2394350629111
 30
0.0
 10
906.0166205634829
 20
-79.31129749015341
 30
0.0
 10
905.6574131723428
 20
-79.2885904177439
 30
0.0
 10
905.4834472491477
 20
-79.17387650808891
 30
0.0
 10
905.4181500601919
 20
-79.13081924895998
 30
0.0
  0
LINE
  5
524
330
1F
100
AcDbEntity
  8
0
100
AcDbLine
 10
905.421130632635
 20
-79.15815500998035
 30
0.0
 11
901.8855961471832
 21
-77.11713439587429
 31
0.0
  0
LINE
  5
525
330
1F
100
AcDbEntity
  8
0
100
AcDbLine
 10
913.3885445333541
 20
-75.20595590771168
 30
0.0
 11
906.6710309866289
 21
-79.08389393400427
 31
0.0
  0
SPLINE
  5
526
330
1F
100
AcDbEntity
  8
0
100
AcDbSpline
210
0.0
220
0.0
230
1.0
 70
     8
 71
     3
 72
    12
 73
     8
 74
     0
 42
0.000000001
 43
0.00000001
 40
0.0
 40
0.0
 40
0.0
 40
0.0
 40
0.0927605534933052
 40
0.3648117291227893
 40
0.6153971352759553
 40
0.856942468541997
 40
0.9999999999999999
 40
0.9999999999999999
 40
0.9999999999999999
 40
0.9999999999999999
 10
901.8951727014182
 20
-77.10371678216063
 30
0.0
 10
901.8437633298828
 20
-77.0792497066374
 30
0.0
 10
901.6415788773686
 20
-76.98302479430058
 30
0.0
 10
901.3792014243102
 20
-76.69556133130679
 30
0.0
 10
901.146012016131
 20
-76.29024762899365
 30
0.0
 10
901.0448168326874
 20
-75.91046044174666
 30
0.0
 10
901.0354479591127
 20
-75.6762541656334
 30
0.0
 10
901.0319630970665
 20
-75.58913840341259
 30
0.0
  0
SPLINE
  5
527
330
1F
100
AcDbEntity
  8
0
100
AcDbSpline
210
0.0
220
0.0
230
1.0
 70
     8
 71
     3
 72
     9
 73
     5
 74
     0
 42
0.000000001
 43
0.00000001
 40
0.0
 40
0.0
 40
0.0
 40
0.0
 40
0.1668623174625288
 40
1.0
 40
1.0
 40
1.0
 40
1.0
 10
914.0223817684863
 20
-74.92442032947766
 30
0.0
 10
913.9895248309851
 20
-74.93242997726425
 30
0.0
 10
913.7926143601203
 20
-74.98043151474978
 30
0.0
 10
913.5721891129523
 20
-75.10345794921255
 30
0.0
 10
913.3885445333541
 20
-75.20595590771168
 30
0.0
  0
LWPOLYLINE
  5
528
330
1F
100
AcDbEntity
  8
0
100
AcDbPolyline
 90
       35
 70
   128
 43
0.0
 10
907.304935393301
 20
-3.835267578111839
 10
907.3681424951772
 20
-3.011074226700089
 10
907.5556169457097
 20
-2.141967239804202
 10
907.8609734973492
 20
-1.257543519175783
 10
908.2738150494035
 20
-0.38792031708644
 10
908.7800777253603
 20
0.4372855576659873
 10
909.3625260983566
 20
1.189975477810918
 10
910.001322173634
 20
1.844515150168107
 10
910.6747155431826
 20
2.37861744830488
 10
911.3597730530568
 20
2.774092730827135
 10
912.0331664226055
 20
3.017473867971049
 10
912.6719638149718
 20
3.100473205525319
 10
913.2544121879682
 20
3.020263862690356
 10
913.7606748639249
 20
2.779576431772739
 10
914.1735150988902
 20
2.38660917942272
 10
914.4788716505298
 20
1.854742628926829
 10
914.6663461010622
 20
1.202089035275776
 10
914.7295558371165
 20
0.4508745710019184
 10
914.6663461010622
 20
-0.3733203010883557
 10
914.4788716505298
 20
-1.242427287984228
 10
914.1735150988902
 20
-2.126851008612661
 10
913.7606748639249
 20
-2.9964734503627
 10
913.2544121879682
 20
-3.821679325115113
 10
912.6719638149718
 20
-4.574369245260044
 10
912.0331664226055
 20
-5.228909677956551
 10
911.3597730530568
 20
-5.763011976093324
 10
910.6747155431826
 20
-6.158487258615551
 10
910.001322173634
 20
-6.401868395759493
 10
909.3625260983566
 20
-6.484866972974444
 10
908.7800777253603
 20
-6.404657630139482
 10
908.2738150494035
 20
-6.163970199221879
 10
907.8609734973492
 20
-5.77100370721115
 10
907.5556169457097
 20
-5.239137156715259
 10
907.3681424951772
 20
-4.58648356306422
 10
907.304935393301
 20
-3.835267578111839
  0
ARC
  5
529
330
1F
100
AcDbEntity
  8
0
100
AcDbCircle
 10
911.7031969778949
 20
0.9084504514071909
 30
0.0
 40
2.668827350771462
100
AcDbArc
 50
65.88722895025818
 51
126.5639676469899
  0
ARC
  5
52A
330
1F
100
AcDbEntity
  8
0
100
AcDbCircle
 10
909.0559987540547
 20
-3.617126419284602
 30
0.0
 40
2.613751743576263
100
AcDbArc
 50
174.0332337434334
 51
234.6545421836201
  0
LWPOLYLINE
  5
52B
330
1F
100
AcDbEntity
  8
0
100
AcDbPolyline
 90
       35
 70
   128
 43
0.0
 10
907.304935393301
 20
-69.15853106888304
 10
907.3681424951772
 20
-68.33433667183485
 10
907.5556169457097
 20
-67.46523339219556
 10
907.8609734973492
 20
-66.58080567913697
 10
908.2738150494035
 20
-65.71118361774195
 10
908.7800777253603
 20
-64.8859798342625
 10
909.3625260983566
 20
-64.13329181527479
 10
910.001322173634
 20
-63.47874681967735
 10
910.6747155431826
 20
-62.9446471831607
 10
911.3597730530568
 20
-62.54917190063845
 10
912.0331664226055
 20
-62.30578810187441
 10
912.6719638149718
 20
-62.22279408756038
 10
913.2544121879682
 20
-62.30300152923813
 10
913.7606748639249
 20
-62.54368686888278
 10
914.1735150988902
 20
-62.93665298053848
 10
914.4788716505298
 20
-63.46852352346453
 10
914.6663461010622
 20
-64.12117340985898
 10
914.7295558371165
 20
-64.87238891976926
 10
914.6663461010622
 20
-65.69658483749606
 10
914.4788716505298
 20
-66.5656942008385
 10
914.1735150988902
 20
-67.45011583019397
 10
913.7606748639249
 20
-68.31973713124968
 10
913.2544121879682
 20
-69.14494699843226
 10
912.6719638149718
 20
-69.89763501741996
 10
912.0331664226055
 20
-70.55217468965357
 10
911.3597730530568
 20
-71.08627432617024
 10
910.6747155431826
 20
-71.48174960869247
 10
910.001322173634
 20
-71.72513340745652
 10
909.3625260983566
 20
-71.80813274513436
 10
908.7800777253603
 20
-71.72792530345663
 10
908.2738150494035
 20
-71.48723388010885
 10
907.8609734973492
 20
-71.09426852879245
 10
907.5556169457097
 20
-70.56240406956952
 10
907.3681424951772
 20
-69.90974809947193
 10
907.304935393301
 20
-69.15853106888304
  0
ARC
  5
52C
330
1F
100
AcDbEntity
  8
0
100
AcDbCircle
 10
911.7031968433886
 20
-64.41480293685397
 30
0.0
 40
2.668816102408272
100
AcDbArc
 50
65.88711769964081
 51
126.5641431603268
  0
ARC
  5
52D
330
1F
100
AcDbEntity
  8
0
100
AcDbCircle
 10
909.0560291574141
 20
-68.94037952690101
 30
0.0
 40
2.613780902910595
100
AcDbArc
 50
174.0335293955855
 51
234.6541784539605
  0
LWPOLYLINE
  5
52E
330
1F
100
AcDbEntity
  8
0
100
AcDbPolyline
 90
       35
 70
   128
 43
0.0
 10
907.304935393301
 20
61.48799591265944
 10
907.3681424951772
 20
62.3121903097076
 10
907.5556169457097
 20
63.18129967305006
 10
907.8609734973492
 20
64.06572130240554
 10
908.2738150494035
 20
64.93534336380057
 10
908.7800777253603
 20
65.7605532309831
 10
909.3625260983566
 20
66.51324124997083
 10
910.001322173634
 20
67.16778016186512
 10
910.6747155431826
 20
67.70187979838181
 10
911.3597730530568
 20
68.09735508090404
 10
912.0331664226055
 20
68.34073887966807
 10
912.6719638149718
 20
68.42373897768522
 10
913.2544121879682
 20
68.34353153600748
 10
913.7606748639249
 20
68.10284011265969
 10
914.1735150988902
 20
67.70987400100401
 10
914.4788716505298
 20
67.17800954178108
 10
914.6663461010622
 20
66.5253535716835
 10
914.7295558371165
 20
65.77413806177321
 10
914.6663461010622
 20
64.94994214404639
 10
914.4788716505298
 20
64.0808388644071
 10
914.1735150988902
 20
63.19641115134854
 10
913.7606748639249
 20
62.32678985029281
 10
913.2544121879682
 20
61.50158606681336
 10
912.6719638149718
 20
60.74889804782566
 10
912.0331664226055
 20
60.0943522918889
 10
911.3597730530568
 20
59.56025265537227
 10
910.6747155431826
 20
59.16477737285001
 10
910.001322173634
 20
58.92139357408598
 10
909.3625260983566
 20
58.83840032011128
 10
908.7800777253603
 20
58.91860776178899
 10
908.2738150494035
 20
59.15929310143366
 10
907.8609734973492
 20
59.55225845275004
 10
907.5556169457097
 20
60.08412899567608
 10
907.3681424951772
 20
60.73677888207055
 10
907.304935393301
 20
61.48799591265944
  0
ARC
  5
52F
330
1F
100
AcDbEntity
  8
0
100
AcDbCircle
 10
911.7032005341965
 20
66.23169629489709
 30
0.0
 40
2.668845475900025
100
AcDbArc
 50
65.88748676135796
 51
126.5637740986074
  0
ARC
  5
530
330
1F
100
AcDbEntity
  8
0
100
AcDbCircle
 10
909.0559776014366
 20
61.70612952470148
 30
0.0
 40
2.613731490073731
100
AcDbArc
 50
174.0330210050249
 51
234.6547957686197
  0
ARC
  5
531
330
1F
100
AcDbEntity
  8
0
100
AcDbCircle
 10
928.866207208796
 20
70.4728962334282
 30
0.0
 40
3.073608449122242
100
AcDbArc
 50
122.6054590538759
 51
177.3944791813061
  0
LINE
  5
532
330
1F
100
AcDbEntity
  8
0
100
AcDbLine
 10
925.7957762741119
 20
70.61262015353452
 30
0.0
 11
925.7957762741119
 21
63.6720213543903
 31
0.0
  0
LINE
  5
533
330
1F
100
AcDbEntity
  8
0
100
AcDbLine
 10
956.2013675806421
 20
89.79847324309239
 30
0.0
 11
927.2099900682925
 21
73.06210724877982
 31
0.0
  0
ARC
  5
534
330
1F
100
AcDbEntity
  8
0
100
AcDbCircle
 10
926.8694731114812
 20
63.58666016552749
 30
0.0
 40
1.077084690793187
100
AcDbArc
 50
175.4544241289661
 51
222.7557147765533
  0
ARC
  5
535
330
1F
100
AcDbEntity
  8
0
100
AcDbCircle
 10
957.3730483552372
 20
88.16294430860322
 30
0.0
 40
2.011912208101345
100
AcDbArc
 50
65.69293393320685
 51
125.61753032363
  0
LINE
  5
536
330
1F
100
AcDbEntity
  8
0
100
AcDbLine
 10
925.7957762741119
 20
-68.6075905604582
 30
0.0
 11
925.7957762741119
 21
-75.54818935960245
 31
0.0
  0
ARC
  5
537
330
1F
100
AcDbEntity
  8
0
100
AcDbCircle
 10
926.869530589352
 20
-75.63353063927234
 30
0.0
 40
1.077140410305395
100
AcDbArc
 50
175.4557221220217
 51
222.7544167835048
  0
LWPOLYLINE
  5
538
330
1F
100
AcDbEntity
  8
0
100
AcDbPolyline
 90
        8
 70
   128
 43
0.0
 10
945.9483192191929
 20
86.73608186268598
 10
946.6850461311633
 20
87.08695114833819
 10
947.3993877982183
 20
87.27830479655711
 10
948.0696399104639
 20
87.30431741679044
 10
948.6754363204464
 20
87.16420688281642
 10
949.1983707091672
 20
86.86222210700464
 10
949.6225537147379
 20
86.40755097202916
 10
949.8046043927028
 20
86.10570160535084
  0
LINE
  5
539
330
1F
100
AcDbEntity
  8
0
100
AcDbLine
 10
945.9483192191929
 20
86.73608186268598
 30
0.0
 11
924.0280093606581
 21
74.08175633624623
 31
0.0
  0
ARC
  5
53A
330
1F
100
AcDbEntity
  8
0
100
AcDbCircle
 10
928.9577090889543
 20
66.33661241715348
 30
0.0
 40
9.180914646080943
100
AcDbArc
 50
122.4763087883594
 51
177.5236705262948
  0
LINE
  5
53B
330
1F
100
AcDbEntity
  8
0
100
AcDbLine
 10
919.7853679781158
 20
66.73328896680724
 30
0.0
 11
919.7853679781158
 21
65.91674650015423
 31
0.0
  0
LWPOLYLINE
  5
53C
330
1F
100
AcDbEntity
  8
0
100
AcDbPolyline
 90
        3
 70
   128
 43
0.0
 10
919.7996267838026
 20
65.76182518293575
 10
919.7989550684046
 20
65.76528839397147
 10
919.7853679781158
 20
65.91674650015423
  0
ARC
  5
53D
330
1F
100
AcDbEntity
  8
0
100
AcDbCircle
 10
928.674898940975
 20
66.49987523842023
 30
0.0
 40
9.180947500504809
100
AcDbArc
 50
122.4764156307445
 51
177.5235636839099
  0
LINE
  5
53E
330
1F
100
AcDbEntity
  8
0
100
AcDbLine
 10
919.5025257461152
 20
66.89657031179999
 30
0.0
 11
919.5025257461152
 21
66.08002784514696
 31
0.0
  0
LINE
  5
53F
330
1F
100
AcDbEntity
  8
0
100
AcDbLine
 10
945.6654769871923
 20
86.89936320767876
 30
0.0
 11
923.7451671286576
 21
74.24503768123901
 31
0.0
  0
ARC
  5
540
330
1F
100
AcDbEntity
  8
0
100
AcDbCircle
 10
920.0394489390384
 20
66.0373575588331
 30
0.0
 40
0.5386160677448057
100
AcDbArc
 50
175.4561476004988
 51
222.7310107256346
  0
ARC
  5
541
330
1F
100
AcDbEntity
  8
0
100
AcDbCircle
 10
947.422564355273
 20
84.45041610179189
 30
0.0
 40
3.014083268010475
100
AcDbArc
 50
65.6513947023178
 51
125.658942568596
  0
LINE
  5
542
330
1F
100
AcDbEntity
  8
0
100
AcDbLine
 10
918.9721959025698
 20
68.63176749269826
 30
0.0
 11
921.4998016767738
 21
73.0097075813496
 31
0.0
  0
LINE
  5
543
330
1F
100
AcDbEntity
  8
0
100
AcDbLine
 10
921.4998016767738
 20
73.0097075813496
 30
0.0
 11
921.0150799916731
 21
74.81864179230283
 31
0.0
  0
LINE
  5
544
330
1F
100
AcDbEntity
  8
0
100
AcDbLine
 10
950.615225266825
 20
86.5736647485347
 30
0.0
 11
950.615225266825
 21
86.69476085933007
 31
0.0
  0
LINE
  5
545
330
1F
100
AcDbEntity
  8
0
100
AcDbLine
 10
947.9108424390761
 20
88.25647687681712
 30
0.0
 11
950.615225266825
 21
86.69476085933007
 31
0.0
  0
LINE
  5
546
330
1F
100
AcDbEntity
  8
0
100
AcDbLine
 10
921.4998016767738
 20
73.0097075813496
 30
0.0
 11
947.9108424390761
 21
88.25647687681712
 31
0.0
  0
LINE
  5
547
330
1F
100
AcDbEntity
  8
0
100
AcDbLine
 10
946.1067887354158
 20
89.2980603542924
 30
0.0
 11
947.9108424390761
 21
88.25647687681712
 31
0.0
  0
ARC
  5
548
330
1F
100
AcDbEntity
  8
0
100
AcDbCircle
 10
929.1490636023201
 20
69.49333303469353
 30
0.0
 40
3.073622337777556
100
AcDbArc
 50
122.6055995335159
 51
177.3944619399338
  0
LINE
  5
549
330
1F
100
AcDbEntity
  8
0
100
AcDbLine
 10
917.4519156128442
 20
65.22293424460625
 30
0.0
 11
926.0786188353846
 21
60.24284447842496
 31
0.0
  0
LINE
  5
54A
330
1F
100
AcDbEntity
  8
0
100
AcDbLine
 10
917.4519156128442
 20
65.22293424460625
 30
0.0
 11
917.4519156128442
 21
-63.79051997103649
 31
0.0
  0
LINE
  5
54B
330
1F
100
AcDbEntity
  8
0
100
AcDbLine
 10
917.4519156128442
 20
-63.79051997103649
 30
0.0
 11
926.0786188353846
 21
-68.77060973721777
 31
0.0
  0
LINE
  5
54C
330
1F
100
AcDbEntity
  8
0
100
AcDbLine
 10
926.0786188353846
 20
-68.77060973721777
 30
0.0
 11
926.0786188353846
 21
-78.16082376891477
 31
0.0
  0
LINE
  5
54D
330
1F
100
AcDbEntity
  8
0
100
AcDbLine
 10
926.0786188353846
 20
69.63305851012194
 30
0.0
 11
926.0786188353846
 21
60.24284447842496
 31
0.0
  0
LINE
  5
54E
330
1F
100
AcDbEntity
  8
0
100
AcDbLine
 10
920.0682108686609
 20
-14.67534252202267
 30
0.0
 11
920.0682108686609
 21
13.08704659085119
 31
0.0
  0
ARC
  5
54F
330
1F
100
AcDbEntity
  8
0
100
AcDbCircle
 10
921.3614337797364
 20
13.29682765364721
 30
0.0
 40
1.310127319018525
100
AcDbArc
 50
50.79667460189042
 51
189.2140155403821
  0
LINE
  5
550
330
1F
100
AcDbEntity
  8
0
100
AcDbLine
 10
922.189531559932
 20
14.31205553864342
 30
0.0
 11
925.017958489749
 21
12.67923942752822
 31
0.0
  0
ARC
  5
551
330
1F
100
AcDbEntity
  8
0
100
AcDbCircle
 10
922.5336342774572
 20
8.795424345051075
 30
0.0
 40
4.610410652713774
100
AcDbArc
 50
2.605468563729997
 51
57.39454698668742
  0
LINE
  5
552
330
1F
100
AcDbEntity
  8
0
100
AcDbLine
 10
927.1392788517479
 20
9.005005932893539
 30
0.0
 11
927.1392788517479
 21
-18.75738317998034
 31
0.0
  0
ARC
  5
553
330
1F
100
AcDbEntity
  8
0
100
AcDbCircle
 10
925.8460563174106
 20
-18.96716483011279
 30
0.0
 40
1.310127041187292
100
AcDbArc
 50
230.7966620122834
 51
9.214043533103874
  0
LINE
  5
554
330
1F
100
AcDbEntity
  8
0
100
AcDbLine
 10
925.017958489749
 20
-19.98239231785739
 30
0.0
 11
922.189531559932
 21
-18.3495762067422
 31
0.0
  0
ARC
  5
555
330
1F
100
AcDbEntity
  8
0
100
AcDbCircle
 10
924.6738575821045
 20
-14.46575967743007
 30
0.0
 40
4.610412846785135
100
AcDbArc
 50
182.6054829573353
 51
237.3945377280087
  0
LINE
  5
556
330
1F
100
AcDbEntity
  8
0
100
AcDbLine
 10
960.0197446273668
 20
90.85993829748904
 30
0.0
 11
927.4928326295653
 21
72.08255168907039
 31
0.0
  0
LINE
  5
557
330
1F
100
AcDbEntity
  8
0
100
AcDbLine
 10
925.7957759448395
 20
69.22333403998269
 30
0.0
 11
919.5732363041154
 21
65.63113836742747
 31
0.0
  0
LINE
  5
558
330
1F
100
AcDbEntity
  8
0
100
AcDbLine
 10
919.5732363041154
 20
65.63113836742747
 30
0.0
 11
918.866129407025
 21
66.03934249024866
 31
0.0
  0
LINE
  5
559
330
1F
100
AcDbEntity
  8
0
100
AcDbLine
 10
918.866129407025
 20
66.03934249024866
 30
0.0
 11
917.4519156128442
 21
65.22293424460625
 31
0.0
  0
ARC
  5
55A
330
1F
100
AcDbEntity
  8
0
100
AcDbCircle
 10
960.6055817467112
 20
90.04217239366167
 30
0.0
 40
1.00595536872385
100
AcDbArc
 50
65.69275193695508
 51
125.6173313618631
  0
LINE
  5
55B
330
1F
100
AcDbEntity
  8
0
100
AcDbLine
 10
925.7250647282949
 20
-11.40971029979227
 30
0.0
 11
925.7250647282949
 21
12.13093941450956
 31
0.0
  0
ARC
  5
55C
330
1F
100
AcDbEntity
  8
0
100
AcDbCircle
 10
930.3696004934479
 20
-11.19133256755701
 30
0.0
 40
4.649666795343735
100
AcDbArc
 50
182.6919621267716
 51
225.9932843142402
  0
ARC
  5
55D
330
1F
100
AcDbEntity
  8
0
100
AcDbCircle
 10
927.0177455422191
 20
-78.2874910763695
 30
0.0
 40
0.9476305072483523
100
AcDbArc
 50
172.3184307646379
 51
236.3694794484745
  0
SPLINE
  5
55E
330
1F
100
AcDbEntity
  8
0
100
AcDbSpline
210
0.0
220
0.0
230
1.0
 70
     8
 71
     3
 72
    11
 73
     7
 74
     0
 42
0.000000001
 43
0.00000001
 40
0.0
 40
0.0
 40
0.0
 40
0.0
 40
0.1555536214784914
 40
0.5717076423021508
 40
0.9940219346392383
 40
1.0
 40
1.0
 40
1.0
 40
1.0
 10
915.0332212464594
 20
76.56440783638598
 30
0.0
 10
914.947571908474
 20
76.51883254488365
 30
0.0
 10
914.6327841162063
 20
76.3513292607789
 30
0.0
 10
913.9919181450365
 20
76.1269186159077
 30
0.0
 10
913.4291462642148
 20
75.96271042502181
 30
0.0
 10
913.1425650634491
 20
75.88000383403102
 30
0.0
 10
913.1385649893908
 20
75.87884942303623
 30
0.0
  0
LINE
  5
55F
330
1F
100
AcDbEntity
  8
0
100
AcDbLine
 10
915.9669912606633
 20
77.10346179149985
 30
0.0
 11
915.0332212464594
 21
76.56440783638598
 31
0.0
  0
LINE
  5
560
330
1F
100
AcDbEntity
  8
0
100
AcDbLine
 10
915.9669912606633
 20
77.10346179149985
 30
0.0
 11
917.3812050548441
 21
76.28705354585745
 31
0.0
  0
LINE
  5
561
330
1F
100
AcDbEntity
  8
0
100
AcDbLine
 10
917.3812050548441
 20
76.28705354585745
 30
0.0
 11
951.3223308468263
 21
95.88084839991848
 31
0.0
  0
LINE
  5
562
330
1F
100
AcDbEntity
  8
0
100
AcDbLine
 10
915.9669912606633
 20
-73.95659035414889
 30
0.0
 11
915.0332212464594
 21
-74.49564430926276
 31
0.0
  0
LINE
  5
563
330
1F
100
AcDbEntity
  8
0
100
AcDbLine
 10
915.9669912606633
 20
-73.95659035414889
 30
0.0
 11
915.9669912606633
 21
77.10346179149985
 31
0.0
  0
LWPOLYLINE
  5
564
330
1F
100
AcDbEntity
  8
0
100
AcDbPolyline
 90
       37
 70
   128
 43
0.0
 10
910.6636915081191
 20
58.93592679628486
 10
909.9269645961487
 20
58.58505142692951
 10
909.2126229290935
 20
58.3937038624137
 10
908.5423694997589
 20
58.36768439813792
 10
907.9365744068656
 20
58.50780177615439
 10
907.4136400181446
 20
58.80978046826306
 10
906.9894556954848
 20
59.26445692660235
 10
906.6769131061742
 20
59.85801080984805
 10
906.4855058278401
 20
60.57240913111195
 10
906.4210501255768
 20
61.3859446918693
 10
906.4855058278401
 20
62.27389922240758
 10
906.6769131061742
 20
63.20929168324361
 10
906.9894556954848
 20
64.1636995591141
 10
907.4136400181446
 20
65.10812881171515
 10
907.9365744068656
 20
66.01388078119797
 10
908.5423694997589
 20
66.85342820184934
 10
909.2126229290935
 20
67.60127295875287
 10
909.9269645961487
 20
68.23468064377718
 10
910.6636915081191
 20
68.73441814501143
 10
911.4004184200895
 20
69.08528743066367
 10
912.1147587700556
 20
69.27664031854329
 10
912.7850108823012
 20
69.30265293877662
 10
913.3908072922835
 20
69.16254240480262
 10
913.9137416810044
 20
68.86055762899082
 10
914.3379246865752
 20
68.40588041031225
 10
914.6504685929748
 20
67.8123272874058
 10
914.841875871309
 20
67.0979289661419
 10
914.9063315735723
 20
66.28439340538455
 10
914.841875871309
 20
65.39643887484633
 10
914.6504685929748
 20
64.46104641401027
 10
914.3379246865752
 20
63.50663777780048
 10
913.9137416810044
 20
62.56220928553876
 10
913.3908072922835
 20
61.65646339975902
 10
912.7850108823012
 20
60.81690913506523
 10
912.1147587700556
 20
60.06907122220412
 10
911.4004184200895
 20
59.435658213816
 10
910.6636915081191
 20
58.93592679628486
  0
LWPOLYLINE
  5
565
330
1F
100
AcDbEntity
  8
0
100
AcDbPolyline
 90
       37
 70
   128
 43
0.0
 10
910.6636915081191
 20
-6.387338975875082
 10
909.9269645961487
 20
-6.738211683610288
 10
909.2126229290935
 20
-6.929562289977653
 10
908.5423694997589
 20
-6.955577571707522
 10
907.9365744068656
 20
-6.815464376236974
 10
907.4136400181446
 20
-6.513482832392484
 10
906.9894556954848
 20
-6.058807704863241
 10
906.6769131061742
 20
-5.465252680923186
 10
906.4855058278401
 20
-4.750854264601415
 10
906.4210501255768
 20
-3.937318798901956
 10
906.4855058278401
 20
-3.049364363421546
 10
906.6769131061742
 20
-2.113971807527633
 10
906.9894556954848
 20
-1.159562790962823
 10
907.4136400181446
 20
-0.2151348691718482
 10
907.9365744068656
 20
0.6906138683437177
 10
908.5423694997589
 20
1.530163190152336
 10
909.2126229290935
 20
2.278006045898636
 10
909.9269645961487
 20
2.911416772774473
 10
910.6636915081191
 20
3.411150851925768
 10
911.4004184200895
 20
3.762023559660975
 10
912.1147587700556
 20
3.953373405689035
 10
912.7850108823012
 20
3.979387927079614
 10
913.3908072922835
 20
3.839275491948356
 10
913.9137416810044
 20
3.537293948103866
 10
914.3379246865752
 20
3.082618060235319
 10
914.6504685929748
 20
2.489063796634582
 10
914.841875871309
 20
1.774665380312797
 10
914.9063315735723
 20
0.9611299146132524
 10
914.841875871309
 20
0.073175479132928
 10
914.6504685929748
 20
-0.8622170767609845
 10
914.3379246865752
 20
-1.816626853665113
 10
913.9137416810044
 20
-2.76105401511677
 10
913.3908072922835
 20
-3.666802752632336
 10
912.7850108823012
 20
-4.506352834780245
 10
912.1147587700556
 20
-5.254194930187239
 10
911.4004184200895
 20
-5.887604896723772
 10
910.6636915081191
 20
-6.387338975875082
  0
LWPOLYLINE
  5
566
330
1F
100
AcDbEntity
  8
0
100
AcDbPolyline
 90
       37
 70
   128
 43
0.0
 10
910.6636915081191
 20
-71.71060626896079
 10
909.9269645961487
 20
-72.06147555461298
 10
909.2126229290935
 20
-72.2528292028319
 10
908.5423694997589
 20
-72.27884258340455
 10
907.9365744068656
 20
-72.13873128909123
 10
907.4136400181446
 20
-71.83674651327946
 10
906.9894556954848
 20
-71.38207005494016
 10
906.6769131061742
 20
-70.78851617169444
 10
906.4855058278401
 20
-70.07411785043053
 10
906.4210501255768
 20
-69.26058228967318
 10
906.4855058278401
 20
-68.37262775913493
 10
906.6769131061742
 20
-67.43723529829887
 10
906.9894556954848
 20
-66.4828274224284
 10
907.4136400181446
 20
-65.53839816982736
 10
907.9365744068656
 20
-64.63265228404765
 10
908.5423694997589
 20
-63.79309877969315
 10
909.2126229290935
 20
-63.04526010649273
 10
909.9269645961487
 20
-62.41184633776533
 10
910.6636915081191
 20
-61.91211492023415
 10
911.4004184200895
 20
-61.56123955087881
 10
912.1147587700556
 20
-61.36989274670233
 10
912.7850108823012
 20
-61.34387404276586
 10
913.3908072922835
 20
-61.48399066044301
 10
913.9137416810044
 20
-61.78596935255166
 10
914.3379246865752
 20
-62.24064657123028
 10
914.6504685929748
 20
-62.83419969413666
 10
914.841875871309
 20
-63.54859801540059
 10
914.9063315735723
 20
-64.36213357615793
 10
914.841875871309
 20
-65.25008810669618
 10
914.6504685929748
 20
-66.18548056753222
 10
914.3379246865752
 20
-67.13988920374202
 10
913.9137416810044
 20
-68.08431769600375
 10
913.3908072922835
 20
-68.99006966548659
 10
912.7850108823012
 20
-69.82961784647726
 10
912.1147587700556
 20
-70.5774618430415
 10
911.4004184200895
 20
-71.21086876772648
 10
910.6636915081191
 20
-71.71060626896079
  0
ARC
  5
567
330
1F
100
AcDbEntity
  8
0
100
AcDbCircle
 10
908.3343092908686
 20
61.2854791925574
 30
0.0
 40
2.64652717012603
100
AcDbArc
 50
249.9429983030764
 51
292.3883745067387
  0
ARC
  5
568
330
1F
100
AcDbEntity
  8
0
100
AcDbCircle
 10
911.7064631834543
 20
67.1272439073771
 30
0.0
 40
2.646870717913144
100
AcDbArc
 50
7.619779605255254
 51
50.05938274985141
  0
LINE
  5
569
330
1F
100
AcDbEntity
  8
0
100
AcDbLine
 10
917.3812050548441
 20
-74.7729985997913
 30
0.0
 11
917.3812050548441
 21
76.28705354585745
 31
0.0
  0
LINE
  5
56A
330
1F
100
AcDbEntity
  8
0
100
AcDbLine
 10
915.9669912606633
 20
-73.95659035414889
 30
0.0
 11
917.3812050548441
 21
-74.7729985997913
 31
0.0
  0
ARC
  5
56B
330
1F
100
AcDbEntity
  8
0
100
AcDbCircle
 10
951.8743939204038
 20
95.20402545596704
 30
0.0
 40
0.8734202508912625
100
AcDbArc
 50
350.7860259629456
 51
129.203037445107
  0
LINE
  5
56C
330
1F
100
AcDbEntity
  8
0
100
AcDbLine
 10
925.7957759448395
 20
-69.91537022252423
 30
0.0
 11
917.3812050548441
 21
-74.7729985997913
 31
0.0
  0
LINE
  5
56D
330
1F
100
AcDbEntity
  8
0
100
AcDbLine
 10
952.7365446410071
 20
95.06417171225493
 30
0.0
 11
952.7365446410071
 21
87.79827730676922
 31
0.0
  0
LINE
  5
56E
330
1F
100
AcDbEntity
  8
0
100
AcDbLine
 10
924.8070332692872
 20
-68.03653790327927
 30
0.0
 11
922.5077290709326
 21
-69.36389796333609
 31
0.0
  0
ARC
  5
56F
330
1F
100
AcDbEntity
  8
0
100
AcDbCircle
 10
921.1275688374812
 20
-67.67184732040847
 30
0.0
 40
2.183547033666176
100
AcDbArc
 50
170.7859736216047
 51
309.2032006886971
  0
LINE
  5
570
330
1F
100
AcDbEntity
  8
0
100
AcDbLine
 10
918.9721959025698
 20
-67.32221156754099
 30
0.0
 11
918.9721959025698
 21
-64.66815349131694
 31
0.0
  0
LINE
  5
571
330
1F
100
AcDbEntity
  8
0
100
AcDbLine
 10
918.9721959025698
 20
65.97811189099096
 30
0.0
 11
918.9721959025698
 21
69.93829844322516
 31
0.0
  0
LWPOLYLINE
  5
572
330
1F
100
AcDbEntity
  8
0
100
AcDbPolyline
 90
       15
 70
   128
 43
0.0
 10
918.9721959025698
 20
69.93829844322516
 10
919.0370664878731
 20
70.75424242227689
 10
919.2292969468423
 20
71.61514670521498
 10
919.5418329507078
 20
72.4894101580623
 10
919.9632079224966
 20
73.34495905293824
 10
920.4779552858943
 20
74.1503915260275
 10
921.0671893015008
 20
74.87615852194864
 10
921.7092846847631
 20
75.49561925247602
 10
922.3806800302746
 20
75.98604036939142
 10
923.0567378709026
 20
76.32943315342499
 10
923.7126495179424
 20
76.5131975414202
 10
924.3243451696272
 20
76.53058060005895
 10
924.869377677858
 20
76.38094944911299
 10
925.3277463873827
 20
76.06979840853771
 10
925.6826307543786
 20
75.60853980233966
  0
LINE
  5
573
330
1F
100
AcDbEntity
  8
0
100
AcDbLine
 10
925.6826307543786
 20
75.60853980233966
 30
0.0
 11
944.4351189414726
 21
86.43412080377848
 31
0.0
  0
LWPOLYLINE
  5
574
330
1F
100
AcDbEntity
  8
0
100
AcDbPolyline
 90
       15
 70
   128
 43
0.0
 10
944.4351189414726
 20
86.43412080377848
 10
944.7900033084685
 20
87.3051201785324
 10
945.2483720179932
 20
88.14549246633393
 10
945.793404526224
 20
88.92440475665748
 10
946.4051001779088
 20
89.6132704645263
 10
947.0610118249487
 20
90.1868055446308
 10
947.7370696655767
 20
90.62397252870454
 10
948.4084650110881
 20
90.90872797761958
 10
949.0505603943504
 20
91.03061479658061
 10
949.639794409957
 20
90.98516291416445
 10
950.1545417733546
 20
90.77404509651095
 10
950.5759167451434
 20
90.40500538842315
 10
950.8884527490089
 20
89.8915883248076
 10
951.0806832079782
 20
89.2526286055724
 10
951.1455537932815
 20
88.51158261006353
  0
LINE
  5
575
330
1F
100
AcDbEntity
  8
0
100
AcDbLine
 10
951.1455537932815
 20
88.51158261006353
 30
0.0
 11
951.1455537932815
 21
86.87981784033667
 31
0.0
  0
LINE
  5
576
330
1F
100
AcDbEntity
  8
0
100
AcDbLine
 10
924.4406158123231
 20
76.3255397666149
 30
0.0
 11
925.6826307543786
 21
75.60853980233966
 31
0.0
  0
LINE
  5
577
330
1F
100
AcDbEntity
  8
0
100
AcDbLine
 10
946.5493596207384
 20
89.75290586665662
 30
0.0
 11
946.5493596207384
 21
89.04253618702194
 31
0.0
  0
LINE
  5
578
330
1F
100
AcDbEntity
  8
0
100
AcDbLine
 10
920.2108390967443
 20
-65.38321148511105
 30
0.0
 11
918.9721959025698
 21
-66.0982649807664
 31
0.0
  0
ARC
  5
579
330
1F
100
AcDbEntity
  8
0
100
AcDbCircle
 10
908.3343009284645
 20
-4.037639714501992
 30
0.0
 40
2.64666368954541
100
AcDbArc
 50
249.9442700315249
 51
292.3873528681293
  0
ARC
  5
57A
330
1F
100
AcDbEntity
  8
0
100
AcDbCircle
 10
911.7067466062167
 20
1.804132994394436
 30
0.0
 40
2.646569304057889
100
AcDbArc
 50
7.617276373813124
 51
50.06192163028074
  0
ARC
  5
57B
330
1F
100
AcDbEntity
  8
0
100
AcDbCircle
 10
908.3343016683727
 20
-69.36106118235814
 30
0.0
 40
2.646517689606008
100
AcDbArc
 50
249.9430990451022
 51
292.3886375317443
  0
ARC
  5
57C
330
1F
100
AcDbEntity
  8
0
100
AcDbCircle
 10
911.7070235058503
 20
-63.51898061376188
 30
0.0
 40
2.646274440883502
100
AcDbArc
 50
7.614766816789839
 51
50.06439553831765
  0
SPLINE
  5
57D
330
1F
100
AcDbEntity
  8
0
100
AcDbSpline
210
0.0
220
0.0
230
1.0
 70
     8
 71
     3
 72
    10
 73
     6
 74
     0
 42
0.000000001
 43
0.00000001
 40
0.0
 40
0.0
 40
0.0
 40
0.0
 40
0.0157787769514015
 40
0.8529416344337262
 40
1.0
 40
1.0
 40
1.0
 40
1.0
 10
914.0195658321702
 20
-74.91566182386016
 30
0.0
 10
914.0253934727691
 20
-74.91390732217651
 30
0.0
 10
914.3404139152734
 20
-74.81906552687923
 30
0.0
 10
914.6921028249549
 20
-74.68331841752132
 30
0.0
 10
914.9888782581868
 20
-74.52004061933268
 30
0.0
 10
915.0332212464594
 20
-74.49564430926276
 30
0.0
  0
LINE
  5
57E
330
1F
100
AcDbEntity
  8
0
  6
Continuous
 62
     8
370
     0
100
AcDbLine
 10
928.1998246106391
 20
72.49068793048534
 30
0.0
 11
927.2099900682925
 21
73.06210724877982
 31
0.0
  0
LINE
  5
57F
330
1F
100
AcDbEntity
  8
0
  6
Continuous
 62
     8
370
     0
100
AcDbLine
 10
925.7957762741119
 20
70.61262015353452
 30
0.0
 11
926.2037995852736
 21
70.37707330975644
 31
0.0
  0
LINE
  5
580
330
1F
100
AcDbEntity
  8
0
  6
Continuous
 62
     8
370
     0
100
AcDbLine
 10
926.0786188353846
 20
63.50873981931269
 30
0.0
 11
925.7957762741119
 21
63.6720213543903
 31
0.0
  0
LINE
  5
581
330
1F
100
AcDbEntity
  8
0
  6
Continuous
 62
     8
370
     0
100
AcDbLine
 10
956.2013675806421
 20
89.79847324309239
 30
0.0
 11
957.1912021229887
 21
89.22705392479787
 31
0.0
  0
LINE
  5
582
330
1F
100
AcDbEntity
  8
0
  6
Continuous
 62
     8
370
     0
100
AcDbLine
 10
925.7957762741119
 20
-68.6075905604582
 30
0.0
 11
926.0786188353846
 21
-68.77087209553581
 31
0.0
  0
LINE
  5
583
330
1F
100
AcDbEntity
  8
0
  6
Continuous
 62
     8
370
     0
100
AcDbLine
 10
926.0786188353846
 20
-75.71147089468005
 30
0.0
 11
925.7957762741119
 21
-75.54818935960245
 31
0.0
  0
LINE
  5
584
330
1F
100
AcDbEntity
  8
0
  6
Continuous
 62
     8
370
     0
100
AcDbLine
 10
924.0280093606581
 20
74.08175633624623
 30
0.0
 11
923.7451671286576
 21
74.24503768123901
 31
0.0
  0
LINE
  5
585
330
1F
100
AcDbEntity
  8
0
  6
Continuous
 62
     8
370
     0
100
AcDbLine
 10
919.5025257461152
 20
66.89657031179999
 30
0.0
 11
919.7853679781158
 21
66.73328896680724
 31
0.0
  0
LINE
  5
586
330
1F
100
AcDbEntity
  8
0
  6
Continuous
 62
     8
370
     0
100
AcDbLine
 10
919.7853679781158
 20
65.91674650015423
 30
0.0
 11
919.5025257461152
 21
66.08002784514696
 31
0.0
  0
LINE
  5
587
330
1F
100
AcDbEntity
  8
0
  6
Continuous
 62
     8
370
     0
100
AcDbLine
 10
945.6654769871923
 20
86.89936320767876
 30
0.0
 11
945.9483192191929
 21
86.73608186268598
 31
0.0
  0
ARC
  5
588
330
1F
100
AcDbEntity
  8
0
  6
Continuous
 62
     8
370
     0
100
AcDbCircle
 10
935.4022014688322
 20
65.88348313653037
 30
0.0
 40
0.7683838246533279
100
AcDbArc
 50
122.604817140414
 51
177.3953059522236
  0
ARC
  5
589
330
1F
100
AcDbEntity
  8
0
  6
Continuous
 62
     8
370
     0
100
AcDbCircle
 10
932.6853451570191
 20
66.42598937694945
 30
0.0
 40
2.305201945941476
100
AcDbArc
 50
2.605346806393332
 51
57.39458145030314
  0
ARC
  5
58A
330
1F
100
AcDbEntity
  8
0
  6
Continuous
 62
     8
370
     0
100
AcDbCircle
 10
935.583735246317
 20
65.77867616330892
 30
0.0
 40
3.073622337777585
100
AcDbArc
 50
122.6055995335176
 51
177.3944619399339
  0
ARC
  5
58B
330
1F
100
AcDbEntity
  8
0
  6
Continuous
 62
     8
370
     0
100
AcDbCircle
 10
933.5739504393603
 20
67.96546685162573
 30
0.0
 40
2.305531508463952
100
AcDbArc
 50
242.6096607377229
 51
297.3903700668303
  0
LINE
  5
58C
330
1F
100
AcDbEntity
  8
0
  6
Continuous
 62
     8
370
     0
100
AcDbLine
 10
926.0786188353846
 20
69.63305851012194
 30
0.0
 11
932.5132904793815
 21
65.91840163873732
 31
0.0
  0
LINE
  5
58D
330
1F
100
AcDbEntity
  8
0
  6
Continuous
 62
     8
370
     0
100
AcDbLine
 10
933.9275042735621
 20
68.36789481768577
 30
0.0
 11
927.4928326295653
 21
72.08255168907039
 31
0.0
  0
ARC
  5
58E
330
1F
100
AcDbEntity
  8
0
  6
Continuous
 62
     8
370
     0
100
AcDbCircle
 10
933.5739504393603
 20
-79.82841542741102
 30
0.0
 40
2.305531508463917
100
AcDbArc
 50
242.6096607377224
 51
297.3903700668307
  0
LINE
  5
58F
330
1F
100
AcDbEntity
  8
0
  6
Continuous
 62
     8
370
     0
100
AcDbLine
 10
934.6346114999249
 20
-81.87548007004492
 30
0.0
 11
934.6346114999249
 21
65.91840220899181
 31
0.0
  0
LINE
  5
590
330
1F
100
AcDbEntity
  8
0
  6
Continuous
 62
     8
370
     0
100
AcDbLine
 10
932.5132904793815
 20
65.91840163873732
 30
0.0
 11
932.5132904793815
 21
-81.87548064029939
 31
0.0
  0
LINE
  5
591
330
1F
100
AcDbEntity
  8
0
  6
Continuous
 62
     8
370
     0
100
AcDbLine
 10
934.9881642899255
 20
66.53077512355927
 30
0.0
 11
967.515076287727
 21
85.30816173197789
 31
0.0
  0
ARC
  5
592
330
1F
100
AcDbEntity
  8
0
  6
Continuous
 62
     8
370
     0
100
AcDbCircle
 10
965.2122571548205
 20
85.20337598536804
 30
0.0
 40
2.305201945941582
100
AcDbArc
 50
2.605346806393909
 51
57.39458145030112
  0
LINE
  5
593
330
1F
100
AcDbEntity
  8
0
  6
Continuous
 62
     8
370
     0
100
AcDbLine
 10
966.4544162713636
 20
87.14528142610439
 30
0.0
 11
933.9275042735621
 21
68.36789481768577
 31
0.0
  0
ARC
  5
594
330
1F
100
AcDbEntity
  8
0
  6
Continuous
 62
     8
370
     0
100
AcDbCircle
 10
934.8501457869879
 20
-81.91044925155687
 30
0.0
 40
0.2183526334977187
100
AcDbArc
 50
170.7843952091114
 51
309.2044833613901
  0
LINE
  5
595
330
1F
100
AcDbEntity
  8
0
  6
Continuous
 62
     8
370
     0
100
AcDbLine
 10
967.515076287727
 20
-63.30226301371183
 30
0.0
 11
934.9881642899255
 21
-82.07964962213046
 31
0.0
  0
ARC
  5
596
330
1F
100
AcDbEntity
  8
0
  6
Continuous
 62
     8
370
     0
100
AcDbCircle
 10
967.10103910882
 20
-62.65497102668283
 30
0.0
 40
0.7683838246535176
100
AcDbArc
 50
302.6048171404234
 51
357.3953059522154
  0
LINE
  5
597
330
1F
100
AcDbEntity
  8
0
  6
Continuous
 62
     8
370
     0
100
AcDbLine
 10
967.8686290777276
 20
85.10399217989234
 30
0.0
 11
967.8686290777276
 21
-62.68989009914438
 31
0.0
  0
ARC
  5
598
330
1F
100
AcDbEntity
  8
0
  6
Continuous
 62
     8
370
     0
100
AcDbCircle
 10
967.6530947906646
 20
85.13896136140428
 30
0.0
 40
0.2183526334977366
100
AcDbArc
 50
350.784395209115
 51
129.2044833613877
  0
LINE
  5
599
330
1F
100
AcDbEntity
  8
0
  6
Continuous
 62
     8
370
     0
100
AcDbLine
 10
932.5132904793815
 20
-81.87548064029939
 30
0.0
 11
926.0786188353846
 21
-78.16082376891477
 31
0.0
  0
LINE
  5
59A
330
1F
100
AcDbEntity
  8
0
  6
Continuous
 62
     8
370
     0
100
AcDbLine
 10
960.0197446273668
 20
90.85993829748904
 30
0.0
 11
966.4544162713636
 21
87.14528142610439
 31
0.0
  0
ARC
  5
59B
330
1F
100
AcDbEntity
  8
0
  6
Continuous
 62
     8
370
     0
100
AcDbCircle
 10
967.590082071488
 20
85.76759616151577
 30
0.0
 40
0.7196934619068522
100
AcDbArc
 50
292.7701724004311
 51
355.9407889957747
  0
ARC
  5
59C
330
1F
100
AcDbEntity
  8
0
  6
Continuous
 62
     8
370
     0
100
AcDbCircle
 10
967.0405609992936
 20
86.32665809453275
 30
0.0
 40
1.006831565393888
100
AcDbArc
 50
65.85428742080927
 51
125.6031457713931
  0
ARC
  5
59D
330
1F
100
AcDbEntity
  8
0
  6
Continuous
 62
     8
370
     0
100
AcDbCircle
 10
967.5572852485036
 20
-62.0027251795978
 30
0.0
 40
0.7544074540004018
100
AcDbArc
 50
294.3745472144569
 51
354.3052675232384
  0
LINE
  5
59E
330
1F
100
AcDbEntity
  8
0
  6
Continuous
 62
     8
370
     0
100
AcDbLine
 10
922.1898766372542
 20
14.31185816821264
 30
0.0
 11
920.0682108686609
 21
13.08704659085119
 31
0.0
  0
LINE
  5
59F
330
1F
100
AcDbEntity
  8
0
  6
Continuous
 62
     8
370
     0
100
AcDbLine
 10
925.7250647282949
 20
-11.40971029979227
 30
0.0
 11
920.0682108686609
 21
-14.67534252202267
 31
0.0
  0
LINE
  5
5A0
330
1F
100
AcDbEntity
  8
0
  6
Continuous
 62
     8
370
     0
100
AcDbLine
 10
927.1392791810201
 20
-18.75777994939375
 30
0.0
 11
925.017958489749
 21
-19.98239231785739
 31
0.0
  0
LINE
  5
5A1
330
1F
100
AcDbEntity
  8
0
  6
Continuous
 62
     8
370
     0
100
AcDbLine
 10
927.1392798395647
 20
-15.49214734699369
 30
0.0
 11
922.189531559932
 21
-18.3495762067422
 31
0.0
  0
ARC
  5
5A2
330
1F
100
AcDbEntity
  8
0
  6
Continuous
 62
     8
370
     0
100
AcDbCircle
 10
933.4922218819099
 20
-81.98393214744826
 30
0.0
 40
0.9849205146910721
100
AcDbArc
 50
173.6782316283203
 51
235.1569182501443
  0
ARC
  5
5A3
330
1F
100
AcDbEntity
  8
0
  6
Continuous
 62
     8
370
     0
100
AcDbCircle
 10
934.2371647086671
 20
-82.1535531410442
 30
0.0
 40
0.7546271272344665
100
AcDbArc
 50
305.6984492539054
 51
5.620203144924154
  0
ARC
  5
5A4
330
1F
100
AcDbEntity
  8
0
  6
Continuous
 62
     8
370
     0
100
AcDbCircle
 10
966.8152450140788
 20
-63.39930640324339
 30
0.0
 40
0.7065275868838224
100
AcDbArc
 50
303.4175243248031
 51
7.894680496637094
  0
LINE
  5
5A5
330
1F
100
AcDbEntity
  8
0
  6
Continuous
 62
     8
370
     0
100
AcDbLine
 10
913.1385649893908
 20
75.87884942303623
 30
0.0
 11
906.4210514426658
 21
72.00091139674365
 31
0.0
  0
LINE
  5
5A6
330
1F
100
AcDbEntity
  8
0
  6
Continuous
 62
     8
370
     0
100
AcDbLine
 10
946.0190297771929
 20
98.94237894090793
 30
0.0
 11
951.3223308468263
 21
95.88084839991848
 31
0.0
  0
LINE
  5
5A7
330
1F
100
AcDbEntity
  8
0
  6
Continuous
 62
     8
370
     0
100
AcDbLine
 10
902.8855169572139
 20
74.04193201084973
 30
0.0
 11
946.0190297771929
 21
98.94237894090793
 31
0.0
  0
LINE
  5
5A8
330
1F
100
AcDbEntity
  8
0
  6
Continuous
 62
     8
370
     0
100
AcDbLine
 10
906.4210514426658
 20
72.00091139674365
 30
0.0
 11
902.8855169572139
 21
74.04193201084973
 31
0.0
  0
ARC
  5
5A9
330
1F
100
AcDbEntity
  8
0
  6
Continuous
 62
     8
370
     0
100
AcDbCircle
 10
908.077280990875
 20
69.41169356482754
 30
0.0
 40
3.07362087731615
100
AcDbArc
 50
122.6055854249503
 51
177.3944760485002
  0
ARC
  5
5AA
330
1F
100
AcDbEntity
  8
0
  6
Continuous
 62
     8
370
     0
100
AcDbCircle
 10
905.3603905136588
 20
70.23376426091497
 30
0.0
 40
0.7685022778325057
100
AcDbArc
 50
242.6093811985841
 51
297.3904955827138
  0
ARC
  5
5AB
330
1F
100
AcDbEntity
  8
0
  6
Continuous
 62
     8
370
     0
100
AcDbCircle
 10
908.0167712803205
 20
69.44662564911906
 30
0.0
 40
2.305212446927497
100
AcDbArc
 50
122.60548560379
 51
177.3945142505837
  0
ARC
  5
5AC
330
1F
100
AcDbEntity
  8
0
  6
Continuous
 62
     8
370
     0
100
AcDbCircle
 10
906.0069834232044
 20
71.35360160395638
 30
0.0
 40
0.7684154426994529
100
AcDbArc
 50
2.605915832497233
 51
57.39396107486174
  0
LINE
  5
5AD
330
1F
100
AcDbEntity
  8
0
  6
Continuous
 62
     8
370
     0
100
AcDbLine
 10
905.7139419113973
 20
-78.24246482158082
 30
0.0
 11
905.7139419113973
 21
69.5514174574559
 31
0.0
  0
ARC
  5
5AE
330
1F
100
AcDbEntity
  8
0
  6
Continuous
 62
     8
370
     0
100
AcDbCircle
 10
906.3605547083198
 20
-78.34735594138826
 30
0.0
 40
0.6550650778039573
100
AcDbArc
 50
170.7859524444145
 51
309.2032958008321
  0
LINE
  5
5AF
330
1F
100
AcDbEntity
  8
0
  6
Continuous
 62
     8
370
     0
100
AcDbLine
 10
913.4921177793915
 20
-74.97703317052697
 30
0.0
 11
906.7746042326664
 21
-78.85497119681955
 31
0.0
  0
ARC
  5
5B0
330
1F
100
AcDbEntity
  8
0
  6
Continuous
 62
     8
370
     0
100
AcDbCircle
 10
915.2042856169676
 20
-77.75079952067667
 30
0.0
 40
3.25964698537318
100
AcDbArc
 50
93.00823095596346
 51
121.6858649309811
  0
ARC
  5
5B1
330
1F
100
AcDbEntity
  8
0
  6
Continuous
 62
     8
370
     0
100
AcDbCircle
 10
910.2694472057849
 20
80.6568091538241
 30
0.0
 40
6.280230222975423
100
AcDbArc
 50
300.8735641318218
 51
319.3352109081953
  0
LINE
  5
5B2
330
1F
100
AcDbEntity
  8
0
  6
Continuous
 62
     8
370
     0
100
AcDbLine
 10
906.7746042326664
 20
71.38853848217616
 30
0.0
 11
913.4921177793915
 21
75.26647650846874
 31
0.0
  0
ARC
  5
5B3
330
1F
100
AcDbEntity
  8
0
  6
Continuous
 62
     8
370
     0
100
AcDbCircle
 10
904.5417465054232
 20
71.45271417893355
 30
0.0
 40
3.073620877316307
100
AcDbArc
 50
122.6055854249509
 51
177.3944760484988
  0
LINE
  5
5B4
330
1F
100
AcDbEntity
  8
0
  6
Continuous
 62
     8
370
     0
100
AcDbLine
 10
901.4713031630331
 20
71.59243883190129
 30
0.0
 11
905.0068376484851
 21
69.5514182177952
 31
0.0
  0
LINE
  5
5B5
330
1F
100
AcDbEntity
  8
0
  6
Continuous
 62
     8
370
     0
100
AcDbLine
 10
905.0068376484851
 20
69.5514182177952
 30
0.0
 11
905.0068376484851
 21
-78.24246406124152
 31
0.0
  0
ARC
  5
5B6
330
1F
100
AcDbEntity
  8
0
  6
Continuous
 62
     8
370
     0
100
AcDbCircle
 10
905.3603905136588
 20
-77.56011801812178
 30
0.0
 40
0.7685022778324805
100
AcDbArc
 50
242.6093811985832
 51
297.3904955827147
  0
ARC
  5
5B7
330
1F
100
AcDbEntity
  8
0
  6
Continuous
 62
     8
370
     0
100
AcDbCircle
 10
912.7244969699294
 20
75.23153963024893
 30
0.0
 40
0.7684154426994894
100
AcDbArc
 50
2.60591583249935
 51
57.39396107486289
  0
LINE
  5
5B8
330
1F
100
AcDbEntity
  8
0
  6
Continuous
 62
     8
370
     0
100
AcDbLine
 10
901.4713031630331
 20
-76.20144344713546
 30
0.0
 11
901.4713031630331
 21
71.59243883190129
 31
0.0
  0
LINE
  5
5B9
330
1F
100
AcDbEntity
  8
0
  6
Continuous
 62
     8
370
     0
100
AcDbLine
 10
905.0068376484851
 20
-78.24246406124152
 30
0.0
 11
901.4713031630331
 21
-76.20144344713546
 31
0.0
  0
ARC
  5
5BA
330
1F
100
AcDbEntity
  8
0
  6
Continuous
 62
     8
370
     0
100
AcDbCircle
 10
902.4502072309831
 20
73.46947414335207
 30
0.0
 40
0.7191679691220336
100
AcDbArc
 50
52.74983204081522
 51
115.9711614441572
  0
ARC
  5
5BB
330
1F
100
AcDbEntity
  8
0
  6
Continuous
 62
     8
370
     0
100
AcDbCircle
 10
901.7502535810573
 20
72.25632742102349
 30
0.0
 40
0.7201120707796275
100
AcDbArc
 50
184.0747125776655
 51
247.2089959832907
  0
ARC
  5
5BC
330
1F
100
AcDbEntity
  8
0
  6
Continuous
 62
     8
370
     0
100
AcDbCircle
 10
901.7826497437783
 20
-75.51427679433311
 30
0.0
 40
0.7544101683204341
100
AcDbArc
 50
185.6949457664576
 51
245.6253167664292
  0
ARC
  5
5BD
330
1F
100
AcDbEntity
  8
0
  6
Continuous
 62
     8
370
     0
100
AcDbCircle
 10
945.579651417202
 20
98.32904925674262
 30
0.0
 40
0.7544711026320317
100
AcDbArc
 50
54.38286897140431
 51
114.3070477297973
  0
LINE
  5
5BE
330
1F
100
AcDbEntity
  8
0
  6
Continuous
 62
     8
370
     0
100
AcDbLine
 10
947.6094450570185
 20
90.55293473210645
 30
0.0
 11
951.1455537932815
 21
88.51158261006353
 31
0.0
  0
ARC
  5
5BF
330
1F
100
AcDbEntity
  8
0
  6
Continuous
 62
     8
370
     0
100
AcDbCircle
 10
946.6048668965373
 20
98.12461303708088
 30
0.0
 40
1.005955368723579
100
AcDbArc
 50
65.69275193694217
 51
125.6173313618682
  0
ARC
  5
5C0
330
1F
100
AcDbEntity
  8
0
  6
Continuous
 62
     8
370
     0
100
AcDbCircle
 10
906.0133268114607
 20
-78.34007066331245
 30
0.0
 40
1.011210899840044
100
AcDbArc
 50
174.4609308720848
 51
233.3732035422508
  0
ARC
  5
5C1
330
1F
100
AcDbEntity
  8
0
  6
Continuous
 62
     8
370
     0
100
AcDbCircle
 10
906.5242577606044
 20
-78.87960346134662
 30
0.0
 40
0.2515553707032627
100
AcDbArc
 50
305.7066654585605
 51
5.61939881255756
  0
ARC
  5
5C2
330
1F
100
AcDbEntity
  8
0
  6
Continuous
 62
     8
370
     0
100
AcDbCircle
 10
902.4513412098852
 20
-76.30960374759995
 30
0.0
 40
0.9859884501728046
100
AcDbArc
 50
173.7021317256229
 51
234.9854333838794
  0
ARC
  5
5C3
330
1F
100
AcDbEntity
  8
0
  6
Continuous
 62
     8
370
     0
100
AcDbCircle
 10
913.2403003188393
 20
-75.00099307384014
 30
0.0
 40
0.2529547596028944
100
AcDbArc
 50
305.877224086383
 51
5.43521080412666
  0
LINE
  5
5C4
330
1F
100
AcDbEntity
  8
0
  6
Continuous
 62
     8
370
     0
100
AcDbLine
 10
918.9721959025698
 20
-67.32287810956933
 30
0.0
 11
922.5077290709326
 21
-69.36389796333609
 31
0.0
  0
DIMENSION
  5
5C5
102
{ACAD_XDICTIONARY
360
5C6
102
}
330
1F
100
AcDbEntity
  8
0
100
AcDbDimension
280
     0
  2
*D7
 10
754.2245107009096
 20
91.03839003587893
 30
0.0
 11
750.6245107009096
 21
86.08838988080208
 31
0.0
 70
    32
 71
     5
 42
9.9000003101537
 73
     0
 74
     0
 75
     0
 52
-90.0
  3
ISO-25
100
AcDbAlignedDimension
 13
780.578544166255
 23
81.13838972572523
 33
0.0
 14
778.4785438384295
 24
91.03839003587893
 34
0.0
 50
90.00000000000001
100
AcDbRotatedDimension
1001
ACAD
1000
DSTYLE
1002
{
1070
   176
1070
     1
1070
   177
1070
     1
1070
   271
1070
     0
1070
    77
1070
     1
1070
   280
1070
     0
1070
   179
1070
     2
1070
   143
1040
0.0393700787401575
1070
    41
1040
3.2
1070
    44
1040
1.0
1070
    42
1040
0.1
1070
   147
1040
2.0
1070
    73
1070
     0
1070
    74
1070
     1
1070
   140
1040
3.2
1070
   284
1070
     0
1070
    78
1070
     0
1002
}
  0
DIMENSION
  5
5C7
102
{ACAD_XDICTIONARY
360
5C8
102
}
330
1F
100
AcDbEntity
  8
0
100
AcDbDimension
280
     0
  2
*D8
 10
743.9853115040801
 20
79.13838976169755
 30
0.0
 11
740.38531150408
 21
85.08838989878824
 31
0.0
 70
    32
 71
     5
 42
11.90000027418137
 73
     0
 74
     1
 75
     1
 52
-90.0
  3
ISO-25
100
AcDbAlignedDimension
 13
778.4785438384295
 23
91.03839003587893
 33
0.0
 14
780.578544166255
 24
79.13838976169757
 34
0.0
 50
90.00000000000001
100
AcDbRotatedDimension
1001
ACAD
1000
DSTYLE
1002
{
1070
   179
1070
     2
1070
   143
1040
0.0393700787401575
1070
    41
1040
3.2
1070
   176
1070
     1
1070
   177
1070
     1
1070
   271
1070
     0
1070
    44
1040
1.0
1070
    42
1040
0.1
1070
   147
1040
2.0
1070
    74
1070
     1
1070
   140
1040
3.2
1070
   284
1070
     0
1070
    78
1070
     0
1002
}
  0
LWPOLYLINE
  5
5C9
330
1F
100
AcDbEntity
  8
0
  6
HIDDEN
 62
     1
 48
0.2
100
AcDbPolyline
 90
        6
 70
     0
 43
0.0
 10
778.4785438384295
 20
330.5618798177511
 10
813.4785438384295
 20
330.5618798177511
 42
-0.414213562373095
 10
821.4785438384295
 20
322.5618798177511
 10
821.4785438384295
 20
176.5618798177511
 42
-0.414213562373095
 10
813.4785438384295
 20
168.5618798177511
 10
778.4785438384295
 20
168.5618798177511
  0
LWPOLYLINE
  5
5CA
330
1F
100
AcDbEntity
  8
0
  6
HIDDEN
 62
     1
 48
0.2
100
AcDbPolyline
 90
        6
 70
     0
 43
0.0
 10
1082.381822045186
 20
330.5618798177511
 10
1047.381822045186
 20
330.5618798177511
 42
0.414213562373095
 10
1039.381822045186
 20
322.5618798177511
 10
1039.381822045186
 20
176.5618798177511
 42
0.414213562373095
 10
1047.381822045186
 20
168.5618798177511
 10
1082.381822045186
 20
168.5618798177511
  0
LINE
  5
5CB
330
1F
100
AcDbEntity
  8
0
  6
HIDDEN
 62
     1
 48
0.2
100
AcDbLine
 10
1082.381822045186
 20
330.5618798177511
 30
0.0
 11
1082.381822045186
 21
341.1949721591174
 31
0.0
  0
LINE
  5
5CC
330
1F
100
AcDbEntity
  8
0
  6
HIDDEN
 62
     1
 48
0.2
100
AcDbLine
 10
1082.381822045186
 20
168.5618798177511
 30
0.0
 11
1082.381822045186
 21
156.1949697749316
 31
0.0
  0
TEXT
  5
5E9
330
1F
100
AcDbEntity
  8
0
  6
Continuous
 62
     7
370
     0
100
AcDbText
 10
957.3199780680827
 20
434.365606692375
 30
0.0
 40
21.0
  1
622E50L
100
AcDbText
  0
ENDSEC
  0
SECTION
  2
OBJECTS
  0
DICTIONARY
  5
C
330
0
100
AcDbDictionary
281
     1
  3
ACAD_DETAILVIEWSTYLE
350
2E4
  3
ACAD_GROUP
350
D
  3
ACAD_IMAGE_VARS
350
2DE
  3
ACAD_LAYOUT
350
1A
  3
ACAD_MATERIAL
350
2D4
  3
ACAD_MLEADERSTYLE
350
2DA
  3
ACAD_MLINESTYLE
350
17
  3
ACAD_PLOTSETTINGS
350
19
  3
ACAD_PLOTSTYLENAME
350
E
  3
ACAD_SCALELIST
350
47
  3
ACAD_SECTIONVIEWSTYLE
350
2E5
  3
ACAD_TABLESTYLE
350
2D8
  3
ACAD_VISUALSTYLE
350
2BB
  3
ACDB_RECOMPOSE_DATA
350
5EC
  3
AcDbVariableDictionary
350
2DF
  3
APPDATA
350
2DC
  0
SUN
  5
2DD
330
29
100
AcDbSun
 90
        1
290
     0
 63
     7
421
 16777215
 40
1.0
291
     1
 91
  2455826
 92
 54000000
292
     0
 70
     2
 71
   256
280
     1
  0
DICTIONARY
  5
331
330
330
100
AcDbDictionary
280
     1
281
     1
  0
DICTIONARY
  5
334
330
333
100
AcDbDictionary
280
     1
281
     1
  0
DICTIONARY
  5
5C6
330
5C5
100
AcDbDictionary
280
     1
281
     1
  0
DICTIONARY
  5
5C8
330
5C7
100
AcDbDictionary
280
     1
281
     1
  0
DICTIONARY
  5
2E4
102
{ACAD_REACTORS
330
C
102
}
330
C
100
AcDbDictionary
281
     1
  0
DICTIONARY
  5
D
102
{ACAD_REACTORS
330
C
102
}
330
C
100
AcDbDictionary
281
     1
  0
RASTERVARIABLES
  5
2DE
102
{ACAD_REACTORS
330
C
102
}
330
C
100
AcDbRasterVariables
 90
        0
 70
     1
 71
     1
 72
     1
  0
DICTIONARY
  5
1A
102
{ACAD_REACTORS
330
C
102
}
330
C
100
AcDbDictionary
281
     1
  3
Layout1
350
1E
  3
Layout2
350
26
  3
Model
350
22
  0
DICTIONARY
  5
2D4
102
{ACAD_REACTORS
330
C
102
}
330
C
100
AcDbDictionary
281
     1
  3
ByBlock
350
2D6
  3
ByLayer
350
2D5
  3
Global
350
2D7
  0
DICTIONARY
  5
2DA
102
{ACAD_REACTORS
330
C
102
}
330
C
100
AcDbDictionary
281
     1
  3
Standard
350
2DB
  0
DICTIONARY
  5
17
102
{ACAD_REACTORS
330
C
102
}
330
C
100
AcDbDictionary
281
     1
  3
Standard
350
18
  0
DICTIONARY
  5
19
102
{ACAD_REACTORS
330
C
102
}
330
C
100
AcDbDictionary
281
     1
  0
ACDBDICTIONARYWDFLT
  5
E
102
{ACAD_REACTORS
330
C
102
}
330
C
100
AcDbDictionary
281
     1
  3
Normal
350
F
100
AcDbDictionaryWithDefault
340
F
  0
DICTIONARY
  5
47
102
{ACAD_REACTORS
330
C
102
}
330
C
100
AcDbDictionary
281
     1
  3
A0
350
48
  3
A1
350
49
  3
A2
350
4A
  3
A3
350
4B
  3
A4
350
4C
  3
A5
350
4D
  3
A6
350
4E
  3
A7
350
4F
  3
A8
350
50
  3
A9
350
51
  3
B0
350
52
  3
B1
350
53
  3
B2
350
54
  3
B3
350
55
  3
B4
350
56
  3
B5
350
57
  3
B6
350
58
  3
B7
350
59
  3
B8
350
5A
  3
B9
350
5B
  3
C0
350
5C
  3
C1
350
5D
  3
C2
350
5E
  3
C3
350
5F
  3
C4
350
60
  3
C5
350
61
  3
C6
350
62
  3
C7
350
63
  3
C8
350
64
  3
C9
350
65
  3
D0
350
66
  3
D1
350
67
  3
D2
350
68
  0
DICTIONARY
  5
2E5
102
{ACAD_REACTORS
330
C
102
}
330
C
100
AcDbDictionary
281
     1
  0
DICTIONARY
  5
2D8
102
{ACAD_REACTORS
330
C
102
}
330
C
100
AcDbDictionary
281
     1
  3
Standard
350
2D9
  0
DICTIONARY
  5
2BB
102
{ACAD_REACTORS
330
C
102
}
330
C
100
AcDbDictionary
281
     1
  3
2dWireframe
350
2C0
  3
Basic
350
2C3
  3
Brighten
350
2C7
  3
ColorChange
350
2CB
  3
Conceptual
350
2C5
  3
Dim
350
2C6
  3
EdgeColorOff
350
2CE
  3
Facepattern
350
2CA
  3
Flat
350
2BC
  3
FlatWithEdges
350
2BD
  3
Gouraud
350
2BE
  3
GouraudWithEdges
350
2BF
  3
Hidden
350
2C2
  3
JitterOff
350
2CC
  3
Linepattern
350
2C9
  3
OverhangOff
350
2CD
  3
Realistic
350
2C4
  3
Shaded
350
2D3
  3
Shaded with edges
350
2D2
  3
Shades of Gray
350
2CF
  3
Sketchy
350
2D0
  3
Thicken
350
2C8
  3
Wireframe
350
2C1
  3
X-Ray
350
2D1
  0
XRECORD
  5
5EC
102
{ACAD_REACTORS
330
C
102
}
330
C
100
AcDbXrecord
280
     1
 90
        1
330
2D9
  0
DICTIONARY
  5
2DF
102
{ACAD_REACTORS
330
C
102
}
330
C
100
AcDbDictionary
281
     1
  3
CANNOSCALE
350
2E0
  3
CMLEADERSTYLE
350
2E2
  3
CTABLESTYLE
350
2E1
  3
MSLTSCALE
350
2E3
  0
DICTIONARY
  5
2DC
102
{ACAD_REACTORS
330
C
102
}
330
C
100
AcDbDictionary
281
     1
  0
LAYOUT
  5
1E
102
{ACAD_REACTORS
330
1A
102
}
330
1A
100
AcDbPlotSettings
  1

  2
none_device
  4

  6

 40
0.0
 41
0.0
 42
0.0
 43
0.0
 44
0.0
 45
0.0
 46
0.0
 47
0.0
 48
0.0
 49
0.0
140
0.0
141
0.0
142
1.0
143
1.0
 70
   688
 72
     1
 73
     0
 74
     5
  7

 75
    16
 76
     0
 77
     2
 78
   300
147
1.0
148
0.0
149
0.0
100
AcDbLayout
  1
Layout1
 70
     1
 71
     1
 10
0.0
 20
0.0
 11
420.0
 21
297.0
 12
0.0
 22
0.0
 32
0.0
 14
1.000000000000000E+20
 24
1.000000000000000E+20
 34
1.000000000000000E+20
 15
-1.000000000000000E+20
 25
-1.000000000000000E+20
 35
-1.000000000000000E+20
146
0.0
 13
0.0
 23
0.0
 33
0.0
 16
1.0
 26
0.0
 36
0.0
 17
0.0
 27
1.0
 37
0.0
 76
     0
330
1B
  0
LAYOUT
  5
26
102
{ACAD_REACTORS
330
1A
102
}
330
1A
100
AcDbPlotSettings
  1

  2
none_device
  4

  6

 40
0.0
 41
0.0
 42
0.0
 43
0.0
 44
0.0
 45
0.0
 46
0.0
 47
0.0
 48
0.0
 49
0.0
140
0.0
141
0.0
142
1.0
143
1.0
 70
   688
 72
     1
 73
     0
 74
     5
  7

 75
    16
 76
     0
 77
     2
 78
   300
147
1.0
148
0.0
149
0.0
100
AcDbLayout
  1
Layout2
 70
     1
 71
     2
 10
0.0
 20
0.0
 11
0.0
 21
0.0
 12
0.0
 22
0.0
 32
0.0
 14
0.0
 24
0.0
 34
0.0
 15
0.0
 25
0.0
 35
0.0
146
0.0
 13
0.0
 23
0.0
 33
0.0
 16
1.0
 26
0.0
 36
0.0
 17
0.0
 27
1.0
 37
0.0
 76
     0
330
23
  0
LAYOUT
  5
22
102
{ACAD_REACTORS
330
1A
102
}
330
1A
100
AcDbPlotSettings
  1

  2
none_device
  4
Letter_(8.50_x_11.00_Inches)
  6

 40
6.35
 41
6.35
 42
6.35000508
 43
6.35000508
 44
215.9
 45
279.4
 46
0.0
 47
0.0
 48
0.0
 49
0.0
140
0.0
141
0.0
142
1.0
143
1.0
 70
  1712
 72
     1
 73
     0
 74
     0
  7

 75
     0
 76
     0
 77
     2
 78
   300
147
1.0
148
0.0
149
0.0
100
AcDbLayout
  1
Model
 70
     1
 71
     0
 10
0.0
 20
0.0
 11
594.0
 21
420.0
 12
0.0
 22
0.0
 32
0.0
 14
-21.84487185142746
 24
-83.0149180988351
 34
0.0
 15
1187.502671861437
 25
455.365606692375
 35
0.0
146
0.0
 13
0.0
 23
0.0
 33
0.0
 16
1.0
 26
0.0
 36
0.0
 17
0.0
 27
1.0
 37
0.0
 76
     0
330
1F
331
29
  0
MATERIAL
  5
2D6
102
{ACAD_REACTORS
330
2D4
102
}
330
2D4
100
AcDbMaterial
  1
ByBlock
 72
     1
 94
      127
  0
MATERIAL
  5
2D5
102
{ACAD_REACTORS
330
2D4
102
}
330
2D4
100
AcDbMaterial
  1
ByLayer
 72
     1
 94
      127
  0
MATERIAL
  5
2D7
102
{ACAD_REACTORS
330
2D4
102
}
330
2D4
100
AcDbMaterial
  1
Global
 72
     1
 94
      127
  0
MLEADERSTYLE
  5
2DB
102
{ACAD_REACTORS
330
2DA
102
}
330
2DA
100
AcDbMLeaderStyle
179
     2
170
     2
171
     1
172
     0
 90
        2
 40
0.0
 41
0.0
173
     1
 91
-1056964608
340
14
 92
       -2
290
     1
 42
2.0
291
     1
 43
8.0
  3
Standard
341
0
 44
4.0
300

342
11
174
     1
178
     6
175
     1
176
     0
 93
-1056964608
 45
4.0
292
     0
297
     0
 46
4.0
343
0
 94
-1056964608
 47
1.0
 49
1.0
140
1.0
293
     1
141
0.0
294
     1
177
     0
142
1.0
295
     0
296
     0
143
3.75
271
     0
272
     9
273
     9
298
     0
  0
MLINESTYLE
  5
18
102
{ACAD_REACTORS
330
17
102
}
330
17
100
AcDbMlineStyle
  2
Standard
 70
     0
  3

 62
   256
 51
90.0
 52
90.0
 71
     2
 49
0.5
 62
   256
  6
BYLAYER
 49
-0.5
 62
   256
  6
BYLAYER
  0
ACDBPLACEHOLDER
  5
F
102
{ACAD_REACTORS
330
E
102
}
330
E
  0
SCALE
  5
48
102
{ACAD_REACTORS
330
47
102
}
330
47
100
AcDbScale
 70
     0
300
1:1
140
1.0
141
1.0
290
     1
  0
SCALE
  5
49
102
{ACAD_REACTORS
330
47
102
}
330
47
100
AcDbScale
 70
     0
300
1:2
140
1.0
141
2.0
290
     0
  0
SCALE
  5
4A
102
{ACAD_REACTORS
330
47
102
}
330
47
100
AcDbScale
 70
     0
300
1:4
140
1.0
141
4.0
290
     0
  0
SCALE
  5
4B
102
{ACAD_REACTORS
330
47
102
}
330
47
100
AcDbScale
 70
     0
300
1:5
140
1.0
141
5.0
290
     0
  0
SCALE
  5
4C
102
{ACAD_REACTORS
330
47
102
}
330
47
100
AcDbScale
 70
     0
300
1:8
140
1.0
141
8.0
290
     0
  0
SCALE
  5
4D
102
{ACAD_REACTORS
330
47
102
}
330
47
100
AcDbScale
 70
     0
300
1:10
140
1.0
141
10.0
290
     0
  0
SCALE
  5
4E
102
{ACAD_REACTORS
330
47
102
}
330
47
100
AcDbScale
 70
     0
300
1:16
140
1.0
141
16.0
290
     0
  0
SCALE
  5
4F
102
{ACAD_REACTORS
330
47
102
}
330
47
100
AcDbScale
 70
     0
300
1:20
140
1.0
141
20.0
290
     0
  0
SCALE
  5
50
102
{ACAD_REACTORS
330
47
102
}
330
47
100
AcDbScale
 70
     0
300
1:30
140
1.0
141
30.0
290
     0
  0
SCALE
  5
51
102
{ACAD_REACTORS
330
47
102
}
330
47
100
AcDbScale
 70
     0
300
1:40
140
1.0
141
40.0
290
     0
  0
SCALE
  5
52
102
{ACAD_REACTORS
330
47
102
}
330
47
100
AcDbScale
 70
     0
300
1:50
140
1.0
141
50.0
290
     0
  0
SCALE
  5
53
102
{ACAD_REACTORS
330
47
102
}
330
47
100
AcDbScale
 70
     0
300
1:100
140
1.0
141
100.0
290
     0
  0
SCALE
  5
54
102
{ACAD_REACTORS
330
47
102
}
330
47
100
AcDbScale
 70
     0
300
2:1
140
2.0
141
1.0
290
     0
  0
SCALE
  5
55
102
{ACAD_REACTORS
330
47
102
}
330
47
100
AcDbScale
 70
     0
300
4:1
140
4.0
141
1.0
290
     0
  0
SCALE
  5
56
102
{ACAD_REACTORS
330
47
102
}
330
47
100
AcDbScale
 70
     0
300
8:1
140
8.0
141
1.0
290
     0
  0
SCALE
  5
57
102
{ACAD_REACTORS
330
47
102
}
330
47
100
AcDbScale
 70
     0
300
10:1
140
10.0
141
1.0
290
     0
  0
SCALE
  5
58
102
{ACAD_REACTORS
330
47
102
}
330
47
100
AcDbScale
 70
     0
300
100:1
140
100.0
141
1.0
290
     0
  0
SCALE
  5
59
102
{ACAD_REACTORS
330
47
102
}
330
47
100
AcDbScale
 70
     0
300
1/128" = 1'-0"
140
0.0078125
141
12.0
290
     0
  0
SCALE
  5
5A
102
{ACAD_REACTORS
330
47
102
}
330
47
100
AcDbScale
 70
     0
300
1/64" = 1'-0"
140
0.015625
141
12.0
290
     0
  0
SCALE
  5
5B
102
{ACAD_REACTORS
330
47
102
}
330
47
100
AcDbScale
 70
     0
300
1/32" = 1'-0"
140
0.03125
141
12.0
290
     0
  0
SCALE
  5
5C
102
{ACAD_REACTORS
330
47
102
}
330
47
100
AcDbScale
 70
     0
300
1/16" = 1'-0"
140
0.0625
141
12.0
290
     0
  0
SCALE
  5
5D
102
{ACAD_REACTORS
330
47
102
}
330
47
100
AcDbScale
 70
     0
300
3/32" = 1'-0"
140
0.09375
141
12.0
290
     0
  0
SCALE
  5
5E
102
{ACAD_REACTORS
330
47
102
}
330
47
100
AcDbScale
 70
     0
300
1/8" = 1'-0"
140
0.125
141
12.0
290
     0
  0
SCALE
  5
5F
102
{ACAD_REACTORS
330
47
102
}
330
47
100
AcDbScale
 70
     0
300
3/16" = 1'-0"
140
0.1875
141
12.0
290
     0
  0
SCALE
  5
60
102
{ACAD_REACTORS
330
47
102
}
330
47
100
AcDbScale
 70
     0
300
1/4" = 1'-0"
140
0.25
141
12.0
290
     0
  0
SCALE
  5
61
102
{ACAD_REACTORS
330
47
102
}
330
47
100
AcDbScale
 70
     0
300
3/8" = 1'-0"
140
0.375
141
12.0
290
     0
  0
SCALE
  5
62
102
{ACAD_REACTORS
330
47
102
}
330
47
100
AcDbScale
 70
     0
300
1/2" = 1'-0"
140
0.5
141
12.0
290
     0
  0
SCALE
  5
63
102
{ACAD_REACTORS
330
47
102
}
330
47
100
AcDbScale
 70
     0
300
3/4" = 1'-0"
140
0.75
141
12.0
290
     0
  0
SCALE
  5
64
102
{ACAD_REACTORS
330
47
102
}
330
47
100
AcDbScale
 70
     0
300
1" = 1'-0"
140
1.0
141
12.0
290
     0
  0
SCALE
  5
65
102
{ACAD_REACTORS
330
47
102
}
330
47
100
AcDbScale
 70
     0
300
1-1/2" = 1'-0"
140
1.5
141
12.0
290
     0
  0
SCALE
  5
66
102
{ACAD_REACTORS
330
47
102
}
330
47
100
AcDbScale
 70
     0
300
3" = 1'-0"
140
3.0
141
12.0
290
     0
  0
SCALE
  5
67
102
{ACAD_REACTORS
330
47
102
}
330
47
100
AcDbScale
 70
     0
300
6" = 1'-0"
140
6.0
141
12.0
290
     0
  0
SCALE
  5
68
102
{ACAD_REACTORS
330
47
102
}
330
47
100
AcDbScale
 70
     0
300
1'-0" = 1'-0"
140
12.0
141
12.0
290
     0
  0
TABLESTYLE
  5
2D9
102
{ACAD_REACTORS
330
2D8
102
}
102
{ACAD_XDICTIONARY
360
5EA
102
}
330
2D8
100
AcDbTableStyle
  3
Standard
 70
     0
 71
     0
 40
0.06
 41
0.06
280
     0
281
     0
  7
Standard
140
4.5
170
     2
 62
     0
 63
   257
283
     0
 90
        4
 91
        0
  1

274
    -2
284
     1
 64
     0
275
    -2
285
     1
 65
     0
276
    -2
286
     1
 66
     0
277
    -2
287
     1
 67
     0
278
    -2
288
     1
 68
     0
279
    -2
289
     1
 69
     0
  7
Standard
140
6.0
170
     5
 62
     0
 63
   257
283
     0
 90
        4
 91
        0
  1

274
    -2
284
     1
 64
     0
275
    -2
285
     1
 65
     0
276
    -2
286
     1
 66
     0
277
    -2
287
     1
 67
     0
278
    -2
288
     1
 68
     0
279
    -2
289
     1
 69
     0
  7
Standard
140
4.5
170
     5
 62
     0
 63
   257
283
     0
 90
        4
 91
        0
  1

274
    -2
284
     1
 64
     0
275
    -2
285
     1
 65
     0
276
    -2
286
     1
 66
     0
277
    -2
287
     1
 67
     0
278
    -2
288
     1
 68
     0
279
    -2
289
     1
 69
     0
  0
VISUALSTYLE
  5
2C0
102
{ACAD_REACTORS
330
2BB
102
}
330
2BB
100
AcDbVisualStyle
  2
2dWireframe
 70
     4
177
     3
291
     0
 70
    58
 90
        0
176
     1
 90
        2
176
     1
 90
        0
176
     1
 90
        0
176
     1
 40
0.6
176
     1
 40
30.0
176
     1
 62
     7
420
 16777215
176
     1
 90
        1
176
     1
 90
        4
176
     1
 62
     7
176
     1
 62
   257
176
     1
 90
        1
176
     1
 90
        1
176
     1
 40
1.0
176
     1
 90
        0
176
     1
 62
   257
176
     1
 40
1.0
176
     1
 90
        1
176
     1
 90
        6
176
     1
 90
        2
176
     1
 62
     7
176
     1
 90
        5
176
     1
 90
        0
176
     1
 90
        0
176
     1
290
     0
176
     1
 90
        1
176
     1
 40
0.0
176
     1
 90
        0
176
     1
290
     1
176
     1
290
     1
176
     1
290
     0
176
     1
290
     0
176
     1
290
     0
176
     1
290
     0
176
     1
290
     0
176
     1
290
     0
176
     1
290
     0
176
     1
 90
       50
176
     1
 40
0.0
176
     1
 40
1.0
176
     1
 90
        0
176
     1
 62
    18
420
        0
176
     1
 90
       50
176
     1
 90
        3
176
     1
 62
     5
420
      255
176
     1
290
     0
176
     1
 90
       50
176
     1
 90
       50
176
     1
 90
       50
176
     1
290
     0
176
     1
 90
       50
176
     1
 62
   256
176
     0
 40
1.0
176
     0
 90
        2
176
     1
  1
strokes_ogs.tif
176
     1
290
     0
176
     1
 40
1.0
176
     1
 40
1.0
176
     1
  0
VISUALSTYLE
  5
2C3
102
{ACAD_REACTORS
330
2BB
102
}
330
2BB
100
AcDbVisualStyle
  2
Basic
 70
     7
177
     3
291
     1
 70
    58
 90
        1
176
     1
 90
        0
176
     1
 90
        1
176
     1
 90
        0
176
     1
 40
0.6
176
     1
 40
30.0
176
     1
 62
     7
420
 16777215
176
     1
 90
        0
176
     1
 90
        4
176
     1
 62
     7
176
     1
 62
   257
176
     1
 90
        1
176
     1
 90
        1
176
     1
 40
1.0
176
     1
 90
        8
176
     1
 62
     7
176
     1
 40
1.0
176
     1
 90
        1
176
     1
 90
        6
176
     1
 90
        2
176
     1
 62
     7
176
     1
 90
        5
176
     1
 90
        0
176
     1
 90
        0
176
     1
290
     0
176
     1
 90
        1
176
     1
 40
0.0
176
     1
 90
        0
176
     1
290
     0
176
     1
290
     1
176
     1
290
     1
176
     1
290
     0
176
     1
290
     0
176
     1
290
     0
176
     1
290
     0
176
     1
290
     0
176
     1
290
     0
176
     1
 90
       50
176
     1
 40
0.0
176
     1
 40
1.0
176
     1
 90
        0
176
     1
 62
    18
420
        0
176
     1
 90
       50
176
     1
 90
        3
176
     1
 62
     5
420
      255
176
     1
290
     0
176
     1
 90
       50
176
     1
 90
       50
176
     1
 90
       50
176
     1
290
     0
176
     1
 90
       50
176
     1
 62
   256
176
     0
 40
1.0
176
     0
 90
        2
176
     1
  1
strokes_ogs.tif
176
     1
290
     0
176
     1
 40
1.0
176
     1
 40
1.0
176
     1
  0
VISUALSTYLE
  5
2C7
102
{ACAD_REACTORS
330
2BB
102
}
330
2BB
100
AcDbVisualStyle
  2
Brighten
 70
    12
177
     3
291
     1
 70
    58
 90
        2
176
     1
 90
        2
176
     1
 90
        0
176
     1
 90
        0
176
     1
 40
0.6
176
     1
 40
30.0
176
     1
 62
     7
420
 16777215
176
     1
 90
        1
176
     1
 90
        4
176
     1
 62
     7
176
     1
 62
   257
176
     1
 90
        1
176
     1
 90
        1
176
     1
 40
1.0
176
     1
 90
        8
176
     1
 62
     7
176
     1
 40
1.0
176
     1
 90
        1
176
     1
 90
        6
176
     1
 90
        2
176
     1
 62
     7
176
     1
 90
        5
176
     1
 90
        0
176
     1
 90
        0
176
     1
290
     0
176
     1
 90
        1
176
     1
 40
50.0
176
     1
 90
        0
176
     1
290
     0
176
     1
290
     1
176
     1
290
     1
176
     1
290
     0
176
     1
290
     0
176
     1
290
     0
176
     1
290
     0
176
     1
290
     0
176
     1
290
     0
176
     1
 90
       50
176
     1
 40
0.0
176
     1
 40
1.0
176
     1
 90
        0
176
     1
 62
    18
420
        0
176
     1
 90
       50
176
     1
 90
        3
176
     1
 62
     5
420
      255
176
     1
290
     0
176
     1
 90
       50
176
     1
 90
       50
176
     1
 90
       50
176
     1
290
     0
176
     1
 90
       50
176
     1
 62
   256
176
     0
 40
1.0
176
     0
 90
        2
176
     1
  1
strokes_ogs.tif
176
     1
290
     0
176
     1
 40
1.0
176
     1
 40
1.0
176
     1
  0
VISUALSTYLE
  5
2CB
102
{ACAD_REACTORS
330
2BB
102
}
330
2BB
100
AcDbVisualStyle
  2
ColorChange
 70
    16
177
     3
291
     1
 70
    58
 90
        2
176
     1
 90
        2
176
     1
 90
        3
176
     1
 90
        0
176
     1
 40
0.6
176
     1
 40
30.0
176
     1
 62
     8
420
  8421504
176
     1
 90
        1
176
     1
 90
        4
176
     1
 62
     7
176
     1
 62
   257
176
     1
 90
        1
176
     1
 90
        1
176
     1
 40
1.0
176
     1
 90
        8
176
     1
 62
     8
420
  8421504
176
     1
 40
1.0
176
     1
 90
        1
176
     1
 90
        6
176
     1
 90
        2
176
     1
 62
     7
176
     1
 90
        5
176
     1
 90
        0
176
     1
 90
        0
176
     1
290
     0
176
     1
 90
        1
176
     1
 40
0.0
176
     1
 90
        0
176
     1
290
     0
176
     1
290
     1
176
     1
290
     1
176
     1
290
     0
176
     1
290
     0
176
     1
290
     0
176
     1
290
     0
176
     1
290
     0
176
     1
290
     0
176
     1
 90
       50
176
     1
 40
0.0
176
     1
 40
1.0
176
     1
 90
        0
176
     1
 62
    18
420
        0
176
     1
 90
       50
176
     1
 90
        3
176
     1
 62
     5
420
      255
176
     1
290
     0
176
     1
 90
       50
176
     1
 90
       50
176
     1
 90
       50
176
     1
290
     0
176
     1
 90
       50
176
     1
 62
   256
176
     0
 40
1.0
176
     0
 90
        2
176
     1
  1
strokes_ogs.tif
176
     1
290
     0
176
     1
 40
1.0
176
     1
 40
1.0
176
     1
  0
VISUALSTYLE
  5
2C5
102
{ACAD_REACTORS
330
2BB
102
}
330
2BB
100
AcDbVisualStyle
  2
Conceptual
 70
     9
177
     3
291
     0
 70
    58
 90
        3
176
     1
 90
        2
176
     1
 90
        0
176
     1
 90
        0
176
     1
 40
0.6
176
     1
 40
30.0
176
     1
 62
     7
420
 16777215
176
     1
 90
        2
176
     1
 90
        2
176
     1
 62
     7
176
     1
 62
   257
176
     1
 90
        1
176
     1
 90
        1
176
     1
 40
179.0
176
     1
 90
        8
176
     1
 62
     7
176
     1
 40
1.0
176
     1
 90
        1
176
     1
 90
        6
176
     1
 90
        2
176
     1
 62
     7
176
     1
 90
        3
176
     1
 90
        0
176
     1
 90
        0
176
     1
290
     0
176
     1
 90
        1
176
     1
 40
0.0
176
     1
 90
        0
176
     1
290
     0
176
     1
290
     1
176
     1
290
     1
176
     1
290
     0
176
     1
290
     0
176
     1
290
     0
176
     1
290
     0
176
     1
290
     0
176
     1
290
     0
176
     1
 90
       50
176
     1
 40
0.0
176
     1
 40
1.0
176
     1
 90
        0
176
     1
 62
    18
420
        0
176
     1
 90
       50
176
     1
 90
        3
176
     1
 62
     5
420
      255
176
     1
290
     0
176
     1
 90
       50
176
     1
 90
       50
176
     1
 90
       50
176
     1
290
     0
176
     1
 90
       50
176
     1
 62
   256
176
     0
 40
1.0
176
     0
 90
        2
176
     1
  1
strokes_ogs.tif
176
     1
290
     0
176
     1
 40
1.0
176
     1
 40
1.0
176
     1
  0
VISUALSTYLE
  5
2C6
102
{ACAD_REACTORS
330
2BB
102
}
330
2BB
100
AcDbVisualStyle
  2
Dim
 70
    11
177
     3
291
     1
 70
    58
 90
        2
176
     1
 90
        2
176
     1
 90
        0
176
     1
 90
        0
176
     1
 40
0.6
176
     1
 40
30.0
176
     1
 62
     7
420
 16777215
176
     1
 90
        1
176
     1
 90
        4
176
     1
 62
     7
176
     1
 62
   257
176
     1
 90
        1
176
     1
 90
        1
176
     1
 40
1.0
176
     1
 90
        8
176
     1
 62
     7
176
     1
 40
1.0
176
     1
 90
        1
176
     1
 90
        6
176
     1
 90
        2
176
     1
 62
     7
176
     1
 90
        5
176
     1
 90
        0
176
     1
 90
        0
176
     1
290
     0
176
     1
 90
        1
176
     1
 40
-50.0
176
     1
 90
        0
176
     1
290
     0
176
     1
290
     1
176
     1
290
     1
176
     1
290
     0
176
     1
290
     0
176
     1
290
     0
176
     1
290
     0
176
     1
290
     0
176
     1
290
     0
176
     1
 90
       50
176
     1
 40
0.0
176
     1
 40
1.0
176
     1
 90
        0
176
     1
 62
    18
420
        0
176
     1
 90
       50
176
     1
 90
        3
176
     1
 62
     5
420
      255
176
     1
290
     0
176
     1
 90
       50
176
     1
 90
       50
176
     1
 90
       50
176
     1
290
     0
176
     1
 90
       50
176
     1
 62
   256
176
     0
 40
1.0
176
     0
 90
        2
176
     1
  1
strokes_ogs.tif
176
     1
290
     0
176
     1
 40
1.0
176
     1
 40
1.0
176
     1
  0
VISUALSTYLE
  5
2CE
102
{ACAD_REACTORS
330
2BB
102
}
330
2BB
100
AcDbVisualStyle
  2
EdgeColorOff
 70
    22
177
     3
291
     1
 70
    58
 90
        2
176
     0
 90
        2
176
     0
 90
        0
176
     0
 90
        0
176
     0
 40
0.6
176
     0
 40
30.0
176
     0
 62
     7
420
 16777215
176
     0
 90
        1
176
     0
 90
        4
176
     0
 62
     7
176
     0
 62
   257
176
     0
 90
        1
176
     0
 90
        1
176
     0
 40
1.0
176
     0
 90
        8
176
     2
 62
     7
176
     0
 40
1.0
176
     0
 90
        1
176
     0
 90
        6
176
     0
 90
        2
176
     0
 62
     7
176
     0
 90
        5
176
     0
 90
        0
176
     0
 90
        0
176
     0
290
     0
176
     0
 90
        1
176
     0
 40
0.0
176
     0
 90
        0
176
     0
290
     0
176
     0
290
     1
176
     0
290
     1
176
     0
290
     0
176
     0
290
     0
176
     0
290
     0
176
     0
290
     0
176
     0
290
     0
176
     0
290
     0
176
     0
 90
       50
176
     0
 40
0.0
176
     0
 40
1.0
176
     0
 90
        0
176
     0
 62
    18
420
        0
176
     0
 90
       50
176
     0
 90
        3
176
     0
 62
     5
420
      255
176
     0
290
     0
176
     0
 90
       50
176
     0
 90
       50
176
     0
 90
       50
176
     0
290
     0
176
     0
 90
       50
176
     0
 62
   256
176
     0
 40
1.0
176
     0
 90
        2
176
     0
  1
strokes_ogs.tif
176
     0
290
     0
176
     0
 40
1.0
176
     0
 40
1.0
176
     0
  0
VISUALSTYLE
  5
2CA
102
{ACAD_REACTORS
330
2BB
102
}
330
2BB
100
AcDbVisualStyle
  2
Facepattern
 70
    15
177
     3
291
     1
 70
    58
 90
        2
176
     1
 90
        2
176
     1
 90
        0
176
     1
 90
        0
176
     1
 40
0.6
176
     1
 40
30.0
176
     1
 62
     7
420
 16777215
176
     1
 90
        1
176
     1
 90
        4
176
     1
 62
     7
176
     1
 62
   257
176
     1
 90
        1
176
     1
 90
        1
176
     1
 40
1.0
176
     1
 90
        8
176
     1
 62
     7
176
     1
 40
1.0
176
     1
 90
        1
176
     1
 90
        6
176
     1
 90
        2
176
     1
 62
     7
176
     1
 90
        5
176
     1
 90
        0
176
     1
 90
        0
176
     1
290
     0
176
     1
 90
        1
176
     1
 40
0.0
176
     1
 90
        0
176
     1
290
     0
176
     1
290
     1
176
     1
290
     1
176
     1
290
     0
176
     1
290
     0
176
     1
290
     0
176
     1
290
     0
176
     1
290
     0
176
     1
290
     0
176
     1
 90
       50
176
     1
 40
0.0
176
     1
 40
1.0
176
     1
 90
        0
176
     1
 62
    18
420
        0
176
     1
 90
       50
176
     1
 90
        3
176
     1
 62
     5
420
      255
176
     1
290
     0
176
     1
 90
       50
176
     1
 90
       50
176
     1
 90
       50
176
     1
290
     0
176
     1
 90
       50
176
     1
 62
   256
176
     0
 40
1.0
176
     0
 90
        2
176
     1
  1
strokes_ogs.tif
176
     1
290
     0
176
     1
 40
1.0
176
     1
 40
1.0
176
     1
  0
VISUALSTYLE
  5
2BC
102
{ACAD_REACTORS
330
2BB
102
}
330
2BB
100
AcDbVisualStyle
  2
Flat
 70
     0
177
     3
291
     1
 70
    58
 90
        2
176
     1
 90
        1
176
     1
 90
        1
176
     1
 90
        2
176
     1
 40
0.6
176
     1
 40
30.0
176
     1
 62
     7
420
 16777215
176
     1
 90
        0
176
     1
 90
        0
176
     1
 62
     7
176
     1
 62
   257
176
     1
 90
        1
176
     1
 90
        1
176
     1
 40
1.0
176
     1
 90
        8
176
     1
 62
     7
176
     1
 40
1.0
176
     1
 90
        1
176
     1
 90
        6
176
     1
 90
        2
176
     1
 62
     7
176
     1
 90
        5
176
     1
 90
        0
176
     1
 90
        0
176
     1
290
     0
176
     1
 90
       13
176
     1
 40
0.0
176
     1
 90
        0
176
     1
290
     0
176
     1
290
     1
176
     1
290
     1
176
     1
290
     0
176
     1
290
     0
176
     1
290
     0
176
     1
290
     0
176
     1
290
     0
176
     1
290
     0
176
     1
 90
       50
176
     1
 40
0.0
176
     1
 40
1.0
176
     1
 90
        0
176
     1
 62
    18
420
        0
176
     1
 90
       50
176
     1
 90
        3
176
     1
 62
     5
420
      255
176
     1
290
     0
176
     1
 90
       50
176
     1
 90
       50
176
     1
 90
       50
176
     1
290
     0
176
     1
 90
       50
176
     1
 62
   256
176
     0
 40
1.0
176
     0
 90
        2
176
     1
  1
strokes_ogs.tif
176
     1
290
     0
176
     1
 40
1.0
176
     1
 40
1.0
176
     1
  0
VISUALSTYLE
  5
2BD
102
{ACAD_REACTORS
330
2BB
102
}
330
2BB
100
AcDbVisualStyle
  2
FlatWithEdges
 70
     1
177
     3
291
     1
 70
    58
 90
        2
176
     1
 90
        1
176
     1
 90
        1
176
     1
 90
        2
176
     1
 40
0.6
176
     1
 40
30.0
176
     1
 62
     7
420
 16777215
176
     1
 90
        1
176
     1
 90
        0
176
     1
 62
     7
176
     1
 62
   257
176
     1
 90
        1
176
     1
 90
        1
176
     1
 40
1.0
176
     1
 90
        0
176
     1
 62
   257
176
     1
 40
1.0
176
     1
 90
        1
176
     1
 90
        6
176
     1
 90
        2
176
     1
 62
     7
176
     1
 90
        5
176
     1
 90
        0
176
     1
 90
        0
176
     1
290
     0
176
     1
 90
       13
176
     1
 40
0.0
176
     1
 90
        0
176
     1
290
     0
176
     1
290
     1
176
     1
290
     1
176
     1
290
     0
176
     1
290
     0
176
     1
290
     0
176
     1
290
     0
176
     1
290
     0
176
     1
290
     0
176
     1
 90
       50
176
     1
 40
0.0
176
     1
 40
1.0
176
     1
 90
        0
176
     1
 62
    18
420
        0
176
     1
 90
       50
176
     1
 90
        3
176
     1
 62
     5
420
      255
176
     1
290
     0
176
     1
 90
       50
176
     1
 90
       50
176
     1
 90
       50
176
     1
290
     0
176
     1
 90
       50
176
     1
 62
   256
176
     0
 40
1.0
176
     0
 90
        2
176
     1
  1
strokes_ogs.tif
176
     1
290
     0
176
     1
 40
1.0
176
     1
 40
1.0
176
     1
  0
VISUALSTYLE
  5
2BE
102
{ACAD_REACTORS
330
2BB
102
}
330
2BB
100
AcDbVisualStyle
  2
Gouraud
 70
     2
177
     3
291
     1
 70
    58
 90
        2
176
     1
 90
        2
176
     1
 90
        1
176
     1
 90
        2
176
     1
 40
0.6
176
     1
 40
30.0
176
     1
 62
     7
420
 16777215
176
     1
 90
        0
176
     1
 90
        0
176
     1
 62
     7
176
     1
 62
   257
176
     1
 90
        1
176
     1
 90
        1
176
     1
 40
1.0
176
     1
 90
        0
176
     1
 62
     7
176
     1
 40
1.0
176
     1
 90
        1
176
     1
 90
        6
176
     1
 90
        2
176
     1
 62
     7
176
     1
 90
        5
176
     1
 90
        0
176
     1
 90
        0
176
     1
290
     0
176
     1
 90
       13
176
     1
 40
0.0
176
     1
 90
        0
176
     1
290
     0
176
     1
290
     1
176
     1
290
     1
176
     1
290
     0
176
     1
290
     0
176
     1
290
     0
176
     1
290
     0
176
     1
290
     0
176
     1
290
     0
176
     1
 90
       50
176
     1
 40
0.0
176
     1
 40
1.0
176
     1
 90
        0
176
     1
 62
    18
420
        0
176
     1
 90
       50
176
     1
 90
        3
176
     1
 62
     5
420
      255
176
     1
290
     0
176
     1
 90
       50
176
     1
 90
       50
176
     1
 90
       50
176
     1
290
     0
176
     1
 90
       50
176
     1
 62
   256
176
     0
 40
1.0
176
     0
 90
        2
176
     1
  1
strokes_ogs.tif
176
     1
290
     0
176
     1
 40
1.0
176
     1
 40
1.0
176
     1
  0
VISUALSTYLE
  5
2BF
102
{ACAD_REACTORS
330
2BB
102
}
330
2BB
100
AcDbVisualStyle
  2
GouraudWithEdges
 70
     3
177
     3
291
     1
 70
    58
 90
        2
176
     1
 90
        2
176
     1
 90
        1
176
     1
 90
        2
176
     1
 40
0.6
176
     1
 40
30.0
176
     1
 62
     7
420
 16777215
176
     1
 90
        1
176
     1
 90
        0
176
     1
 62
     7
176
     1
 62
   257
176
     1
 90
        1
176
     1
 90
        1
176
     1
 40
1.0
176
     1
 90
        0
176
     1
 62
   257
176
     1
 40
1.0
176
     1
 90
        1
176
     1
 90
        6
176
     1
 90
        2
176
     1
 62
     7
176
     1
 90
        5
176
     1
 90
        0
176
     1
 90
        0
176
     1
290
     0
176
     1
 90
       13
176
     1
 40
0.0
176
     1
 90
        0
176
     1
290
     0
176
     1
290
     1
176
     1
290
     1
176
     1
290
     0
176
     1
290
     0
176
     1
290
     0
176
     1
290
     0
176
     1
290
     0
176
     1
290
     0
176
     1
 90
       50
176
     1
 40
0.0
176
     1
 40
1.0
176
     1
 90
        0
176
     1
 62
    18
420
        0
176
     1
 90
       50
176
     1
 90
        3
176
     1
 62
     5
420
      255
176
     1
290
     0
176
     1
 90
       50
176
     1
 90
       50
176
     1
 90
       50
176
     1
290
     0
176
     1
 90
       50
176
     1
 62
   256
176
     0
 40
1.0
176
     0
 90
        2
176
     1
  1
strokes_ogs.tif
176
     1
290
     0
176
     1
 40
1.0
176
     1
 40
1.0
176
     1
  0
VISUALSTYLE
  5
2C2
102
{ACAD_REACTORS
330
2BB
102
}
330
2BB
100
AcDbVisualStyle
  2
Hidden
 70
     6
177
     3
291
     0
 70
    58
 90
        1
176
     1
 90
        2
176
     1
 90
        2
176
     1
 90
        0
176
     1
 40
0.6
176
     1
 40
30.0
176
     1
 62
     7
420
 16777215
176
     1
 90
        2
176
     1
 90
        2
176
     1
 62
     7
176
     1
 62
   257
176
     1
 90
        2
176
     1
 90
        1
176
     1
 40
40.0
176
     1
 90
        0
176
     1
 62
   257
176
     1
 40
1.0
176
     1
 90
        1
176
     1
 90
        6
176
     1
 90
        2
176
     1
 62
     7
176
     1
 90
        3
176
     1
 90
        0
176
     1
 90
        0
176
     1
290
     0
176
     1
 90
        1
176
     1
 40
0.0
176
     1
 90
        0
176
     1
290
     0
176
     1
290
     1
176
     1
290
     1
176
     1
290
     0
176
     1
290
     0
176
     1
290
     0
176
     1
290
     0
176
     1
290
     0
176
     1
290
     0
176
     1
 90
       50
176
     1
 40
0.0
176
     1
 40
1.0
176
     1
 90
        0
176
     1
 62
    18
420
        0
176
     1
 90
       50
176
     1
 90
        3
176
     1
 62
     5
420
      255
176
     1
290
     0
176
     1
 90
       50
176
     1
 90
       50
176
     1
 90
       50
176
     1
290
     0
176
     1
 90
       50
176
     1
 62
   256
176
     0
 40
1.0
176
     0
 90
        2
176
     1
  1
strokes_ogs.tif
176
     1
290
     0
176
     1
 40
1.0
176
     1
 40
1.0
176
     1
  0
VISUALSTYLE
  5
2CC
102
{ACAD_REACTORS
330
2BB
102
}
330
2BB
100
AcDbVisualStyle
  2
JitterOff
 70
    20
177
     3
291
     1
 70
    58
 90
        2
176
     0
 90
        2
176
     0
 90
        0
176
     0
 90
        0
176
     0
 40
0.6
176
     0
 40
30.0
176
     0
 62
     7
420
 16777215
176
     0
 90
        1
176
     0
 90
        4
176
     0
 62
     7
176
     0
 62
   257
176
     0
 90
        1
176
     0
 90
        1
176
     0
 40
1.0
176
     0
 90
       10
176
     2
 62
     7
176
     0
 40
1.0
176
     0
 90
        1
176
     0
 90
        6
176
     0
 90
        2
176
     0
 62
     7
176
     0
 90
        5
176
     0
 90
        0
176
     0
 90
        0
176
     0
290
     0
176
     0
 90
        1
176
     0
 40
0.0
176
     0
 90
        0
176
     0
290
     0
176
     0
290
     1
176
     0
290
     1
176
     0
290
     0
176
     0
290
     0
176
     0
290
     0
176
     0
290
     0
176
     0
290
     0
176
     0
290
     0
176
     0
 90
       50
176
     0
 40
0.0
176
     0
 40
1.0
176
     0
 90
        0
176
     0
 62
    18
420
        0
176
     0
 90
       50
176
     0
 90
        3
176
     0
 62
     5
420
      255
176
     0
290
     0
176
     0
 90
       50
176
     0
 90
       50
176
     0
 90
       50
176
     0
290
     0
176
     0
 90
       50
176
     0
 62
   256
176
     0
 40
1.0
176
     0
 90
        2
176
     0
  1
strokes_ogs.tif
176
     0
290
     0
176
     0
 40
1.0
176
     0
 40
1.0
176
     0
  0
VISUALSTYLE
  5
2C9
102
{ACAD_REACTORS
330
2BB
102
}
330
2BB
100
AcDbVisualStyle
  2
Linepattern
 70
    14
177
     3
291
     1
 70
    58
 90
        2
176
     1
 90
        2
176
     1
 90
        0
176
     1
 90
        0
176
     1
 40
0.6
176
     1
 40
30.0
176
     1
 62
     7
420
 16777215
176
     1
 90
        1
176
     1
 90
        4
176
     1
 62
     7
176
     1
 62
   257
176
     1
 90
        7
176
     1
 90
        7
176
     1
 40
1.0
176
     1
 90
        8
176
     1
 62
     7
176
     1
 40
1.0
176
     1
 90
        1
176
     1
 90
        6
176
     1
 90
        2
176
     1
 62
     7
176
     1
 90
        5
176
     1
 90
        0
176
     1
 90
        0
176
     1
290
     0
176
     1
 90
        1
176
     1
 40
0.0
176
     1
 90
        0
176
     1
290
     0
176
     1
290
     1
176
     1
290
     1
176
     1
290
     0
176
     1
290
     0
176
     1
290
     0
176
     1
290
     0
176
     1
290
     0
176
     1
290
     0
176
     1
 90
       50
176
     1
 40
0.0
176
     1
 40
1.0
176
     1
 90
        0
176
     1
 62
    18
420
        0
176
     1
 90
       50
176
     1
 90
        3
176
     1
 62
     5
420
      255
176
     1
290
     0
176
     1
 90
       50
176
     1
 90
       50
176
     1
 90
       50
176
     1
290
     0
176
     1
 90
       50
176
     1
 62
   256
176
     0
 40
1.0
176
     0
 90
        2
176
     1
  1
strokes_ogs.tif
176
     1
290
     0
176
     1
 40
1.0
176
     1
 40
1.0
176
     1
  0
VISUALSTYLE
  5
2CD
102
{ACAD_REACTORS
330
2BB
102
}
330
2BB
100
AcDbVisualStyle
  2
OverhangOff
 70
    21
177
     3
291
     1
 70
    58
 90
        2
176
     0
 90
        2
176
     0
 90
        0
176
     0
 90
        0
176
     0
 40
0.6
176
     0
 40
30.0
176
     0
 62
     7
420
 16777215
176
     0
 90
        1
176
     0
 90
        4
176
     0
 62
     7
176
     0
 62
   257
176
     0
 90
        1
176
     0
 90
        1
176
     0
 40
1.0
176
     0
 90
        9
176
     2
 62
     7
176
     0
 40
1.0
176
     0
 90
        1
176
     0
 90
        6
176
     0
 90
        2
176
     0
 62
     7
176
     0
 90
        5
176
     0
 90
        0
176
     0
 90
        0
176
     0
290
     0
176
     0
 90
        1
176
     0
 40
0.0
176
     0
 90
        0
176
     0
290
     0
176
     0
290
     1
176
     0
290
     1
176
     0
290
     0
176
     0
290
     0
176
     0
290
     0
176
     0
290
     0
176
     0
290
     0
176
     0
290
     0
176
     0
 90
       50
176
     0
 40
0.0
176
     0
 40
1.0
176
     0
 90
        0
176
     0
 62
    18
420
        0
176
     0
 90
       50
176
     0
 90
        3
176
     0
 62
     5
420
      255
176
     0
290
     0
176
     0
 90
       50
176
     0
 90
       50
176
     0
 90
       50
176
     0
290
     0
176
     0
 90
       50
176
     0
 62
   256
176
     0
 40
1.0
176
     0
 90
        2
176
     0
  1
strokes_ogs.tif
176
     0
290
     0
176
     0
 40
1.0
176
     0
 40
1.0
176
     0
  0
VISUALSTYLE
  5
2C4
102
{ACAD_REACTORS
330
2BB
102
}
330
2BB
100
AcDbVisualStyle
  2
Realistic
 70
     8
177
     3
291
     0
 70
    58
 90
        2
176
     1
 90
        3
176
     1
 90
        0
176
     1
 90
        2
176
     1
 40
0.6
176
     1
 40
30.0
176
     1
 62
     7
420
 16777215
176
     1
 90
        0
176
     1
 90
        0
176
     1
 62
     7
176
     1
 62
   257
176
     1
 90
        1
176
     1
 90
        1
176
     1
 40
1.0
176
     1
 90
        8
176
     1
 62
   257
176
     1
 40
1.0
176
     1
 90
        1
176
     1
 90
        6
176
     1
 90
        2
176
     1
 62
     7
176
     1
 90
        3
176
     1
 90
        0
176
     1
 90
        0
176
     1
290
     0
176
     1
 90
       13
176
     1
 40
0.0
176
     1
 90
        0
176
     1
290
     0
176
     1
290
     1
176
     1
290
     1
176
     1
290
     0
176
     1
290
     0
176
     1
290
     0
176
     1
290
     0
176
     1
290
     0
176
     1
290
     0
176
     1
 90
       50
176
     1
 40
0.0
176
     1
 40
1.0
176
     1
 90
        0
176
     1
 62
    18
420
        0
176
     1
 90
       50
176
     1
 90
        3
176
     1
 62
     5
420
      255
176
     1
290
     0
176
     1
 90
       50
176
     1
 90
       50
176
     1
 90
       50
176
     1
290
     0
176
     1
 90
       50
176
     1
 62
   256
176
     0
 40
1.0
176
     0
 90
        2
176
     1
  1
strokes_ogs.tif
176
     1
290
     0
176
     1
 40
1.0
176
     1
 40
1.0
176
     1
  0
VISUALSTYLE
  5
2D3
102
{ACAD_REACTORS
330
2BB
102
}
330
2BB
100
AcDbVisualStyle
  2
Shaded
 70
    27
177
     3
291
     0
 70
    58
 90
        2
176
     1
 90
        2
176
     1
 90
        1
176
     1
 90
        2
176
     1
 40
0.6
176
     1
 40
30.0
176
     1
 62
     7
420
 16777215
176
     1
 90
        0
176
     1
 90
        4
176
     1
 62
     7
176
     1
 62
   257
176
     1
 90
        1
176
     1
 90
        1
176
     1
 40
1.0
176
     1
 90
        8
176
     1
 62
   257
176
     1
 40
1.0
176
     1
 90
        1
176
     1
 90
        6
176
     1
 90
        2
176
     1
 62
     8
420
  7895160
176
     1
 90
        3
176
     1
 90
        0
176
     1
 90
        0
176
     1
290
     0
176
     1
 90
        5
176
     1
 40
0.0
176
     1
 90
        0
176
     1
290
     0
176
     1
290
     1
176
     1
290
     1
176
     1
290
     0
176
     1
290
     0
176
     1
290
     0
176
     1
290
     0
176
     1
290
     0
176
     1
290
     0
176
     1
 90
       50
176
     1
 40
0.0
176
     1
 40
1.0
176
     1
 90
        0
176
     1
 62
    18
420
        0
176
     1
 90
       50
176
     1
 90
        3
176
     1
 62
     5
420
      255
176
     1
290
     0
176
     1
 90
       50
176
     1
 90
       50
176
     1
 90
       50
176
     1
290
     0
176
     1
 90
       50
176
     1
 62
   256
176
     0
 40
1.0
176
     0
 90
        2
176
     1
  1
strokes_ogs.tif
176
     1
290
     0
176
     1
 40
1.0
176
     1
 40
1.0
176
     1
  0
VISUALSTYLE
  5
2D2
102
{ACAD_REACTORS
330
2BB
102
}
330
2BB
100
AcDbVisualStyle
  2
Shaded with edges
 70
    26
177
     3
291
     0
 70
    58
 90
        2
176
     1
 90
        2
176
     1
 90
        1
176
     1
 90
        2
176
     1
 40
0.6
176
     1
 40
30.0
176
     1
 62
     7
420
 16777215
176
     1
 90
        1
176
     1
 90
       10
176
     1
 62
     7
176
     1
 62
   257
176
     1
 90
        2
176
     1
 90
        1
176
     1
 40
1.0
176
     1
 90
        8
176
     1
 62
   257
176
     1
 40
1.0
176
     1
 90
        1
176
     1
 90
        6
176
     1
 90
        2
176
     1
 62
     7
176
     1
 90
        3
176
     1
 90
        0
176
     1
 90
        0
176
     1
290
     0
176
     1
 90
        5
176
     1
 40
0.0
176
     1
 90
        0
176
     1
290
     0
176
     1
290
     1
176
     1
290
     1
176
     1
290
     0
176
     1
290
     0
176
     1
290
     0
176
     1
290
     0
176
     1
290
     0
176
     1
290
     0
176
     1
 90
       50
176
     1
 40
0.0
176
     1
 40
1.0
176
     1
 90
        0
176
     1
 62
    18
420
        0
176
     1
 90
       50
176
     1
 90
        3
176
     1
 62
     5
420
      255
176
     1
290
     0
176
     1
 90
       50
176
     1
 90
       50
176
     1
 90
       50
176
     1
290
     0
176
     1
 90
       50
176
     1
 62
   256
176
     0
 40
1.0
176
     0
 90
        2
176
     1
  1
strokes_ogs.tif
176
     1
290
     0
176
     1
 40
1.0
176
     1
 40
1.0
176
     1
  0
VISUALSTYLE
  5
2CF
102
{ACAD_REACTORS
330
2BB
102
}
330
2BB
100
AcDbVisualStyle
  2
Shades of Gray
 70
    23
177
     3
291
     0
 70
    58
 90
        2
176
     1
 90
        2
176
     1
 90
        3
176
     1
 90
        0
176
     1
 40
0.6
176
     1
 40
30.0
176
     1
 62
     7
420
 16777215
176
     1
 90
        2
176
     1
 90
        2
176
     1
 62
     7
176
     1
 62
     7
176
     1
 90
        1
176
     1
 90
        1
176
     1
 40
40.0
176
     1
 90
        8
176
     1
 62
     7
176
     1
 40
1.0
176
     1
 90
        1
176
     1
 90
        6
176
     1
 90
        2
176
     1
 62
     7
176
     1
 90
        3
176
     1
 90
        0
176
     1
 90
        0
176
     1
290
     0
176
     1
 90
        1
176
     1
 40
0.0
176
     1
 90
        0
176
     1
290
     0
176
     1
290
     1
176
     1
290
     1
176
     1
290
     0
176
     1
290
     0
176
     1
290
     0
176
     1
290
     0
176
     1
290
     0
176
     1
290
     0
176
     1
 90
       50
176
     1
 40
0.0
176
     1
 40
1.0
176
     1
 90
        0
176
     1
 62
    18
420
        0
176
     1
 90
       50
176
     1
 90
        3
176
     1
 62
     5
420
      255
176
     1
290
     0
176
     1
 90
       50
176
     1
 90
       50
176
     1
 90
       50
176
     1
290
     0
176
     1
 90
       50
176
     1
 62
   256
176
     0
 40
1.0
176
     0
 90
        2
176
     1
  1
strokes_ogs.tif
176
     1
290
     0
176
     1
 40
1.0
176
     1
 40
1.0
176
     1
  0
VISUALSTYLE
  5
2D0
102
{ACAD_REACTORS
330
2BB
102
}
330
2BB
100
AcDbVisualStyle
  2
Sketchy
 70
    24
177
     3
291
     0
 70
    58
 90
        1
176
     1
 90
        2
176
     1
 90
        2
176
     1
 90
        0
176
     1
 40
0.6
176
     1
 40
30.0
176
     1
 62
     7
420
 16777215
176
     1
 90
        2
176
     1
 90
        2
176
     1
 62
     7
176
     1
 62
     7
176
     1
 90
        1
176
     1
 90
        1
176
     1
 40
40.0
176
     1
 90
       11
176
     1
 62
     7
176
     1
 40
1.0
176
     1
 90
        1
176
     1
 90
        6
176
     1
 90
        2
176
     1
 62
     7
176
     1
 90
        6
176
     1
 90
        0
176
     1
 90
        0
176
     1
290
     0
176
     1
 90
        1
176
     1
 40
0.0
176
     1
 90
        0
176
     1
290
     0
176
     1
290
     1
176
     1
290
     1
176
     1
290
     0
176
     1
290
     0
176
     1
290
     0
176
     1
290
     0
176
     1
290
     0
176
     1
290
     0
176
     1
 90
       50
176
     1
 40
0.0
176
     1
 40
1.0
176
     1
 90
        0
176
     1
 62
    18
420
        0
176
     1
 90
       50
176
     1
 90
        3
176
     1
 62
     5
420
      255
176
     1
290
     0
176
     1
 90
       50
176
     1
 90
       50
176
     1
 90
       50
176
     1
290
     0
176
     1
 90
       50
176
     1
 62
   256
176
     0
 40
1.0
176
     0
 90
        2
176
     1
  1
strokes_ogs.tif
176
     1
290
     0
176
     1
 40
1.0
176
     1
 40
1.0
176
     1
  0
VISUALSTYLE
  5
2C8
102
{ACAD_REACTORS
330
2BB
102
}
330
2BB
100
AcDbVisualStyle
  2
Thicken
 70
    13
177
     3
291
     1
 70
    58
 90
        2
176
     1
 90
        2
176
     1
 90
        0
176
     1
 90
        0
176
     1
 40
0.6
176
     1
 40
30.0
176
     1
 62
     7
420
 16777215
176
     1
 90
        1
176
     1
 90
        4
176
     1
 62
     7
176
     1
 62
   257
176
     1
 90
        1
176
     1
 90
        1
176
     1
 40
1.0
176
     1
 90
       12
176
     1
 62
     7
176
     1
 40
1.0
176
     1
 90
        1
176
     1
 90
        6
176
     1
 90
        2
176
     1
 62
     7
176
     1
 90
        5
176
     1
 90
        0
176
     1
 90
        0
176
     1
290
     0
176
     1
 90
        1
176
     1
 40
0.0
176
     1
 90
        0
176
     1
290
     0
176
     1
290
     1
176
     1
290
     1
176
     1
290
     0
176
     1
290
     0
176
     1
290
     0
176
     1
290
     0
176
     1
290
     0
176
     1
290
     0
176
     1
 90
       50
176
     1
 40
0.0
176
     1
 40
1.0
176
     1
 90
        0
176
     1
 62
    18
420
        0
176
     1
 90
       50
176
     1
 90
        3
176
     1
 62
     5
420
      255
176
     1
290
     0
176
     1
 90
       50
176
     1
 90
       50
176
     1
 90
       50
176
     1
290
     0
176
     1
 90
       50
176
     1
 62
   256
176
     0
 40
1.0
176
     0
 90
        2
176
     1
  1
strokes_ogs.tif
176
     1
290
     0
176
     1
 40
1.0
176
     1
 40
1.0
176
     1
  0
VISUALSTYLE
  5
2C1
102
{ACAD_REACTORS
330
2BB
102
}
330
2BB
100
AcDbVisualStyle
  2
Wireframe
 70
     5
177
     3
291
     0
 70
    58
 90
        0
176
     1
 90
        2
176
     1
 90
        0
176
     1
 90
        0
176
     1
 40
0.6
176
     1
 40
30.0
176
     1
 62
     7
420
 16777215
176
     1
 90
        1
176
     1
 90
        4
176
     1
 62
     7
176
     1
 62
   257
176
     1
 90
        1
176
     1
 90
        1
176
     1
 40
1.0
176
     1
 90
        0
176
     1
 62
   257
176
     1
 40
1.0
176
     1
 90
        1
176
     1
 90
        6
176
     1
 90
        2
176
     1
 62
     7
176
     1
 90
        3
176
     1
 90
        0
176
     1
 90
        0
176
     1
290
     0
176
     1
 90
        1
176
     1
 40
0.0
176
     1
 90
        0
176
     1
290
     0
176
     1
290
     1
176
     1
290
     1
176
     1
290
     0
176
     1
290
     0
176
     1
290
     0
176
     1
290
     0
176
     1
290
     0
176
     1
290
     0
176
     1
 90
       50
176
     1
 40
0.0
176
     1
 40
1.0
176
     1
 90
        0
176
     1
 62
    18
420
        0
176
     1
 90
       50
176
     1
 90
        3
176
     1
 62
     5
420
      255
176
     1
290
     0
176
     1
 90
       50
176
     1
 90
       50
176
     1
 90
       50
176
     1
290
     0
176
     1
 90
       50
176
     1
 62
   256
176
     0
 40
1.0
176
     0
 90
        2
176
     1
  1
strokes_ogs.tif
176
     1
290
     0
176
     1
 40
1.0
176
     1
 40
1.0
176
     1
  0
VISUALSTYLE
  5
2D1
102
{ACAD_REACTORS
330
2BB
102
}
330
2BB
100
AcDbVisualStyle
  2
X-Ray
 70
    25
177
     3
291
     0
 70
    58
 90
        2
176
     1
 90
        2
176
     1
 90
        1
176
     1
 90
        1
176
     1
 40
0.5
176
     1
 40
30.0
176
     1
 62
     7
420
 16777215
176
     1
 90
        1
176
     1
 90
        0
176
     1
 62
     7
176
     1
 62
   257
176
     1
 90
        1
176
     1
 90
        1
176
     1
 40
1.0
176
     1
 90
        8
176
     1
 62
     7
176
     1
 40
1.0
176
     1
 90
        1
176
     1
 90
        6
176
     1
 90
        2
176
     1
 62
     7
176
     1
 90
        3
176
     1
 90
        0
176
     1
 90
        0
176
     1
290
     0
176
     1
 90
       13
176
     1
 40
0.0
176
     1
 90
        0
176
     1
290
     0
176
     1
290
     1
176
     1
290
     1
176
     1
290
     0
176
     1
290
     0
176
     1
290
     0
176
     1
290
     0
176
     1
290
     0
176
     1
290
     0
176
     1
 90
       50
176
     1
 40
0.0
176
     1
 40
1.0
176
     1
 90
        0
176
     1
 62
    18
420
        0
176
     1
 90
       50
176
     1
 90
        3
176
     1
 62
     5
420
      255
176
     1
290
     0
176
     1
 90
       50
176
     1
 90
       50
176
     1
 90
       50
176
     1
290
     0
176
     1
 90
       50
176
     1
 62
   256
176
     0
 40
1.0
176
     0
 90
        2
176
     1
  1
strokes_ogs.tif
176
     1
290
     0
176
     1
 40
1.0
176
     1
 40
1.0
176
     1
  0
DICTIONARYVAR
  5
2E0
102
{ACAD_REACTORS
330
2DF
102
}
330
2DF
100
DictionaryVariables
280
     0
  1
1:1
  0
DICTIONARYVAR
  5
2E2
102
{ACAD_REACTORS
330
2DF
102
}
330
2DF
100
DictionaryVariables
280
     0
  1
Standard
  0
DICTIONARYVAR
  5
2E1
102
{ACAD_REACTORS
330
2DF
102
}
330
2DF
100
DictionaryVariables
280
     0
  1
Standard
  0
DICTIONARYVAR
  5
2E3
102
{ACAD_REACTORS
330
2DF
102
}
330
2DF
100
DictionaryVariables
280
     0
  1
0
  0
DICTIONARY
  5
5EA
330
2D9
100
AcDbDictionary
280
     1
281
     1
  3
ACAD_ROUNDTRIP_2008_TABLESTYLE_CELLSTYLEMAP
360
5EB
  0
CELLSTYLEMAP
  5
5EB
102
{ACAD_REACTORS
330
5EA
102
}
330
5EA
100
AcDbCellStyleMap
 90
        3
300
CELLSTYLE
  1
TABLEFORMAT_BEGIN
 90
        5
170
     1
 91
        0
 92
    32768
 62
   257
 93
        1
300
CONTENTFORMAT
  1
CONTENTFORMAT_BEGIN
 90
        0
 91
        0
 92
        4
 93
        0
300

 40
0.0
140
1.0
 94
        5
 62
     0
340
11
144
6.0
309
CONTENTFORMAT_END
171
     1
301
MARGIN
  1
CELLMARGIN_BEGIN
 40
1.5
 40
1.5
 40
1.5
 40
1.5
 40
1.5
 40
1.5
309
CELLMARGIN_END
 94
        6
 95
        1
302
GRIDFORMAT
  1
GRIDFORMAT_BEGIN
 90
        0
 91
        1
 62
     0
 92
       -2
340
14
 93
        0
 40
0.045
309
GRIDFORMAT_END
 95
        2
302
GRIDFORMAT
  1
GRIDFORMAT_BEGIN
 90
        0
 91
        1
 62
     0
 92
       -2
340
14
 93
        0
 40
0.045
309
GRIDFORMAT_END
 95
        4
302
GRIDFORMAT
  1
GRIDFORMAT_BEGIN
 90
        0
 91
        1
 62
     0
 92
       -2
340
14
 93
        0
 40
0.045
309
GRIDFORMAT_END
 95
        8
302
GRIDFORMAT
  1
GRIDFORMAT_BEGIN
 90
        0
 91
        1
 62
     0
 92
       -2
340
14
 93
        0
 40
0.045
309
GRIDFORMAT_END
 95
       16
302
GRIDFORMAT
  1
GRIDFORMAT_BEGIN
 90
        0
 91
        1
 62
     0
 92
       -2
340
14
 93
        0
 40
0.045
309
GRIDFORMAT_END
 95
       32
302
GRIDFORMAT
  1
GRIDFORMAT_BEGIN
 90
        0
 91
        1
 62
     0
 92
       -2
340
14
 93
        0
 40
0.045
309
GRIDFORMAT_END
309
TABLEFORMAT_END
  1
CELLSTYLE_BEGIN
 90
        1
 91
        1
300
_TITLE
309
CELLSTYLE_END
300
CELLSTYLE
  1
TABLEFORMAT_BEGIN
 90
        5
170
     1
 91
        0
 92
        0
 62
   257
 93
        1
300
CONTENTFORMAT
  1
CONTENTFORMAT_BEGIN
 90
        0
 91
        0
 92
        4
 93
        0
300

 40
0.0
140
1.0
 94
        5
 62
     0
340
11
144
4.5
309
CONTENTFORMAT_END
171
     1
301
MARGIN
  1
CELLMARGIN_BEGIN
 40
1.5
 40
1.5
 40
1.5
 40
1.5
 40
1.5
 40
1.5
309
CELLMARGIN_END
 94
        6
 95
        1
302
GRIDFORMAT
  1
GRIDFORMAT_BEGIN
 90
        0
 91
        1
 62
     0
 92
       -2
340
14
 93
        0
 40
0.045
309
GRIDFORMAT_END
 95
        2
302
GRIDFORMAT
  1
GRIDFORMAT_BEGIN
 90
        0
 91
        1
 62
     0
 92
       -2
340
14
 93
        0
 40
0.045
309
GRIDFORMAT_END
 95
        4
302
GRIDFORMAT
  1
GRIDFORMAT_BEGIN
 90
        0
 91
        1
 62
     0
 92
       -2
340
14
 93
        0
 40
0.045
309
GRIDFORMAT_END
 95
        8
302
GRIDFORMAT
  1
GRIDFORMAT_BEGIN
 90
        0
 91
        1
 62
     0
 92
       -2
340
14
 93
        0
 40
0.045
309
GRIDFORMAT_END
 95
       16
302
GRIDFORMAT
  1
GRIDFORMAT_BEGIN
 90
        0
 91
        1
 62
     0
 92
       -2
340
14
 93
        0
 40
0.045
309
GRIDFORMAT_END
 95
       32
302
GRIDFORMAT
  1
GRIDFORMAT_BEGIN
 90
        0
 91
        1
 62
     0
 92
       -2
340
14
 93
        0
 40
0.045
309
GRIDFORMAT_END
309
TABLEFORMAT_END
  1
CELLSTYLE_BEGIN
 90
        2
 91
        1
300
_HEADER
309
CELLSTYLE_END
300
CELLSTYLE
  1
TABLEFORMAT_BEGIN
 90
        5
170
     1
 91
        0
 92
        0
 62
   257
 93
        1
300
CONTENTFORMAT
  1
CONTENTFORMAT_BEGIN
 90
        0
 91
        0
 92
        4
 93
        0
300

 40
0.0
140
1.0
 94
        2
 62
     0
340
11
144
4.5
309
CONTENTFORMAT_END
171
     1
301
MARGIN
  1
CELLMARGIN_BEGIN
 40
1.5
 40
1.5
 40
1.5
 40
1.5
 40
1.5
 40
1.5
309
CELLMARGIN_END
 94
        6
 95
        1
302
GRIDFORMAT
  1
GRIDFORMAT_BEGIN
 90
        0
 91
        1
 62
     0
 92
       -2
340
14
 93
        0
 40
0.045
309
GRIDFORMAT_END
 95
        2
302
GRIDFORMAT
  1
GRIDFORMAT_BEGIN
 90
        0
 91
        1
 62
     0
 92
       -2
340
14
 93
        0
 40
0.045
309
GRIDFORMAT_END
 95
        4
302
GRIDFORMAT
  1
GRIDFORMAT_BEGIN
 90
        0
 91
        1
 62
     0
 92
       -2
340
14
 93
        0
 40
0.045
309
GRIDFORMAT_END
 95
        8
302
GRIDFORMAT
  1
GRIDFORMAT_BEGIN
 90
        0
 91
        1
 62
     0
 92
       -2
340
14
 93
        0
 40
0.045
309
GRIDFORMAT_END
 95
       16
302
GRIDFORMAT
  1
GRIDFORMAT_BEGIN
 90
        0
 91
        1
 62
     0
 92
       -2
340
14
 93
        0
 40
0.045
309
GRIDFORMAT_END
 95
       32
302
GRIDFORMAT
  1
GRIDFORMAT_BEGIN
 90
        0
 91
        1
 62
     0
 92
       -2
340
14
 93
        0
 40
0.045
309
GRIDFORMAT_END
309
TABLEFORMAT_END
  1
CELLSTYLE_BEGIN
 90
        3
 91
        2
300
_DATA
309
CELLSTYLE_END
  0
ENDSEC
  0
EOF
