  0
SECTION
  2
HEADER
  9
$ACADVER
  1
AC1015
  9
$ACADMAINTVER
 70
     6
  9
$DWGCODEPAGE
  3
ANSI_1252
  9
$INSBASE
 10
0.0
 20
0.0
 30
0.0
  9
$EXTMIN
 10
0.0
 20
0.0
 30
0.0
  9
$EXTMAX
 10
693.0
 20
980.1
 30
0.0
  9
$LIMMIN
 10
0.0
 20
0.0
  9
$LIMMAX
 10
693.0
 20
980.1
  9
$ORTHOMODE
 70
     0
  9
$REGENMODE
 70
     1
  9
$FILLMODE
 70
     1
  9
$QTEXTMODE
 70
     0
  9
$MIRRTEXT
 70
     1
  9
$LTSCALE
 40
3.3
  9
$ATTMODE
 70
     1
  9
$TEXTSIZE
 40
9.24
  9
$TRACEWID
 40
1.0
  9
$TEXTSTYLE
  7
Standard
  9
$CLAYER
  8
0
  9
$CELTYPE
  6
ByLayer
  9
$CECOLOR
 62
   256
  9
$CELTSCALE
 40
1.0
  9
$DISPSILH
 70
     0
  9
$DIMSCALE
 40
1.0
  9
$DIMASZ
 40
10.56
  9
$DIMEXO
 40
0.33
  9
$DIMDLI
 40
3.75
  9
$DIMRND
 40
0.0
  9
$DIMDLE
 40
0.0
  9
$DIMEXE
 40
3.3
  9
$DIMTP
 40
0.0
  9
$DIMTM
 40
0.0
  9
$DIMTXT
 40
10.56
  9
$DIMCEN
 40
2.5
  9
$DIMTSZ
 40
0.0
  9
$DIMTOL
 70
     0
  9
$DIMLIM
 70
     0
  9
$DIMTIH
 70
     1
  9
$DIMTOH
 70
     1
  9
$DIMSE1
 70
     0
  9
$DIMSE2
 70
     0
  9
$DIMTAD
 70
     1
  9
$DIMZIN
 70
     0
  9
$DIMBLK
  1

  9
$DIMASO
 70
     1
  9
$DIMSHO
 70
     1
  9
$DIMPOST
  1

  9
$DIMAPOST
  1

  9
$DIMALT
 70
     0
  9
$DIMALTD
 70
     3
  9
$DIMALTF
 40
0.0393700787
  9
$DIMLFAC
 40
1.0
  9
$DIMTOFL
 70
     1
  9
$DIMTVP
 40
0.0
  9
$DIMTIX
 70
     0
  9
$DIMSOXD
 70
     0
  9
$DIMSAH
 70
     0
  9
$DIMBLK1
  1

  9
$DIMBLK2
  1

  9
$DIMSTYLE
  2
ISO-25
  9
$DIMCLRD
 70
     0
  9
$DIMCLRE
 70
     0
  9
$DIMCLRT
 70
     0
  9
$DIMTFAC
 40
1.0
  9
$DIMGAP
 40
6.6
  9
$DIMJUST
 70
     0
  9
$DIMSD1
 70
     0
  9
$DIMSD2
 70
     0
  9
$DIMTOLJ
 70
     0
  9
$DIMTZIN
 70
     0
  9
$DIMALTZ
 70
     0
  9
$DIMALTTZ
 70
     0
  9
$DIMUPT
 70
     0
  9
$DIMDEC
 70
     2
  9
$DIMTDEC
 70
     2
  9
$DIMALTU
 70
     2
  9
$DIMALTTD
 70
     3
  9
$DIMTXSTY
  7
Standard
  9
$DIMAUNIT
 70
     0
  9
$DIMADEC
 70
     2
  9
$DIMALTRND
 40
0.0
  9
$DIMAZIN
 70
     0
  9
$DIMDSEP
 70
    44
  9
$DIMATFIT
 70
     3
  9
$DIMFRAC
 70
     0
  9
$DIMLDRBLK
  1

  9
$DIMLUNIT
 70
     2
  9
$DIMLWD
 70
    -2
  9
$DIMLWE
 70
    -2
  9
$DIMTMOVE
 70
     0
  9
$LUNITS
 70
     2
  9
$LUPREC
 70
     2
  9
$SKETCHINC
 40
1.0
  9
$FILLETRAD
 40
10.0
  9
$AUNITS
 70
     0
  9
$AUPREC
 70
     2
  9
$MENU
  1
.
  9
$ELEVATION
 40
0.0
  9
$PELEVATION
 40
0.0
  9
$THICKNESS
 40
0.0
  9
$LIMCHECK
 70
     0
  9
$CHAMFERA
 40
0.0
  9
$CHAMFERB
 40
0.0
  9
$CHAMFERC
 40
0.0
  9
$CHAMFERD
 40
0.0
  9
$SKPOLY
 70
     0
  9
$TDCREATE
 40
2458358.613372164
  9
$TDUCREATE
 40
2458358.530038831
  9
$TDUPDATE
 40
2458358.613374537
  9
$TDUUPDATE
 40
2458358.530041204
  9
$TDINDWG
 40
0.0000000116
  9
$TDUSRTIMER
 40
0.0000000116
  9
$USRTIMER
 70
     1
  9
$ANGBASE
 50
0.0
  9
$ANGDIR
 70
     0
  9
$PDMODE
 70
     0
  9
$PDSIZE
 40
-1.0
  9
$PLINEWID
 40
0.0
  9
$SPLFRAME
 70
     0
  9
$SPLINETYPE
 70
     6
  9
$SPLINESEGS
 70
     8
  9
$HANDSEED
  5
45F
  9
$SURFTAB1
 70
     6
  9
$SURFTAB2
 70
     6
  9
$SURFTYPE
 70
     6
  9
$SURFU
 70
     6
  9
$SURFV
 70
     6
  9
$UCSBASE
  2

  9
$UCSNAME
  2

  9
$UCSORG
 10
0.0
 20
0.0
 30
0.0
  9
$UCSXDIR
 10
1.0
 20
0.0
 30
0.0
  9
$UCSYDIR
 10
0.0
 20
1.0
 30
0.0
  9
$UCSORTHOREF
  2

  9
$UCSORTHOVIEW
 70
     0
  9
$UCSORGTOP
 10
0.0
 20
0.0
 30
0.0
  9
$UCSORGBOTTOM
 10
0.0
 20
0.0
 30
0.0
  9
$UCSORGLEFT
 10
0.0
 20
0.0
 30
0.0
  9
$UCSORGRIGHT
 10
0.0
 20
0.0
 30
0.0
  9
$UCSORGFRONT
 10
0.0
 20
0.0
 30
0.0
  9
$UCSORGBACK
 10
0.0
 20
0.0
 30
0.0
  9
$PUCSBASE
  2

  9
$PUCSNAME
  2

  9
$PUCSORG
 10
0.0
 20
0.0
 30
0.0
  9
$PUCSXDIR
 10
1.0
 20
0.0
 30
0.0
  9
$PUCSYDIR
 10
0.0
 20
1.0
 30
0.0
  9
$PUCSORTHOREF
  2

  9
$PUCSORTHOVIEW
 70
     0
  9
$PUCSORGTOP
 10
0.0
 20
0.0
 30
0.0
  9
$PUCSORGBOTTOM
 10
0.0
 20
0.0
 30
0.0
  9
$PUCSORGLEFT
 10
0.0
 20
0.0
 30
0.0
  9
$PUCSORGRIGHT
 10
0.0
 20
0.0
 30
0.0
  9
$PUCSORGFRONT
 10
0.0
 20
0.0
 30
0.0
  9
$PUCSORGBACK
 10
0.0
 20
0.0
 30
0.0
  9
$USERI1
 70
     0
  9
$USERI2
 70
     0
  9
$USERI3
 70
     0
  9
$USERI4
 70
     0
  9
$USERI5
 70
     0
  9
$USERR1
 40
0.0
  9
$USERR2
 40
0.0
  9
$USERR3
 40
0.0
  9
$USERR4
 40
0.0
  9
$USERR5
 40
0.0
  9
$WORLDVIEW
 70
     1
  9
$SHADEDGE
 70
     3
  9
$SHADEDIF
 70
    70
  9
$TILEMODE
 70
     1
  9
$MAXACTVP
 70
    64
  9
$PINSBASE
 10
0.0
 20
0.0
 30
0.0
  9
$PLIMCHECK
 70
     0
  9
$PEXTMIN
 10
1.0000000000E+20
 20
1.0000000000E+20
 30
1.0000000000E+20
  9
$PEXTMAX
 10
-1.0000000000E+20
 20
-1.0000000000E+20
 30
-1.0000000000E+20
  9
$PLIMMIN
 10
0.0
 20
0.0
  9
$PLIMMAX
 10
420.0
 20
297.0
  9
$UNITMODE
 70
     0
  9
$VISRETAIN
 70
     1
  9
$PLINEGEN
 70
     0
  9
$PSLTSCALE
 70
     1
  9
$TREEDEPTH
 70
  3020
  9
$CMLSTYLE
  2
Standard
  9
$CMLJUST
 70
     0
  9
$CMLSCALE
 40
20.0
  9
$PROXYGRAPHICS
 70
     1
  9
$MEASUREMENT
 70
     1
  9
$CELWEIGHT
370
    -1
  9
$ENDCAPS
280
     0
  9
$JOINSTYLE
280
     0
  9
$LWDISPLAY
290
     1
  9
$INSUNITS
 70
     4
  9
$HYPERLINKBASE
  1

  9
$STYLESHEET
  1

  9
$XEDIT
290
     1
  9
$CEPSNTYPE
380
     0
  9
$PSTYLEMODE
290
     1
  9
$FINGERPRINTGUID
  2
{8A2BB7EE-6C95-4999-910E-0DF350A662FA}
  9
$VERSIONGUID
  2
{FAEB1C32-E019-11D5-929B-00C0DF256EC4}
  9
$EXTNAMES
290
     1
  9
$PSVPSCALE
 40
0.0
  9
$OLESTARTUP
290
     0
  0
ENDSEC
  0
SECTION
  2
CLASSES
  0
CLASS
  1
ACDBDICTIONARYWDFLT
  2
AcDbDictionaryWithDefault
  3
ObjectDBX Classes
 90
        0
280
     0
281
     0
  0
CLASS
  1
VISUALSTYLE
  2
AcDbVisualStyle
  3
ObjectDBX Classes
 90
     4095
280
     0
281
     0
  0
CLASS
  1
MATERIAL
  2
AcDbMaterial
  3
ObjectDBX Classes
 90
     1153
280
     0
281
     0
  0
CLASS
  1
SCALE
  2
AcDbScale
  3
ObjectDBX Classes
 90
     1153
280
     0
281
     0
  0
CLASS
  1
TABLESTYLE
  2
AcDbTableStyle
  3
ObjectDBX Classes
 90
     4095
280
     0
281
     0
  0
CLASS
  1
MLEADERSTYLE
  2
AcDbMLeaderStyle
  3
ACDB_MLEADERSTYLE_CLASS
 90
     4095
280
     0
281
     0
  0
CLASS
  1
SUN
  2
AcDbSun
  3
SCENEOE
 90
     1153
280
     0
281
     0
  0
CLASS
  1
ACDBPLACEHOLDER
  2
AcDbPlaceHolder
  3
ObjectDBX Classes
 90
        0
280
     0
281
     0
  0
CLASS
  1
LAYOUT
  2
AcDbLayout
  3
ObjectDBX Classes
 90
        0
280
     0
281
     0
  0
ENDSEC
  0
SECTION
  2
TABLES
  0
TABLE
  2
VPORT
  5
8
330
0
100
AcDbSymbolTable
 70
     1
  0
VPORT
  5
29
330
8
100
AcDbSymbolTableRecord
100
AcDbViewportTableRecord
  2
*Active
 70
     0
 10
0.0
 20
0.0
 11
1.0
 21
1.0
 12
346.5
 22
490.05
 13
0.0
 23
0.0
 14
10.0
 24
10.0
 15
10.0
 25
10.0
 16
0.0
 26
0.0
 36
1.0
 17
0.0
 27
0.0
 37
0.0
 40
980.1
 41
0.7070707071
 42
50.0
 43
0.0
 44
0.0
 50
0.0
 51
0.0
 71
     0
 72
  2000
 73
     1
 74
     3
 75
     0
 76
     0
 77
     0
 78
     0
281
     0
 65
     1
110
0.0
120
0.0
130
0.0
111
1.0
121
0.0
131
0.0
112
0.0
122
1.0
132
0.0
 79
     0
146
0.0
  0
ENDTAB
  0
TABLE
  2
LTYPE
  5
5
330
0
100
AcDbSymbolTable
 70
     6
  0
LTYPE
  5
14
330
5
100
AcDbSymbolTableRecord
100
AcDbLinetypeTableRecord
  2
ByBlock
 70
     0
  3

 72
    65
 73
     0
 40
0.0
  0
LTYPE
  5
15
330
5
100
AcDbSymbolTableRecord
100
AcDbLinetypeTableRecord
  2
ByLayer
 70
     0
  3

 72
    65
 73
     0
 40
0.0
  0
LTYPE
  5
16
330
5
100
AcDbSymbolTableRecord
100
AcDbLinetypeTableRecord
  2
Continuous
 70
     0
  3
Solid line
 72
    65
 73
     0
 40
0.0
  0
LTYPE
  5
6E
330
5
100
AcDbSymbolTableRecord
100
AcDbLinetypeTableRecord
  2
HIDDEN
 70
     0
  3
Hidden __ __ __ __ __ __ __ __ __ __ __ __ __ __
 72
    65
 73
     2
 40
1.905
 49
1.27
 74
     0
 49
-0.635
 74
     0
  0
LTYPE
  5
6F
330
5
100
AcDbSymbolTableRecord
100
AcDbLinetypeTableRecord
  2
PHANTOM
 70
     0
  3
Phantom ______  __  __  ______  __  __  ______
 72
    65
 73
     6
 40
12.7
 49
6.35
 74
     0
 49
-1.27
 74
     0
 49
1.27
 74
     0
 49
-1.27
 74
     0
 49
1.27
 74
     0
 49
-1.27
 74
     0
  0
LTYPE
  5
70
330
5
100
AcDbSymbolTableRecord
100
AcDbLinetypeTableRecord
  2
CENTER
 70
     0
  3
Center ____ _ ____ _ ____ _ ____ _ ____ _ ____
 72
    65
 73
     4
 40
10.16
 49
6.35
 74
     0
 49
-1.27
 74
     0
 49
1.27
 74
     0
 49
-1.27
 74
     0
  0
LTYPE
  5
71
330
5
100
AcDbSymbolTableRecord
100
AcDbLinetypeTableRecord
  2
CENTERX2
 70
     0
  3
Center (2x) ________  __  ________  __  _____
 72
    65
 73
     4
 40
20.32
 49
12.7
 74
     0
 49
-2.54
 74
     0
 49
2.54
 74
     0
 49
-2.54
 74
     0
  0
LTYPE
  5
72
330
5
100
AcDbSymbolTableRecord
100
AcDbLinetypeTableRecord
  2
DOT2
 70
     0
  3
Dot (.5x) ........................................
 72
    65
 73
     2
 40
0.635
 49
0.0
 74
     0
 49
-0.635
 74
     0
  0
ENDTAB
  0
TABLE
  2
LAYER
  5
2
330
0
100
AcDbSymbolTable
 70
     2
  0
LAYER
  5
10
330
2
100
AcDbSymbolTableRecord
100
AcDbLayerTableRecord
  2
0
 70
     0
 62
     7
  6
Continuous
370
    -3
390
F
  0
LAYER
  5
73
330
2
100
AcDbSymbolTableRecord
100
AcDbLayerTableRecord
  2
FORMAT
 70
     0
 62
     7
  6
Continuous
370
    -3
390
F
  0
ENDTAB
  0
TABLE
  2
STYLE
  5
3
330
0
100
AcDbSymbolTable
 70
     2
  0
STYLE
  5
11
330
3
100
AcDbSymbolTableRecord
100
AcDbTextStyleTableRecord
  2
Standard
 70
     0
 40
0.0
 41
1.0
 50
0.0
 71
     0
 42
9.24
  3
txt
  4

  0
STYLE
  5
74
330
3
100
AcDbSymbolTableRecord
100
AcDbTextStyleTableRecord
  2
SLDTEXTSTYLE0
 70
     0
 40
0.0
 41
0.75
 50
0.0
 71
     0
 42
9.24
  3
TXT
  4

  0
ENDTAB
  0
TABLE
  2
VIEW
  5
6
330
0
100
AcDbSymbolTable
 70
     0
  0
ENDTAB
  0
TABLE
  2
UCS
  5
7
330
0
100
AcDbSymbolTable
 70
     0
  0
ENDTAB
  0
TABLE
  2
APPID
  5
9
330
0
100
AcDbSymbolTable
 70
     1
  0
APPID
  5
12
330
9
100
AcDbSymbolTableRecord
100
AcDbRegAppTableRecord
  2
ACAD
 70
     0
  0
ENDTAB
  0
TABLE
  2
DIMSTYLE
  5
A
330
0
100
AcDbSymbolTable
 70
     7
100
AcDbDimStyleTable
  0
DIMSTYLE
105
27
330
A
100
AcDbSymbolTableRecord
100
AcDbDimStyleTableRecord
  2
ISO-25
 70
     0
 41
2.5
 42
0.625
 43
3.75
 44
1.25
 73
     0
 74
     0
 77
     1
 78
     8
140
2.5
141
2.5
143
0.0393700787
147
0.625
171
     3
172
     1
178
     0
271
     2
272
     2
274
     3
278
    44
283
     0
284
     8
340
11
  0
DIMSTYLE
105
110
102
{ACAD_REACTORS
330
10F
330
11A
330
131
330
28A
102
}
330
A
100
AcDbSymbolTableRecord
100
AcDbDimStyleTableRecord
  2
SLDDIMSTYLE0
 70
     0
 41
10.56
 44
0.0
 45
0.000000001
 73
     0
 74
     0
 77
     1
 78
    12
 79
     3
140
10.56
147
2.64
173
     1
178
     0
271
     2
272
     2
276
     2
284
    12
340
74
  0
DIMSTYLE
105
125
102
{ACAD_REACTORS
330
124
330
14C
330
161
330
17A
330
187
330
27E
330
29E
330
2B7
102
}
330
A
100
AcDbSymbolTableRecord
100
AcDbDimStyleTableRecord
  2
SLDDIMSTYLE1
 70
     0
 41
10.56
 44
0.0
 45
0.000000001
 73
     0
 74
     0
 77
     1
 78
    12
 79
     3
140
10.56
147
2.64
172
     1
173
     1
178
     0
271
     2
272
     2
276
     2
284
    12
289
     0
340
74
  0
DIMSTYLE
105
13C
102
{ACAD_REACTORS
330
13B
102
}
330
A
100
AcDbSymbolTableRecord
100
AcDbDimStyleTableRecord
  2
SLDDIMSTYLE2
 70
     0
 41
10.56
 44
0.0
 45
0.000000001
 47
1.0
 71
     1
 73
     0
 74
     0
 77
     1
 78
    12
 79
     3
140
10.56
147
2.64
172
     1
173
     1
178
     0
271
     0
272
     0
276
     2
284
    12
289
     0
340
74
  0
DIMSTYLE
105
157
102
{ACAD_REACTORS
330
156
330
294
102
}
330
A
100
AcDbSymbolTableRecord
100
AcDbDimStyleTableRecord
  2
SLDDIMSTYLE3
 70
     0
 41
10.56
 44
0.0
 45
0.000000001
 73
     0
 74
     0
 77
     1
 78
    12
 79
     3
140
10.56
147
2.64
173
     1
178
     0
271
     0
272
     0
276
     2
284
    12
340
74
  0
DIMSTYLE
105
16E
102
{ACAD_REACTORS
330
16D
330
2AA
102
}
330
A
100
AcDbSymbolTableRecord
100
AcDbDimStyleTableRecord
  2
SLDDIMSTYLE4
 70
     0
 41
10.56
 44
0.0
 45
0.000000001
 73
     0
 74
     0
 77
     1
 78
    12
 79
     3
140
10.56
147
2.64
172
     1
173
     1
178
     0
271
     0
272
     0
276
     2
284
    12
289
     0
340
74
  0
DIMSTYLE
105
19A
330
A
100
AcDbSymbolTableRecord
100
AcDbDimStyleTableRecord
  2
SLDDIMSTYLE5
 70
     0
 41
10.56
 44
0.0
 45
0.000000001
146
10.56
147
0.0
173
     1
178
     0
271
     0
272
     0
276
     2
340
11
  0
ENDTAB
  0
TABLE
  2
BLOCK_RECORD
  5
1
330
0
100
AcDbSymbolTable
 70
    21
  0
BLOCK_RECORD
  5
1F
330
1
100
AcDbSymbolTableRecord
100
AcDbBlockTableRecord
  2
*Model_Space
340
22
  0
BLOCK_RECORD
  5
1B
330
1
100
AcDbSymbolTableRecord
100
AcDbBlockTableRecord
  2
*Paper_Space
340
1E
  0
BLOCK_RECORD
  5
23
330
1
100
AcDbSymbolTableRecord
100
AcDbBlockTableRecord
  2
*Paper_Space0
340
26
  0
BLOCK_RECORD
  5
111
330
1
100
AcDbSymbolTableRecord
100
AcDbBlockTableRecord
  2
_D
340
0
  0
BLOCK_RECORD
  5
11B
330
1
100
AcDbSymbolTableRecord
100
AcDbBlockTableRecord
  2
_D_1
340
0
  0
BLOCK_RECORD
  5
126
330
1
100
AcDbSymbolTableRecord
100
AcDbBlockTableRecord
  2
_D_2
340
0
  0
BLOCK_RECORD
  5
132
330
1
100
AcDbSymbolTableRecord
100
AcDbBlockTableRecord
  2
_D_3
340
0
  0
BLOCK_RECORD
  5
13D
330
1
100
AcDbSymbolTableRecord
100
AcDbBlockTableRecord
  2
_D_4
340
0
  0
BLOCK_RECORD
  5
14D
330
1
100
AcDbSymbolTableRecord
100
AcDbBlockTableRecord
  2
_D_5
340
0
  0
BLOCK_RECORD
  5
158
330
1
100
AcDbSymbolTableRecord
100
AcDbBlockTableRecord
  2
_D_6
340
0
  0
BLOCK_RECORD
  5
162
330
1
100
AcDbSymbolTableRecord
100
AcDbBlockTableRecord
  2
_D_7
340
0
  0
BLOCK_RECORD
  5
16F
330
1
100
AcDbSymbolTableRecord
100
AcDbBlockTableRecord
  2
_D_8
340
0
  0
BLOCK_RECORD
  5
17B
330
1
100
AcDbSymbolTableRecord
100
AcDbBlockTableRecord
  2
_D_9
340
0
  0
BLOCK_RECORD
  5
188
330
1
100
AcDbSymbolTableRecord
100
AcDbBlockTableRecord
  2
_D_10
340
0
  0
BLOCK_RECORD
  5
193
330
1
100
AcDbSymbolTableRecord
100
AcDbBlockTableRecord
  2
SW_NOTE_0
340
0
102
{BLKREFS
331
199
102
}
  0
BLOCK_RECORD
  5
19C
330
1
100
AcDbSymbolTableRecord
100
AcDbBlockTableRecord
  2
SW_CENTERMARKSYMBOL_0
340
0
102
{BLKREFS
331
1A7
102
}
  0
BLOCK_RECORD
  5
1A8
330
1
100
AcDbSymbolTableRecord
100
AcDbBlockTableRecord
  2
SW_CENTERMARKSYMBOL_1
340
0
102
{BLKREFS
331
1B3
102
}
  0
BLOCK_RECORD
  5
27F
330
1
100
AcDbSymbolTableRecord
100
AcDbBlockTableRecord
  2
_D_11
340
0
  0
BLOCK_RECORD
  5
28B
330
1
100
AcDbSymbolTableRecord
100
AcDbBlockTableRecord
  2
_D_12
340
0
  0
BLOCK_RECORD
  5
295
330
1
100
AcDbSymbolTableRecord
100
AcDbBlockTableRecord
  2
_D_13
340
0
  0
BLOCK_RECORD
  5
29F
330
1
100
AcDbSymbolTableRecord
100
AcDbBlockTableRecord
  2
_D_14
340
0
  0
BLOCK_RECORD
  5
2AB
330
1
100
AcDbSymbolTableRecord
100
AcDbBlockTableRecord
  2
_D_15
340
0
  0
BLOCK_RECORD
  5
2B8
330
1
100
AcDbSymbolTableRecord
100
AcDbBlockTableRecord
  2
_D_16
340
0
  0
ENDTAB
  0
ENDSEC
  0
SECTION
  2
BLOCKS
  0
BLOCK
  5
20
330
1F
100
AcDbEntity
  8
0
100
AcDbBlockBegin
  2
*Model_Space
 70
     0
 10
0.0
 20
0.0
 30
0.0
  3
*Model_Space
  1

  0
ENDBLK
  5
21
330
1F
100
AcDbEntity
  8
0
100
AcDbBlockEnd
  0
BLOCK
  5
1C
330
1B
100
AcDbEntity
 67
     1
  8
0
100
AcDbBlockBegin
  2
*Paper_Space
 70
     0
 10
0.0
 20
0.0
 30
0.0
  3
*Paper_Space
  1

  0
ENDBLK
  5
1D
330
1B
100
AcDbEntity
 67
     1
  8
0
100
AcDbBlockEnd
  0
BLOCK
  5
24
330
23
100
AcDbEntity
  8
0
100
AcDbBlockBegin
  2
*Paper_Space0
 70
     0
 10
0.0
 20
0.0
 30
0.0
  3
*Paper_Space0
  1

  0
ENDBLK
  5
25
330
23
100
AcDbEntity
  8
0
100
AcDbBlockEnd
  0
BLOCK
  5
112
330
111
100
AcDbEntity
  8
0
100
AcDbBlockBegin
  2
_D
 70
     0
 10
0.0
 20
0.0
 30
0.0
  3
_D
  1

  0
SOLID
  5
114
330
111
100
AcDbEntity
  8
0
  6
Continuous
 62
     7
370
    18
100
AcDbTrace
 10
187.1629143187
 20
880.5158448196
 30
0.0
 11
176.6029143187
 21
882.1404602042
 31
0.0
 12
176.6029143187
 22
878.891229435
 32
0.0
 13
176.6029143187
 23
878.891229435
 33
0.0
  0
SOLID
  5
115
330
111
100
AcDbEntity
  8
0
  6
Continuous
 62
     7
370
    18
100
AcDbTrace
 10
107.6629143187
 20
880.5158448196
 30
0.0
 11
118.2229143187
 21
878.891229435
 31
0.0
 12
118.2229143187
 22
882.1404602042
 32
0.0
 13
118.2229143187
 23
882.1404602042
 33
0.0
  0
LINE
  5
116
330
111
100
AcDbEntity
  8
0
  6
Continuous
 62
     7
370
    18
100
AcDbLine
 10
187.1629143187
 20
785.6492872957
 30
0.0
 11
187.1629143187
 21
883.8158448196
 31
0.0
  0
LINE
  5
117
330
111
100
AcDbEntity
  8
0
  6
Continuous
 62
     7
370
    18
100
AcDbLine
 10
107.6629143187
 20
758.2458448196
 30
0.0
 11
107.6629143187
 21
883.8158448196
 31
0.0
  0
LINE
  5
118
330
111
100
AcDbEntity
  8
0
  6
Continuous
 62
     7
370
    18
100
AcDbLine
 10
187.1629143187
 20
880.5158448196
 30
0.0
 11
107.6629143187
 21
880.5158448196
 31
0.0
  0
MTEXT
  5
119
330
111
100
AcDbEntity
  8
0
  6
Continuous
 62
     7
370
    18
100
AcDbMText
 10
130.4679900175
 20
894.1283995753
 30
0.0
 40
10.56
 41
0.0
 71
     1
 72
     1
  1
79,5
  7
SLDTEXTSTYLE0
 73
     1
 44
1.0
  0
ENDBLK
  5
113
330
111
100
AcDbEntity
  8
0
100
AcDbBlockEnd
  0
BLOCK
  5
11C
330
11B
100
AcDbEntity
  8
0
100
AcDbBlockBegin
  2
_D_1
 70
     0
 10
0.0
 20
0.0
 30
0.0
  3
_D_1
  1

  0
SOLID
  5
11E
330
11B
100
AcDbEntity
  8
0
  6
Continuous
 62
     7
370
    18
100
AcDbTrace
 10
107.6629143187
 20
908.3676573161
 30
0.0
 11
118.2229143187
 21
906.7430419315
 31
0.0
 12
118.2229143187
 22
909.9922727007
 32
0.0
 13
118.2229143187
 23
909.9922727007
 33
0.0
  0
SOLID
  5
11F
330
11B
100
AcDbEntity
  8
0
  6
Continuous
 62
     7
370
    18
100
AcDbTrace
 10
202.4747790548
 20
908.3676573161
 30
0.0
 11
191.9147790548
 21
909.9922727007
 31
0.0
 12
191.9147790548
 22
906.7430419315
 32
0.0
 13
191.9147790548
 23
906.7430419315
 33
0.0
  0
LINE
  5
120
330
11B
100
AcDbEntity
  8
0
  6
Continuous
 62
     7
370
    18
100
AcDbLine
 10
107.6629143187
 20
758.2458448196
 30
0.0
 11
107.6629143187
 21
911.6676573161
 31
0.0
  0
LINE
  5
121
330
11B
100
AcDbEntity
  8
0
  6
Continuous
 62
     7
370
    18
100
AcDbLine
 10
202.4747790548
 20
757.817273391
 30
0.0
 11
202.4747790548
 21
911.6676573161
 31
0.0
  0
LINE
  5
122
330
11B
100
AcDbEntity
  8
0
  6
Continuous
 62
     7
370
    18
100
AcDbLine
 10
107.6629143187
 20
908.3676573161
 30
0.0
 11
202.4747790548
 21
908.3676573161
 31
0.0
  0
MTEXT
  5
123
330
11B
100
AcDbEntity
  8
0
  6
Continuous
 62
     7
370
    18
100
AcDbMText
 10
147.10691433
 20
921.9802120719
 30
0.0
 40
10.56
 41
0.0
 71
     1
 72
     1
  1
94,81
  7
SLDTEXTSTYLE0
 73
     1
 44
1.0
  0
ENDBLK
  5
11D
330
11B
100
AcDbEntity
  8
0
100
AcDbBlockEnd
  0
BLOCK
  5
127
330
126
100
AcDbEntity
  8
0
100
AcDbBlockBegin
  2
_D_2
 70
     0
 10
0.0
 20
0.0
 30
0.0
  3
_D_2
  1

  0
SOLID
  5
129
330
126
100
AcDbEntity
  8
0
  6
Continuous
 62
     7
370
    18
100
AcDbTrace
 10
110.6629143187
 20
616.2529091609
 30
0.0
 11
121.2229143187
 21
614.6282937763
 31
0.0
 12
121.2229143187
 22
617.8775245455
 32
0.0
 13
121.2229143187
 23
617.8775245455
 33
0.0
  0
SOLID
  5
12A
330
126
100
AcDbEntity
  8
0
  6
Continuous
 62
     7
370
    18
100
AcDbTrace
 10
107.6629143187
 20
616.2529091609
 30
0.0
 11
97.1029143187
 21
617.8775245455
 31
0.0
 12
97.1029143187
 22
614.6282937763
 32
0.0
 13
97.1029143187
 23
614.6282937763
 33
0.0
  0
LINE
  5
12B
330
126
100
AcDbEntity
  8
0
  6
Continuous
 62
     7
370
    18
100
AcDbLine
 10
110.6629143187
 20
656.6695779305
 30
0.0
 11
110.6629143187
 21
612.9529091609
 31
0.0
  0
LINE
  5
12C
330
126
100
AcDbEntity
  8
0
  6
Continuous
 62
     7
370
    18
100
AcDbLine
 10
107.6629143187
 20
650.9156727681
 30
0.0
 11
107.6629143187
 21
612.9529091609
 31
0.0
  0
LINE
  5
12D
330
126
100
AcDbEntity
  8
0
  6
Continuous
 62
     7
370
    18
100
AcDbLine
 10
110.6629143187
 20
616.2529091609
 30
0.0
 11
130.9706066264
 21
616.2529091609
 31
0.0
  0
LINE
  5
12E
330
126
100
AcDbEntity
  8
0
  6
Continuous
 62
     7
370
    18
100
AcDbLine
 10
110.6629143187
 20
616.2529091609
 30
0.0
 11
107.6629143187
 21
616.2529091609
 31
0.0
  0
LINE
  5
12F
330
126
100
AcDbEntity
  8
0
  6
Continuous
 62
     7
370
    18
100
AcDbLine
 10
107.6629143187
 20
616.2529091609
 30
0.0
 11
69.6884180161
 21
616.2529091609
 31
0.0
  0
MTEXT
  5
130
330
126
100
AcDbEntity
  8
0
  6
Continuous
 62
     7
370
    18
100
AcDbMText
 10
69.6884180161
 20
629.8654639166
 30
0.0
 40
10.56
 41
0.0
 71
     1
 72
     1
  1
3
  7
SLDTEXTSTYLE0
 73
     1
 44
1.0
  0
ENDBLK
  5
128
330
126
100
AcDbEntity
  8
0
100
AcDbBlockEnd
  0
BLOCK
  5
133
330
132
100
AcDbEntity
  8
0
100
AcDbBlockBegin
  2
_D_3
 70
     0
 10
0.0
 20
0.0
 30
0.0
  3
_D_3
  1

  0
SOLID
  5
135
330
132
100
AcDbEntity
  8
0
  6
Continuous
 62
     7
370
    18
100
AcDbTrace
 10
107.6629143187
 20
596.4529091609
 30
0.0
 11
118.2229143187
 21
594.8282937762
 31
0.0
 12
118.2229143187
 22
598.0775245455
 32
0.0
 13
118.2229143187
 23
598.0775245455
 33
0.0
  0
SOLID
  5
136
330
132
100
AcDbEntity
  8
0
  6
Continuous
 62
     7
370
    18
100
AcDbTrace
 10
167.6629143187
 20
596.4529091609
 30
0.0
 11
157.1029143187
 21
598.0775245455
 31
0.0
 12
157.1029143187
 22
594.8282937762
 32
0.0
 13
157.1029143187
 23
594.8282937762
 33
0.0
  0
LINE
  5
137
330
132
100
AcDbEntity
  8
0
  6
Continuous
 62
     7
370
    18
100
AcDbLine
 10
107.6629143187
 20
650.9156727681
 30
0.0
 11
107.6629143187
 21
593.1529091609
 31
0.0
  0
LINE
  5
138
330
132
100
AcDbEntity
  8
0
  6
Continuous
 62
     7
370
    18
100
AcDbLine
 10
167.6629143187
 20
720.8451281172
 30
0.0
 11
167.6629143187
 21
593.1529091609
 31
0.0
  0
LINE
  5
139
330
132
100
AcDbEntity
  8
0
  6
Continuous
 62
     7
370
    18
100
AcDbLine
 10
107.6629143187
 20
596.4529091609
 30
0.0
 11
167.6629143187
 21
596.4529091609
 31
0.0
  0
MTEXT
  5
13A
330
132
100
AcDbEntity
  8
0
  6
Continuous
 62
     7
370
    18
100
AcDbMText
 10
129.9134511259
 20
610.0654639166
 30
0.0
 40
10.56
 41
0.0
 71
     1
 72
     1
  1
60
  7
SLDTEXTSTYLE0
 73
     1
 44
1.0
  0
ENDBLK
  5
134
330
132
100
AcDbEntity
  8
0
100
AcDbBlockEnd
  0
BLOCK
  5
13E
330
13D
100
AcDbEntity
  8
0
100
AcDbBlockBegin
  2
_D_4
 70
     0
 10
0.0
 20
0.0
 30
0.0
  3
_D_4
  1

  0
ARC
  5
140
330
13D
100
AcDbEntity
  8
0
  6
Continuous
 62
     7
370
    18
100
AcDbCircle
 10
367.4139126963
 20
823.7080155656
 30
0.0
 40
10.52700005820952
100
AcDbArc
 50
180.0
 51
0.0
  0
ARC
  5
141
330
13D
100
AcDbEntity
  8
0
  6
Continuous
 62
     7
370
    18
100
AcDbCircle
 10
367.4139126963
 20
831.5106825687
 30
0.0
 40
10.52700005820952
100
AcDbArc
 50
0.0
 51
180.0
  0
SOLID
  5
142
330
13D
100
AcDbEntity
  8
0
  6
Continuous
 62
     7
370
    18
100
AcDbTrace
 10
382.1517138151
 20
757.9158448196
 30
0.0
 11
383.7763291997
 21
768.4758448196
 31
0.0
 12
380.5270984305
 22
768.4758448196
 32
0.0
 13
380.5270984305
 23
768.4758448196
 33
0.0
  0
SOLID
  5
143
330
13D
100
AcDbEntity
  8
0
  6
Continuous
 62
     7
370
    18
100
AcDbTrace
 10
382.1517138151
 20
750.1158448196
 30
0.0
 11
380.5270984305
 21
739.5558448196
 31
0.0
 12
383.7763291997
 22
739.5558448196
 32
0.0
 13
383.7763291997
 23
739.5558448196
 33
0.0
  0
LINE
  5
144
330
13D
100
AcDbEntity
  8
0
  6
Continuous
 62
     7
370
    18
100
AcDbLine
 10
356.8869126381
 20
823.7080155656
 30
0.0
 11
356.8869126381
 21
831.5106825687
 31
0.0
  0
LINE
  5
145
330
13D
100
AcDbEntity
  8
0
  6
Continuous
 62
     7
370
    18
100
AcDbLine
 10
377.9409127545
 20
831.5106825687
 30
0.0
 11
377.9409127545
 21
823.7080155656
 31
0.0
  0
LINE
  5
146
330
13D
100
AcDbEntity
  8
0
  6
Continuous
 62
     7
370
    18
100
AcDbLine
 10
337.9929143187
 20
757.9158448196
 30
0.0
 11
385.4517138151
 21
757.9158448196
 31
0.0
  0
LINE
  5
147
330
13D
100
AcDbEntity
  8
0
  6
Continuous
 62
     7
370
    18
100
AcDbLine
 10
328.7192372133
 20
750.1158448196
 30
0.0
 11
385.4517138151
 21
750.1158448196
 31
0.0
  0
LINE
  5
148
330
13D
100
AcDbEntity
  8
0
  6
Continuous
 62
     7
370
    18
100
AcDbLine
 10
382.1517138151
 20
757.9158448196
 30
0.0
 11
382.1517138151
 21
831.5106825687
 31
0.0
  0
LINE
  5
149
330
13D
100
AcDbEntity
  8
0
  6
Continuous
 62
     7
370
    18
100
AcDbLine
 10
382.1517138151
 20
757.9158448196
 30
0.0
 11
382.1517138151
 21
750.1158448196
 31
0.0
  0
LINE
  5
14A
330
13D
100
AcDbEntity
  8
0
  6
Continuous
 62
     7
370
    18
100
AcDbLine
 10
382.1517138151
 20
750.1158448196
 30
0.0
 11
382.1517138151
 21
729.8081525119
 31
0.0
  0
MTEXT
  5
14B
330
13D
100
AcDbEntity
  8
0
  6
Continuous
 62
     7
370
    18
100
AcDbMText
 10
362.1833579929
 20
823.7080155656
 30
0.0
 40
10.56
 41
0.0
 71
     1
 72
     1
  1
8
  7
SLDTEXTSTYLE0
 11
-7.044195017643634E-15
 21
1.0
 31
0.0
 73
     1
 44
1.0
  0
ENDBLK
  5
13F
330
13D
100
AcDbEntity
  8
0
100
AcDbBlockEnd
  0
BLOCK
  5
14E
330
14D
100
AcDbEntity
  8
0
100
AcDbBlockBegin
  2
_D_5
 70
     0
 10
0.0
 20
0.0
 30
0.0
  3
_D_5
  1

  0
SOLID
  5
150
330
14D
100
AcDbEntity
  8
0
  6
Continuous
 62
     7
370
    18
100
AcDbTrace
 10
267.6741586755
 20
751.1158448196
 30
0.0
 11
269.2987740601
 21
761.6758448196
 31
0.0
 12
266.0495432909
 22
761.6758448196
 32
0.0
 13
266.0495432909
 23
761.6758448196
 33
0.0
  0
SOLID
  5
151
330
14D
100
AcDbEntity
  8
0
  6
Continuous
 62
     7
370
    18
100
AcDbTrace
 10
267.6741586755
 20
706.1158448196
 30
0.0
 11
266.0495432909
 21
695.5558448196
 31
0.0
 12
269.2987740601
 22
695.5558448196
 32
0.0
 13
269.2987740601
 23
695.5558448196
 33
0.0
  0
LINE
  5
152
330
14D
100
AcDbEntity
  8
0
  6
Continuous
 62
     7
370
    18
100
AcDbLine
 10
267.6741586755
 20
751.1158448196
 30
0.0
 11
267.6741586755
 21
771.4235371273
 31
0.0
  0
LINE
  5
153
330
14D
100
AcDbEntity
  8
0
  6
Continuous
 62
     7
370
    18
100
AcDbLine
 10
267.6741586755
 20
751.1158448196
 30
0.0
 11
267.6741586755
 21
706.1158448196
 31
0.0
  0
LINE
  5
154
330
14D
100
AcDbEntity
  8
0
  6
Continuous
 62
     7
370
    18
100
AcDbLine
 10
267.6741586755
 20
706.1158448196
 30
0.0
 11
267.6741586755
 21
685.8081525119
 31
0.0
  0
MTEXT
  5
155
330
14D
100
AcDbEntity
  8
0
  6
Continuous
 62
     7
370
    18
100
AcDbMText
 10
254.0616039198
 20
719.2929526524
 30
0.0
 40
10.56
 41
0.0
 71
     1
 72
     1
  1
45
  7
SLDTEXTSTYLE0
 11
-6.156016597943509E-15
 21
1.0
 31
0.0
 73
     1
 44
1.0
  0
ENDBLK
  5
14F
330
14D
100
AcDbEntity
  8
0
100
AcDbBlockEnd
  0
BLOCK
  5
159
330
158
100
AcDbEntity
  8
0
100
AcDbBlockBegin
  2
_D_6
 70
     0
 10
0.0
 20
0.0
 30
0.0
  3
_D_6
  1

  0
SOLID
  5
15B
330
158
100
AcDbEntity
  8
0
  6
Continuous
 62
     7
370
    18
100
AcDbTrace
 10
135.3629143187
 20
667.0570671891
 30
0.0
 11
145.9229143187
 21
665.4324518045
 31
0.0
 12
145.9229143187
 22
668.6816825737
 32
0.0
 13
145.9229143187
 23
668.6816825737
 33
0.0
  0
SOLID
  5
15C
330
158
100
AcDbEntity
  8
0
  6
Continuous
 62
     7
370
    18
100
AcDbTrace
 10
289.9629143187
 20
667.0570671891
 30
0.0
 11
279.4029143187
 21
668.6816825737
 31
0.0
 12
279.4029143187
 22
665.4324518045
 32
0.0
 13
279.4029143187
 23
665.4324518045
 33
0.0
  0
LINE
  5
15D
330
158
100
AcDbEntity
  8
0
  6
Continuous
 62
     7
370
    18
100
AcDbLine
 10
135.3629143187
 20
706.7858448196
 30
0.0
 11
135.3629143187
 21
663.7570671891
 31
0.0
  0
LINE
  5
15E
330
158
100
AcDbEntity
  8
0
  6
Continuous
 62
     7
370
    18
100
AcDbLine
 10
289.9629143187
 20
706.7858448196
 30
0.0
 11
289.9629143187
 21
663.7570671891
 31
0.0
  0
LINE
  5
15F
330
158
100
AcDbEntity
  8
0
  6
Continuous
 62
     7
370
    18
100
AcDbLine
 10
135.3629143187
 20
667.0570671891
 30
0.0
 11
289.9629143187
 21
667.0570671891
 31
0.0
  0
MTEXT
  5
160
330
158
100
AcDbEntity
  8
0
  6
Continuous
 62
     7
370
    18
100
AcDbMText
 10
200.958913814
 20
680.6696219448
 30
0.0
 40
10.56
 41
0.0
 71
     1
 72
     1
  1
155
  7
SLDTEXTSTYLE0
 73
     1
 44
1.0
  0
ENDBLK
  5
15A
330
158
100
AcDbEntity
  8
0
100
AcDbBlockEnd
  0
BLOCK
  5
163
330
162
100
AcDbEntity
  8
0
100
AcDbBlockBegin
  2
_D_7
 70
     0
 10
0.0
 20
0.0
 30
0.0
  3
_D_7
  1

  0
SOLID
  5
165
330
162
100
AcDbEntity
  8
0
  6
Continuous
 62
     7
370
    18
100
AcDbTrace
 10
142.1629143187
 20
860.7158448196
 30
0.0
 11
131.6029143187
 21
862.3404602042
 31
0.0
 12
131.6029143187
 22
859.0912294349
 32
0.0
 13
131.6029143187
 23
859.0912294349
 33
0.0
  0
SOLID
  5
166
330
162
100
AcDbEntity
  8
0
  6
Continuous
 62
     7
370
    18
100
AcDbTrace
 10
187.1629143187
 20
860.7158448196
 30
0.0
 11
197.7229143187
 21
859.0912294349
 31
0.0
 12
197.7229143187
 22
862.3404602042
 32
0.0
 13
197.7229143187
 23
862.3404602042
 33
0.0
  0
LINE
  5
167
330
162
100
AcDbEntity
  8
0
  6
Continuous
 62
     7
370
    18
100
AcDbLine
 10
142.1629143187
 20
785.6492872957
 30
0.0
 11
142.1629143187
 21
864.0158448196
 31
0.0
  0
LINE
  5
168
330
162
100
AcDbEntity
  8
0
  6
Continuous
 62
     7
370
    18
100
AcDbLine
 10
187.1629143187
 20
785.6492872957
 30
0.0
 11
187.1629143187
 21
864.0158448196
 31
0.0
  0
LINE
  5
169
330
162
100
AcDbEntity
  8
0
  6
Continuous
 62
     7
370
    18
100
AcDbLine
 10
142.1629143187
 20
860.7158448196
 30
0.0
 11
121.855222011
 21
860.7158448196
 31
0.0
  0
LINE
  5
16A
330
162
100
AcDbEntity
  8
0
  6
Continuous
 62
     7
370
    18
100
AcDbLine
 10
142.1629143187
 20
860.7158448196
 30
0.0
 11
187.1629143187
 21
860.7158448196
 31
0.0
  0
LINE
  5
16B
330
162
100
AcDbEntity
  8
0
  6
Continuous
 62
     7
370
    18
100
AcDbLine
 10
187.1629143187
 20
860.7158448196
 30
0.0
 11
207.4706066264
 21
860.7158448196
 31
0.0
  0
MTEXT
  5
16C
330
162
100
AcDbEntity
  8
0
  6
Continuous
 62
     7
370
    18
100
AcDbMText
 10
156.8602473156
 20
874.3283995753
 30
0.0
 40
10.56
 41
0.0
 71
     1
 72
     1
  1
45
  7
SLDTEXTSTYLE0
 73
     1
 44
1.0
  0
ENDBLK
  5
164
330
162
100
AcDbEntity
  8
0
100
AcDbBlockEnd
  0
BLOCK
  5
170
330
16F
100
AcDbEntity
  8
0
100
AcDbBlockBegin
  2
_D_8
 70
     0
 10
0.0
 20
0.0
 30
0.0
  3
_D_8
  1

  0
SOLID
  5
172
330
16F
100
AcDbEntity
  8
0
  6
Continuous
 62
     7
370
    18
100
AcDbTrace
 10
64.5492204856
 20
785.3192872957
 30
0.0
 11
66.1738358702
 21
795.8792872957
 31
0.0
 12
62.924605101
 22
795.8792872957
 32
0.0
 13
62.924605101
 23
795.8792872957
 33
0.0
  0
SOLID
  5
173
330
16F
100
AcDbEntity
  8
0
  6
Continuous
 62
     7
370
    18
100
AcDbTrace
 10
64.5492204856
 20
757.9158448196
 30
0.0
 11
62.924605101
 21
747.3558448196
 31
0.0
 12
66.1738358702
 22
747.3558448196
 32
0.0
 13
66.1738358702
 23
747.3558448196
 33
0.0
  0
LINE
  5
174
330
16F
100
AcDbEntity
  8
0
  6
Continuous
 62
     7
370
    18
100
AcDbLine
 10
141.8329143187
 20
785.3192872957
 30
0.0
 11
61.2492204856
 21
785.3192872957
 31
0.0
  0
LINE
  5
175
330
16F
100
AcDbEntity
  8
0
  6
Continuous
 62
     7
370
    18
100
AcDbLine
 10
107.3329143187
 20
757.9158448196
 30
0.0
 11
61.2492204856
 21
757.9158448196
 31
0.0
  0
LINE
  5
176
330
16F
100
AcDbEntity
  8
0
  6
Continuous
 62
     7
370
    18
100
AcDbLine
 10
64.5492204856
 20
785.3192872957
 30
0.0
 11
64.5492204856
 21
805.6269796034
 31
0.0
  0
LINE
  5
177
330
16F
100
AcDbEntity
  8
0
  6
Continuous
 62
     7
370
    18
100
AcDbLine
 10
64.5492204856
 20
785.3192872957
 30
0.0
 11
64.5492204856
 21
757.9158448196
 31
0.0
  0
LINE
  5
178
330
16F
100
AcDbEntity
  8
0
  6
Continuous
 62
     7
370
    18
100
AcDbLine
 10
64.5492204856
 20
757.9158448196
 30
0.0
 11
64.5492204856
 21
737.6081525119
 31
0.0
  0
MTEXT
  5
179
330
16F
100
AcDbEntity
  8
0
  6
Continuous
 62
     7
370
    18
100
AcDbMText
 10
50.9366657299
 20
768.6895424343
 30
0.0
 40
10.56
 41
0.0
 71
     1
 72
     1
  1
27
  7
SLDTEXTSTYLE0
 11
-7.044195017643634E-15
 21
1.0
 31
0.0
 73
     1
 44
1.0
  0
ENDBLK
  5
171
330
16F
100
AcDbEntity
  8
0
100
AcDbBlockEnd
  0
BLOCK
  5
17C
330
17B
100
AcDbEntity
  8
0
100
AcDbBlockBegin
  2
_D_9
 70
     0
 10
0.0
 20
0.0
 30
0.0
  3
_D_9
  1

  0
SOLID
  5
17E
330
17B
100
AcDbEntity
  8
0
  6
Continuous
 62
     7
370
    18
100
AcDbTrace
 10
191.1629143187
 20
840.9158448196
 30
0.0
 11
201.7229143187
 21
839.291229435
 31
0.0
 12
201.7229143187
 22
842.5404602042
 32
0.0
 13
201.7229143187
 23
842.5404602042
 33
0.0
  0
SOLID
  5
17F
330
17B
100
AcDbEntity
  8
0
  6
Continuous
 62
     7
370
    18
100
AcDbTrace
 10
183.1629143187
 20
840.9158448196
 30
0.0
 11
172.6029143187
 21
842.5404602042
 31
0.0
 12
172.6029143187
 22
839.291229435
 32
0.0
 13
172.6029143187
 23
839.291229435
 33
0.0
  0
LINE
  5
180
330
17B
100
AcDbEntity
  8
0
  6
Continuous
 62
     7
370
    18
100
AcDbLine
 10
191.1629143187
 20
783.2458448196
 30
0.0
 11
191.1629143187
 21
844.2158448196
 31
0.0
  0
LINE
  5
181
330
17B
100
AcDbEntity
  8
0
  6
Continuous
 62
     7
370
    18
100
AcDbLine
 10
183.1629143187
 20
783.2458448196
 30
0.0
 11
183.1629143187
 21
844.2158448196
 31
0.0
  0
LINE
  5
182
330
17B
100
AcDbEntity
  8
0
  6
Continuous
 62
     7
370
    18
100
AcDbLine
 10
191.1629143187
 20
840.9158448196
 30
0.0
 11
238.1453216514
 21
840.9158448196
 31
0.0
  0
LINE
  5
183
330
17B
100
AcDbEntity
  8
0
  6
Continuous
 62
     7
370
    18
100
AcDbLine
 10
191.1629143187
 20
840.9158448196
 30
0.0
 11
183.1629143187
 21
840.9158448196
 31
0.0
  0
LINE
  5
184
330
17B
100
AcDbEntity
  8
0
  6
Continuous
 62
     7
370
    18
100
AcDbLine
 10
183.1629143187
 20
840.9158448196
 30
0.0
 11
162.855222011
 21
840.9158448196
 31
0.0
  0
MTEXT
  5
185
330
17B
100
AcDbEntity
  8
0
  6
Continuous
 62
     7
370
    18
100
AcDbMText
 10
214.4168547793
 20
854.5284009199
 30
0.0
 40
10.56
 41
0.0
 71
     1
 72
     1
  1
%%c
  7
SLDTEXTSTYLE0
 73
     1
 44
1.0
  0
MTEXT
  5
186
330
17B
100
AcDbEntity
  8
0
  6
Continuous
 62
     7
370
    18
100
AcDbMText
 10
230.3426546483
 20
854.6897343078
 30
0.0
 40
10.56
 41
0.0
 71
     1
 72
     1
  1
8
  7
SLDTEXTSTYLE0
 73
     1
 44
1.0
  0
ENDBLK
  5
17D
330
17B
100
AcDbEntity
  8
0
100
AcDbBlockEnd
  0
BLOCK
  5
189
330
188
100
AcDbEntity
  8
0
100
AcDbBlockBegin
  2
_D_10
 70
     0
 10
0.0
 20
0.0
 30
0.0
  3
_D_10
  1

  0
SOLID
  5
18B
330
188
100
AcDbEntity
  8
0
  6
Continuous
 62
     7
370
    18
100
AcDbTrace
 10
122.6629143187
 20
831.7200705652
 30
0.0
 11
133.2229143187
 21
830.0954551806
 31
0.0
 12
133.2229143187
 22
833.3446859499
 32
0.0
 13
133.2229143187
 23
833.3446859499
 33
0.0
  0
SOLID
  5
18C
330
188
100
AcDbEntity
  8
0
  6
Continuous
 62
     7
370
    18
100
AcDbTrace
 10
107.6629143187
 20
831.7200705652
 30
0.0
 11
97.1029143187
 21
833.3446859499
 31
0.0
 12
97.1029143187
 22
830.0954551806
 32
0.0
 13
97.1029143187
 23
830.0954551806
 33
0.0
  0
LINE
  5
18D
330
188
100
AcDbEntity
  8
0
  6
Continuous
 62
     7
370
    18
100
AcDbLine
 10
122.6629143187
 20
757.9458448196
 30
0.0
 11
122.6629143187
 21
835.0200705652
 31
0.0
  0
LINE
  5
18E
330
188
100
AcDbEntity
  8
0
  6
Continuous
 62
     7
370
    18
100
AcDbLine
 10
107.6629143187
 20
758.2458448196
 30
0.0
 11
107.6629143187
 21
835.0200705652
 31
0.0
  0
LINE
  5
18F
330
188
100
AcDbEntity
  8
0
  6
Continuous
 62
     7
370
    18
100
AcDbLine
 10
122.6629143187
 20
831.7200705652
 30
0.0
 11
142.9706066264
 21
831.7200705652
 31
0.0
  0
LINE
  5
190
330
188
100
AcDbEntity
  8
0
  6
Continuous
 62
     7
370
    18
100
AcDbLine
 10
122.6629143187
 20
831.7200705652
 30
0.0
 11
107.6629143187
 21
831.7200705652
 31
0.0
  0
LINE
  5
191
330
188
100
AcDbEntity
  8
0
  6
Continuous
 62
     7
370
    18
100
AcDbLine
 10
107.6629143187
 20
831.7200705652
 30
0.0
 11
59.5725068121
 21
831.7200705652
 31
0.0
  0
MTEXT
  5
192
330
188
100
AcDbEntity
  8
0
  6
Continuous
 62
     7
370
    18
100
AcDbMText
 10
59.5725068121
 20
845.332625321
 30
0.0
 40
10.56
 41
0.0
 71
     1
 72
     1
  1
15
  7
SLDTEXTSTYLE0
 73
     1
 44
1.0
  0
ENDBLK
  5
18A
330
188
100
AcDbEntity
  8
0
100
AcDbBlockEnd
  0
BLOCK
  5
194
330
193
100
AcDbEntity
  8
0
100
AcDbBlockBegin
  2
SW_NOTE_0
 70
     0
 10
0.0
 20
0.0
 30
0.0
  3
SW_NOTE_0
  1

  0
LINE
  5
196
330
193
100
AcDbEntity
  8
0
  6
Continuous
 62
     0
370
     0
100
AcDbLine
 10
-51.9781381488
 20
0.0
 30
0.0
 11
0.0
 21
0.0
 31
0.0
  0
MTEXT
  5
197
330
193
100
AcDbEntity
  8
0
  6
Continuous
 62
     0
370
     0
100
AcDbMText
 10
-53.43167881
 20
24.6146803405
 30
0.0
 40
9.24
 41
0.0
 71
     1
 72
     1
  1
GRUPPO
  7
SLDTEXTSTYLE0
 73
     1
 44
1.0
  0
MTEXT
  5
198
330
193
100
AcDbEntity
  8
0
  6
Continuous
 62
     0
370
     0
100
AcDbMText
 10
-53.43167881
 20
12.074680129
 30
0.0
 40
9.24
 41
0.0
 71
     1
 72
     1
  1
FRENO
  7
SLDTEXTSTYLE0
 73
     1
 44
1.0
  0
ENDBLK
  5
195
330
193
100
AcDbEntity
  8
0
100
AcDbBlockEnd
  0
BLOCK
  5
19D
330
19C
100
AcDbEntity
  8
0
100
AcDbBlockBegin
  2
SW_CENTERMARKSYMBOL_0
 70
     0
 10
0.0
 20
0.0
 30
0.0
  3
SW_CENTERMARKSYMBOL_0
  1

  0
LINE
  5
19F
330
19C
100
AcDbEntity
  8
0
  6
Continuous
 62
     0
370
     0
100
AcDbLine
 10
0.0
 20
0.0
 30
0.0
 11
0.0
 21
2.5
 31
0.0
  0
LINE
  5
1A0
330
19C
100
AcDbEntity
  8
0
  6
Continuous
 62
     0
370
     0
100
AcDbLine
 10
0.0
 20
0.0
 30
0.0
 11
-2.5
 21
0.0
 31
0.0
  0
LINE
  5
1A1
330
19C
100
AcDbEntity
  8
0
  6
Continuous
 62
     0
370
     0
100
AcDbLine
 10
0.0
 20
0.0
 30
0.0
 11
0.0
 21
-2.5
 31
0.0
  0
LINE
  5
1A2
330
19C
100
AcDbEntity
  8
0
  6
Continuous
 62
     0
370
     0
100
AcDbLine
 10
0.0
 20
0.0
 30
0.0
 11
2.5
 21
0.0
 31
0.0
  0
LINE
  5
1A3
330
19C
100
AcDbEntity
  8
0
  6
Continuous
 62
     0
370
     0
100
AcDbLine
 10
0.0
 20
5.0
 30
0.0
 11
0.0
 21
9.5
 31
0.0
  0
LINE
  5
1A4
330
19C
100
AcDbEntity
  8
0
  6
Continuous
 62
     0
370
     0
100
AcDbLine
 10
-5.0
 20
0.0
 30
0.0
 11
-9.5
 21
0.0
 31
0.0
  0
LINE
  5
1A5
330
19C
100
AcDbEntity
  8
0
  6
Continuous
 62
     0
370
     0
100
AcDbLine
 10
0.0
 20
-5.0
 30
0.0
 11
0.0
 21
-9.5
 31
0.0
  0
LINE
  5
1A6
330
19C
100
AcDbEntity
  8
0
  6
Continuous
 62
     0
370
     0
100
AcDbLine
 10
5.0
 20
0.0
 30
0.0
 11
9.5
 21
0.0
 31
0.0
  0
ENDBLK
  5
19E
330
19C
100
AcDbEntity
  8
0
100
AcDbBlockEnd
  0
BLOCK
  5
1A9
330
1A8
100
AcDbEntity
  8
0
100
AcDbBlockBegin
  2
SW_CENTERMARKSYMBOL_1
 70
     0
 10
0.0
 20
0.0
 30
0.0
  3
SW_CENTERMARKSYMBOL_1
  1

  0
LINE
  5
1AB
330
1A8
100
AcDbEntity
  8
0
  6
Continuous
 62
     0
370
     0
100
AcDbLine
 10
0.0
 20
0.0
 30
0.0
 11
0.0
 21
2.5
 31
0.0
  0
LINE
  5
1AC
330
1A8
100
AcDbEntity
  8
0
  6
Continuous
 62
     0
370
     0
100
AcDbLine
 10
0.0
 20
0.0
 30
0.0
 11
-2.5
 21
0.0
 31
0.0
  0
LINE
  5
1AD
330
1A8
100
AcDbEntity
  8
0
  6
Continuous
 62
     0
370
     0
100
AcDbLine
 10
0.0
 20
0.0
 30
0.0
 11
0.0
 21
-2.5
 31
0.0
  0
LINE
  5
1AE
330
1A8
100
AcDbEntity
  8
0
  6
Continuous
 62
     0
370
     0
100
AcDbLine
 10
0.0
 20
0.0
 30
0.0
 11
2.5
 21
0.0
 31
0.0
  0
LINE
  5
1AF
330
1A8
100
AcDbEntity
  8
0
  6
Continuous
 62
     0
370
     0
100
AcDbLine
 10
0.0
 20
5.0
 30
0.0
 11
0.0
 21
9.5
 31
0.0
  0
LINE
  5
1B0
330
1A8
100
AcDbEntity
  8
0
  6
Continuous
 62
     0
370
     0
100
AcDbLine
 10
-5.0
 20
0.0
 30
0.0
 11
-9.5
 21
0.0
 31
0.0
  0
LINE
  5
1B1
330
1A8
100
AcDbEntity
  8
0
  6
Continuous
 62
     0
370
     0
100
AcDbLine
 10
0.0
 20
-5.0
 30
0.0
 11
0.0
 21
-9.5
 31
0.0
  0
LINE
  5
1B2
330
1A8
100
AcDbEntity
  8
0
  6
Continuous
 62
     0
370
     0
100
AcDbLine
 10
5.0
 20
0.0
 30
0.0
 11
9.5
 21
0.0
 31
0.0
  0
ENDBLK
  5
1AA
330
1A8
100
AcDbEntity
  8
0
100
AcDbBlockEnd
  0
BLOCK
  5
280
330
27F
100
AcDbEntity
  8
0
100
AcDbBlockBegin
  2
_D_11
 70
     0
 10
0.0
 20
0.0
 30
0.0
  3
_D_11
  1

  0
SOLID
  5
282
330
27F
100
AcDbEntity
  8
0
  6
Continuous
 62
     7
370
    18
100
AcDbTrace
 10
70.6629143187
 20
548.9280756295
 30
0.0
 11
72.2875297033
 21
559.4880756295
 31
0.0
 12
69.0382989341
 22
559.4880756295
 32
0.0
 13
69.0382989341
 23
559.4880756295
 33
0.0
  0
SOLID
  5
283
330
27F
100
AcDbEntity
  8
0
  6
Continuous
 62
     7
370
    18
100
AcDbTrace
 10
70.6629143187
 20
523.9280756295
 30
0.0
 11
69.0382989341
 21
513.3680756295
 31
0.0
 12
72.2875297033
 22
513.3680756295
 32
0.0
 13
72.2875297033
 23
513.3680756295
 33
0.0
  0
LINE
  5
284
330
27F
100
AcDbEntity
  8
0
  6
Continuous
 62
     7
370
    18
100
AcDbLine
 10
124.3329143187
 20
548.9280756295
 30
0.0
 11
67.3629143187
 21
548.9280756295
 31
0.0
  0
LINE
  5
285
330
27F
100
AcDbEntity
  8
0
  6
Continuous
 62
     7
370
    18
100
AcDbLine
 10
124.3329143187
 20
523.9280756295
 30
0.0
 11
67.3629143187
 21
523.9280756295
 31
0.0
  0
LINE
  5
286
330
27F
100
AcDbEntity
  8
0
  6
Continuous
 62
     7
370
    18
100
AcDbLine
 10
70.6629143187
 20
548.9280756295
 30
0.0
 11
70.6629143187
 21
569.2357679372
 31
0.0
  0
LINE
  5
287
330
27F
100
AcDbEntity
  8
0
  6
Continuous
 62
     7
370
    18
100
AcDbLine
 10
70.6629143187
 20
548.9280756295
 30
0.0
 11
70.6629143187
 21
523.9280756295
 31
0.0
  0
LINE
  5
288
330
27F
100
AcDbEntity
  8
0
  6
Continuous
 62
     7
370
    18
100
AcDbLine
 10
70.6629143187
 20
523.9280756295
 30
0.0
 11
70.6629143187
 21
503.6203833218
 31
0.0
  0
MTEXT
  5
289
330
27F
100
AcDbEntity
  8
0
  6
Continuous
 62
     7
370
    18
100
AcDbMText
 10
57.0503595629
 20
531.0134089976
 30
0.0
 40
10.56
 41
0.0
 71
     1
 72
     1
  1
25
  7
SLDTEXTSTYLE0
 11
-6.156016597943509E-15
 21
1.0
 31
0.0
 73
     1
 44
1.0
  0
ENDBLK
  5
281
330
27F
100
AcDbEntity
  8
0
100
AcDbBlockEnd
  0
BLOCK
  5
28C
330
28B
100
AcDbEntity
  8
0
100
AcDbBlockBegin
  2
_D_12
 70
     0
 10
0.0
 20
0.0
 30
0.0
  3
_D_12
  1

  0
SOLID
  5
28E
330
28B
100
AcDbEntity
  8
0
  6
Continuous
 62
     7
370
    18
100
AcDbTrace
 10
142.1629143187
 20
458.6280756295
 30
0.0
 11
152.7229143187
 21
457.0034602449
 31
0.0
 12
152.7229143187
 22
460.2526910141
 32
0.0
 13
152.7229143187
 23
460.2526910141
 33
0.0
  0
SOLID
  5
28F
330
28B
100
AcDbEntity
  8
0
  6
Continuous
 62
     7
370
    18
100
AcDbTrace
 10
187.1629143187
 20
458.6280756295
 30
0.0
 11
176.6029143187
 21
460.2526910141
 31
0.0
 12
176.6029143187
 22
457.0034602449
 32
0.0
 13
176.6029143187
 23
457.0034602449
 33
0.0
  0
LINE
  5
290
330
28B
100
AcDbEntity
  8
0
  6
Continuous
 62
     7
370
    18
100
AcDbLine
 10
142.1629143187
 20
536.0980756295
 30
0.0
 11
142.1629143187
 21
455.3280756295
 31
0.0
  0
LINE
  5
291
330
28B
100
AcDbEntity
  8
0
  6
Continuous
 62
     7
370
    18
100
AcDbLine
 10
187.1629143187
 20
536.0980756295
 30
0.0
 11
187.1629143187
 21
455.3280756295
 31
0.0
  0
LINE
  5
292
330
28B
100
AcDbEntity
  8
0
  6
Continuous
 62
     7
370
    18
100
AcDbLine
 10
142.1629143187
 20
458.6280756295
 30
0.0
 11
187.1629143187
 21
458.6280756295
 31
0.0
  0
MTEXT
  5
293
330
28B
100
AcDbEntity
  8
0
  6
Continuous
 62
     7
370
    18
100
AcDbMText
 10
157.4053239883
 20
472.2406303853
 30
0.0
 40
10.56
 41
0.0
 71
     1
 72
     1
  1
45
  7
SLDTEXTSTYLE0
 73
     1
 44
1.0
  0
ENDBLK
  5
28D
330
28B
100
AcDbEntity
  8
0
100
AcDbBlockEnd
  0
BLOCK
  5
296
330
295
100
AcDbEntity
  8
0
100
AcDbBlockBegin
  2
_D_13
 70
     0
 10
0.0
 20
0.0
 30
0.0
  3
_D_13
  1

  0
SOLID
  5
298
330
295
100
AcDbEntity
  8
0
  6
Continuous
 62
     7
370
    18
100
AcDbTrace
 10
122.6629143187
 20
434.6280756295
 30
0.0
 11
133.2229143187
 21
433.0034602449
 31
0.0
 12
133.2229143187
 22
436.2526910141
 32
0.0
 13
133.2229143187
 23
436.2526910141
 33
0.0
  0
SOLID
  5
299
330
295
100
AcDbEntity
  8
0
  6
Continuous
 62
     7
370
    18
100
AcDbTrace
 10
202.5037266839
 20
434.6280756295
 30
0.0
 11
191.9437266839
 21
436.2526910141
 31
0.0
 12
191.9437266839
 22
433.0034602449
 32
0.0
 13
191.9437266839
 23
433.0034602449
 33
0.0
  0
LINE
  5
29A
330
295
100
AcDbEntity
  8
0
  6
Continuous
 62
     7
370
    18
100
AcDbLine
 10
122.6629143187
 20
525.5980756295
 30
0.0
 11
122.6629143187
 21
431.3280756295
 31
0.0
  0
LINE
  5
29B
330
295
100
AcDbEntity
  8
0
  6
Continuous
 62
     7
370
    18
100
AcDbLine
 10
202.5037266839
 20
525.5980756295
 30
0.0
 11
202.5037266839
 21
431.3280756295
 31
0.0
  0
LINE
  5
29C
330
295
100
AcDbEntity
  8
0
  6
Continuous
 62
     7
370
    18
100
AcDbLine
 10
122.6629143187
 20
434.6280756295
 30
0.0
 11
202.5037266839
 21
434.6280756295
 31
0.0
  0
MTEXT
  5
29D
330
295
100
AcDbEntity
  8
0
  6
Continuous
 62
     7
370
    18
100
AcDbMText
 10
157.4053239883
 20
448.2406303853
 30
0.0
 40
10.56
 41
0.0
 71
     1
 72
     1
  1
80
  7
SLDTEXTSTYLE0
 73
     1
 44
1.0
  0
ENDBLK
  5
297
330
295
100
AcDbEntity
  8
0
100
AcDbBlockEnd
  0
BLOCK
  5
2A0
330
29F
100
AcDbEntity
  8
0
100
AcDbBlockBegin
  2
_D_14
 70
     0
 10
0.0
 20
0.0
 30
0.0
  3
_D_14
  1

  0
SOLID
  5
2A2
330
29F
100
AcDbEntity
  8
0
  6
Continuous
 62
     7
370
    18
100
AcDbTrace
 10
376.2276207884
 20
531.4280756295
 30
0.0
 11
374.6030054037
 21
520.8680756295
 31
0.0
 12
377.852236173
 22
520.8680756295
 32
0.0
 13
377.852236173
 23
520.8680756295
 33
0.0
  0
SOLID
  5
2A3
330
29F
100
AcDbEntity
  8
0
  6
Continuous
 62
     7
370
    18
100
AcDbTrace
 10
376.2276207884
 20
541.4280756295
 30
0.0
 11
377.852236173
 21
551.9880756295
 31
0.0
 12
374.6030054037
 22
551.9880756295
 32
0.0
 13
374.6030054037
 23
551.9880756295
 33
0.0
  0
LINE
  5
2A4
330
29F
100
AcDbEntity
  8
0
  6
Continuous
 62
     7
370
    18
100
AcDbLine
 10
336.5576207884
 20
531.4280756295
 30
0.0
 11
379.5276207884
 21
531.4280756295
 31
0.0
  0
LINE
  5
2A5
330
29F
100
AcDbEntity
  8
0
  6
Continuous
 62
     7
370
    18
100
AcDbLine
 10
336.5576207884
 20
541.4280756295
 30
0.0
 11
379.5276207884
 21
541.4280756295
 31
0.0
  0
LINE
  5
2A6
330
29F
100
AcDbEntity
  8
0
  6
Continuous
 62
     7
370
    18
100
AcDbLine
 10
376.2276207884
 20
531.4280756295
 30
0.0
 11
376.2276207884
 21
511.1203833218
 31
0.0
  0
LINE
  5
2A7
330
29F
100
AcDbEntity
  8
0
  6
Continuous
 62
     7
370
    18
100
AcDbLine
 10
376.2276207884
 20
531.4280756295
 30
0.0
 11
376.2276207884
 21
541.4280756295
 31
0.0
  0
LINE
  5
2A8
330
29F
100
AcDbEntity
  8
0
  6
Continuous
 62
     7
370
    18
100
AcDbLine
 10
376.2276207884
 20
541.4280756295
 30
0.0
 11
376.2276207884
 21
615.5500758462
 31
0.0
  0
MTEXT
  5
2A9
330
29F
100
AcDbEntity
  8
0
  6
Continuous
 62
     7
370
    18
100
AcDbMText
 10
362.6150660326
 20
564.9060754128
 30
0.0
 40
10.56
 41
0.0
 71
     1
 72
     1
  1
8÷13.52
  7
SLDTEXTSTYLE0
 11
6.123233995736766E-17
 21
1.0
 31
0.0
 73
     1
 44
1.0
  0
ENDBLK
  5
2A1
330
29F
100
AcDbEntity
  8
0
100
AcDbBlockEnd
  0
BLOCK
  5
2AC
330
2AB
100
AcDbEntity
  8
0
100
AcDbBlockBegin
  2
_D_15
 70
     0
 10
0.0
 20
0.0
 30
0.0
  3
_D_15
  1

  0
SOLID
  5
2AE
330
2AB
100
AcDbEntity
  8
0
  6
Continuous
 62
     7
370
    18
100
AcDbTrace
 10
202.5037266839
 20
458.6280756295
 30
0.0
 11
213.0637266839
 21
457.0034602449
 31
0.0
 12
213.0637266839
 22
460.2526910141
 32
0.0
 13
213.0637266839
 23
460.2526910141
 33
0.0
  0
SOLID
  5
2AF
330
2AB
100
AcDbEntity
  8
0
  6
Continuous
 62
     7
370
    18
100
AcDbTrace
 10
187.1629143187
 20
458.6280756295
 30
0.0
 11
176.6029143187
 21
460.2526910141
 31
0.0
 12
176.6029143187
 22
457.0034602449
 32
0.0
 13
176.6029143187
 23
457.0034602449
 33
0.0
  0
LINE
  5
2B0
330
2AB
100
AcDbEntity
  8
0
  6
Continuous
 62
     7
370
    18
100
AcDbLine
 10
202.5037266839
 20
525.5980756295
 30
0.0
 11
202.5037266839
 21
455.3280756295
 31
0.0
  0
LINE
  5
2B1
330
2AB
100
AcDbEntity
  8
0
  6
Continuous
 62
     7
370
    18
100
AcDbLine
 10
187.1629143187
 20
536.0980756295
 30
0.0
 11
187.1629143187
 21
455.3280756295
 31
0.0
  0
LINE
  5
2B2
330
2AB
100
AcDbEntity
  8
0
  6
Continuous
 62
     7
370
    18
100
AcDbLine
 10
202.5037266839
 20
458.6280756295
 30
0.0
 11
242.2112191823
 21
458.6280756295
 31
0.0
  0
LINE
  5
2B3
330
2AB
100
AcDbEntity
  8
0
  6
Continuous
 62
     7
370
    18
100
AcDbLine
 10
202.5037266839
 20
458.6280756295
 30
0.0
 11
187.1629143187
 21
458.6280756295
 31
0.0
  0
LINE
  5
2B4
330
2AB
100
AcDbEntity
  8
0
  6
Continuous
 62
     7
370
    18
100
AcDbLine
 10
187.1629143187
 20
458.6280756295
 30
0.0
 11
166.855222011
 21
458.6280756295
 31
0.0
  0
MTEXT
  5
2B5
330
2AB
100
AcDbEntity
  8
0
  6
Continuous
 62
     7
370
    18
100
AcDbMText
 10
214.901886208
 20
472.2406303853
 30
0.0
 40
10.56
 41
0.0
 71
     1
 72
     1
  1
15
  7
SLDTEXTSTYLE0
 73
     1
 44
1.0
  0
MTEXT
  5
2B6
330
2AB
100
AcDbEntity
  8
0
  6
Continuous
 62
     7
370
    18
100
AcDbMText
 10
230.5072202143
 20
472.2406303853
 30
0.0
 40
10.56
 41
0.0
 71
     1
 72
     1
  1
,5
  7
SLDTEXTSTYLE0
 73
     1
 44
1.0
  0
ENDBLK
  5
2AD
330
2AB
100
AcDbEntity
  8
0
100
AcDbBlockEnd
  0
BLOCK
  5
2B9
330
2B8
100
AcDbEntity
  8
0
100
AcDbBlockBegin
  2
_D_16
 70
     0
 10
0.0
 20
0.0
 30
0.0
  3
_D_16
  1

  0
SOLID
  5
2BB
330
2B8
100
AcDbEntity
  8
0
  6
Continuous
 62
     7
370
    18
100
AcDbTrace
 10
122.6629143187
 20
458.6280756295
 30
0.0
 11
112.1029143187
 21
460.2526910141
 31
0.0
 12
112.1029143187
 22
457.0034602449
 32
0.0
 13
112.1029143187
 23
457.0034602449
 33
0.0
  0
SOLID
  5
2BC
330
2B8
100
AcDbEntity
  8
0
  6
Continuous
 62
     7
370
    18
100
AcDbTrace
 10
142.1629143187
 20
458.6280756295
 30
0.0
 11
152.7229143187
 21
457.0034602449
 31
0.0
 12
152.7229143187
 22
460.2526910141
 32
0.0
 13
152.7229143187
 23
460.2526910141
 33
0.0
  0
LINE
  5
2BD
330
2B8
100
AcDbEntity
  8
0
  6
Continuous
 62
     7
370
    18
100
AcDbLine
 10
122.6629143187
 20
525.5980756295
 30
0.0
 11
122.6629143187
 21
455.3280756295
 31
0.0
  0
LINE
  5
2BE
330
2B8
100
AcDbEntity
  8
0
  6
Continuous
 62
     7
370
    18
100
AcDbLine
 10
142.1629143187
 20
536.0980756295
 30
0.0
 11
142.1629143187
 21
455.3280756295
 31
0.0
  0
LINE
  5
2BF
330
2B8
100
AcDbEntity
  8
0
  6
Continuous
 62
     7
370
    18
100
AcDbLine
 10
122.6629143187
 20
458.6280756295
 30
0.0
 11
78.5685819746
 21
458.6280756295
 31
0.0
  0
LINE
  5
2C0
330
2B8
100
AcDbEntity
  8
0
  6
Continuous
 62
     7
370
    18
100
AcDbLine
 10
122.6629143187
 20
458.6280756295
 30
0.0
 11
142.1629143187
 21
458.6280756295
 31
0.0
  0
LINE
  5
2C1
330
2B8
100
AcDbEntity
  8
0
  6
Continuous
 62
     7
370
    18
100
AcDbLine
 10
142.1629143187
 20
458.6280756295
 30
0.0
 11
162.4706066264
 21
458.6280756295
 31
0.0
  0
MTEXT
  5
2C2
330
2B8
100
AcDbEntity
  8
0
  6
Continuous
 62
     7
370
    18
100
AcDbMText
 10
78.5685819746
 20
472.2406303853
 30
0.0
 40
10.56
 41
0.0
 71
     1
 72
     1
  1
19,5
  7
SLDTEXTSTYLE0
 73
     1
 44
1.0
  0
ENDBLK
  5
2BA
330
2B8
100
AcDbEntity
  8
0
100
AcDbBlockEnd
  0
ENDSEC
  0
SECTION
  2
ENTITIES
  0
MTEXT
  5
75
330
1F
100
AcDbEntity
  8
0
  6
Continuous
 62
     7
370
     0
100
AcDbMText
 10
32.250506003
 20
962.4484193875
 30
0.0
 40
10.4775
 41
0.0
 71
     1
 72
     1
  1
106E20/27 CERNIERA SUPERIORE PER UNICA SLIM CON PILETTA
  7
SLDTEXTSTYLE0
 73
     1
 44
1.0
  0
MTEXT
  5
76
330
1F
100
AcDbEntity
  8
0
  6
Continuous
 62
     7
370
     0
100
AcDbMText
 10
32.250506003
 20
1033.505831076
 30
0.0
 40
9.24
 41
0.0
 71
     1
 72
     1
  1
COMPENSAZIONE ERRORE RILIEVO ±1mm
  7
SLDTEXTSTYLE0
 73
     1
 44
1.0
  0
ARC
  5
77
330
1F
100
AcDbEntity
  8
0
  6
Continuous
 62
     7
370
    25
100
AcDbCircle
 10
175.0629143187
 20
752.5158448196
 30
0.0
 40
0.3999999999999773
100
AcDbArc
 50
90.0
 51
180.0
  0
ARC
  5
78
330
1F
100
AcDbEntity
  8
0
  6
Continuous
 62
     7
370
    25
100
AcDbCircle
 10
160.2629143187
 20
752.5158448196
 30
0.0
 40
0.4000000000000057
100
AcDbArc
 50
0.0
 51
90.0
  0
LINE
  5
79
330
1F
100
AcDbEntity
  8
0
  6
Continuous
 62
     7
370
    25
100
AcDbLine
 10
174.6629143187
 20
751.4158448196
 30
0.0
 11
174.6629143187
 21
752.5158448196
 31
0.0
  0
LINE
  5
7A
330
1F
100
AcDbEntity
  8
0
  6
Continuous
 62
     7
370
    25
100
AcDbLine
 10
160.6629143187
 20
752.5158448196
 30
0.0
 11
160.6629143187
 21
751.4158448196
 31
0.0
  0
LINE
  5
7B
330
1F
100
AcDbEntity
  8
0
  6
Continuous
 62
     7
370
    25
100
AcDbLine
 10
138.1629143187
 20
780.2865200962
 30
0.0
 11
138.1629143187
 21
757.9158448196
 31
0.0
  0
LINE
  5
7C
330
1F
100
AcDbEntity
  8
0
  6
Continuous
 62
     7
370
    25
100
AcDbLine
 10
146.1629143187
 20
757.9158448196
 30
0.0
 11
146.1629143187
 21
780.2865200962
 31
0.0
  0
LINE
  5
7D
330
1F
100
AcDbEntity
  8
0
  6
Continuous
 62
     7
370
    25
100
AcDbLine
 10
146.1629143187
 20
780.2865200962
 30
0.0
 11
145.4129143187
 21
780.9158448196
 31
0.0
  0
LINE
  5
7E
330
1F
100
AcDbEntity
  8
0
  6
Continuous
 62
     7
370
    25
100
AcDbLine
 10
138.9129143187
 20
780.9158448196
 30
0.0
 11
138.1629143187
 21
780.2865200962
 31
0.0
  0
LINE
  5
7F
330
1F
100
AcDbEntity
  8
0
  6
Continuous
 62
     7
370
    25
100
AcDbLine
 10
183.1629143187
 20
780.2865200962
 30
0.0
 11
183.1629143187
 21
757.9158448196
 31
0.0
  0
LINE
  5
80
330
1F
100
AcDbEntity
  8
0
  6
Continuous
 62
     7
370
    25
100
AcDbLine
 10
191.1629143187
 20
757.9158448196
 30
0.0
 11
191.1629143187
 21
780.2865200962
 31
0.0
  0
LINE
  5
81
330
1F
100
AcDbEntity
  8
0
  6
Continuous
 62
     7
370
    25
100
AcDbLine
 10
191.1629143187
 20
780.2865200962
 30
0.0
 11
190.4129143187
 21
780.9158448196
 31
0.0
  0
LINE
  5
82
330
1F
100
AcDbEntity
  8
0
  6
Continuous
 62
     7
370
    25
100
AcDbLine
 10
183.9129143187
 20
780.9158448196
 30
0.0
 11
183.1629143187
 21
780.2865200962
 31
0.0
  0
LINE
  5
83
330
1F
100
AcDbEntity
  8
0
  6
Continuous
 62
     7
370
    25
100
AcDbLine
 10
337.6629143187
 20
757.9158448196
 30
0.0
 11
202.3045906327
 21
757.9158448196
 31
0.0
  0
LINE
  5
84
330
1F
100
AcDbEntity
  8
0
  6
Continuous
 62
     7
370
    25
100
AcDbLine
 10
191.1629143187
 20
757.9158448196
 30
0.0
 11
191.1629143187
 21
782.9158448196
 31
0.0
  0
LINE
  5
85
330
1F
100
AcDbEntity
  8
0
  6
Continuous
 62
     7
370
    25
100
AcDbLine
 10
191.1629143187
 20
782.9158448196
 30
0.0
 11
187.1629143187
 21
785.3192872957
 31
0.0
  0
LINE
  5
86
330
1F
100
AcDbEntity
  8
0
  6
Continuous
 62
     7
370
    25
100
AcDbLine
 10
187.1629143187
 20
785.3192872957
 30
0.0
 11
183.1629143187
 21
782.9158448196
 31
0.0
  0
LINE
  5
87
330
1F
100
AcDbEntity
  8
0
  6
Continuous
 62
     7
370
    25
100
AcDbLine
 10
183.1629143187
 20
782.9158448196
 30
0.0
 11
183.1629143187
 21
757.9158448196
 31
0.0
  0
LINE
  5
88
330
1F
100
AcDbEntity
  8
0
  6
Continuous
 62
     7
370
    25
100
AcDbLine
 10
146.1629143187
 20
757.9158448196
 30
0.0
 11
146.1629143187
 21
782.9158448196
 31
0.0
  0
LINE
  5
89
330
1F
100
AcDbEntity
  8
0
  6
Continuous
 62
     7
370
    25
100
AcDbLine
 10
146.1629143187
 20
782.9158448196
 30
0.0
 11
142.1629143187
 21
785.3192872957
 31
0.0
  0
LINE
  5
8A
330
1F
100
AcDbEntity
  8
0
  6
Continuous
 62
     7
370
    25
100
AcDbLine
 10
142.1629143187
 20
785.3192872957
 30
0.0
 11
138.1629143187
 21
782.9158448196
 31
0.0
  0
LINE
  5
8B
330
1F
100
AcDbEntity
  8
0
  6
Continuous
 62
     7
370
    25
100
AcDbLine
 10
138.1629143187
 20
782.9158448196
 30
0.0
 11
138.1629143187
 21
757.9158448196
 31
0.0
  0
LINE
  5
8C
330
1F
100
AcDbEntity
  8
0
  6
Continuous
 62
     7
370
    25
100
AcDbLine
 10
122.9629143187
 20
757.9158448196
 30
0.0
 11
107.6629143187
 21
757.9158448196
 31
0.0
  0
LINE
  5
8D
330
1F
100
AcDbEntity
  8
0
  6
Continuous
 62
     7
370
    25
100
AcDbLine
 10
107.6629143187
 20
651.2456727681
 30
0.0
 11
107.6629143187
 21
757.9158448196
 31
0.0
  0
LINE
  5
8E
330
1F
100
AcDbEntity
  8
0
  6
Continuous
 62
     7
370
    25
100
AcDbLine
 10
77.6629143187
 20
651.2456727681
 30
0.0
 11
107.6629143187
 21
651.2456727681
 31
0.0
  0
LINE
  5
8F
330
1F
100
AcDbEntity
  8
0
  6
Continuous
 62
     7
370
    25
100
AcDbLine
 10
77.6629143187
 20
807.9158448196
 30
0.0
 11
77.6629143187
 21
651.2456727681
 31
0.0
  0
LINE
  5
90
330
1F
100
AcDbEntity
  8
0
  6
Continuous
 62
     7
370
    25
100
AcDbLine
 10
77.6629143187
 20
807.9158448196
 30
0.0
 11
337.6629143187
 21
807.9158448196
 31
0.0
  0
LINE
  5
91
330
1F
100
AcDbEntity
  8
0
  6
Continuous
 62
     7
370
    25
100
AcDbLine
 10
337.6629143187
 20
807.9158448196
 30
0.0
 11
337.6629143187
 21
757.9158448196
 31
0.0
  0
LINE
  5
92
330
1F
100
AcDbEntity
  8
0
  6
Continuous
 62
     7
370
    25
100
AcDbLine
 10
183.1629143187
 20
782.9158448196
 30
0.0
 11
191.1629143187
 21
782.9158448196
 31
0.0
  0
LINE
  5
93
330
1F
100
AcDbEntity
  8
0
  6
Continuous
 62
     7
370
    25
100
AcDbLine
 10
138.1629143187
 20
782.9158448196
 30
0.0
 11
146.1629143187
 21
782.9158448196
 31
0.0
  0
LINE
  5
94
330
1F
100
AcDbEntity
  8
0
  6
Continuous
 62
     7
370
    25
100
AcDbLine
 10
188.839823306
 20
777.5858448194
 30
0.0
 11
188.3463966683
 21
777.5858448194
 31
0.0
  0
LINE
  5
95
330
1F
100
AcDbEntity
  8
0
  6
Continuous
 62
     7
370
    25
100
AcDbLine
 10
188.5242034421
 20
778.3358448194
 30
0.0
 11
188.3463966683
 21
778.3358448194
 31
0.0
  0
LINE
  5
96
330
1F
100
AcDbEntity
  8
0
  6
Continuous
 62
     7
370
    25
100
AcDbLine
 10
143.839823306
 20
777.5858448194
 30
0.0
 11
143.3463966683
 21
777.5858448194
 31
0.0
  0
LINE
  5
97
330
1F
100
AcDbEntity
  8
0
  6
Continuous
 62
     7
370
    25
100
AcDbLine
 10
143.5242034421
 20
778.3358448194
 30
0.0
 11
143.3463966683
 21
778.3358448194
 31
0.0
  0
LINE
  5
98
330
1F
100
AcDbEntity
  8
0
  6
Continuous
 62
     7
370
    25
100
AcDbLine
 10
156.6629143187
 20
751.1158448196
 30
0.0
 11
156.6629143187
 21
751.4158448196
 31
0.0
  0
LINE
  5
99
330
1F
100
AcDbEntity
  8
0
  6
Continuous
 62
     7
370
    25
100
AcDbLine
 10
178.1629143187
 20
751.4158448196
 30
0.0
 11
156.6629143187
 21
751.4158448196
 31
0.0
  0
LINE
  5
9A
330
1F
100
AcDbEntity
  8
0
  6
Continuous
 62
     7
370
    25
100
AcDbLine
 10
178.1629143187
 20
751.1158448196
 30
0.0
 11
178.1629143187
 21
751.4158448196
 31
0.0
  0
SPLINE
  5
9B
330
1F
100
AcDbEntity
  8
0
  6
Continuous
 62
     7
370
    25
100
AcDbSpline
210
0.0
220
0.0
230
1.0
 70
     8
 71
     3
 72
    12
 73
     8
 74
     0
 42
0.000000001
 43
0.00000001
 40
0.0
 40
0.0
 40
0.0
 40
0.0
 40
0.1874402685167829
 40
0.3738001097234544
 40
0.5646922088791456
 40
0.7705018884375514
 40
1.0
 40
1.0
 40
1.0
 40
1.0
 10
202.4747790548138
 20
757.4872733909951
 30
0.0
 10
202.4542619054703
 20
757.4882147204088
 30
0.0
 10
202.4133458699969
 20
757.490091953305
 30
0.0
 10
202.0972300023888
 20
757.5051113811406
 30
0.0
 10
201.6248679259164
 20
757.5295178191044
 30
0.0
 10
200.9925975681787
 20
757.5653078419144
 30
0.0
 10
200.5113969653044
 20
757.5983989140949
 30
0.0
 10
200.2577037581188
 20
757.6158448195665
 30
0.0
  0
LINE
  5
9C
330
1F
100
AcDbEntity
  8
0
  6
Continuous
 62
     7
370
    25
100
AcDbLine
 10
200.2577037581
 20
757.6158448196
 30
0.0
 11
200.2577037581
 21
757.9158448196
 31
0.0
  0
SPLINE
  5
9D
330
1F
100
AcDbEntity
  8
0
  6
Continuous
 62
     7
370
    25
100
AcDbSpline
210
0.0
220
0.0
230
1.0
 70
    24
 71
     3
 72
    12
 73
     8
 74
     0
 42
0.000000001
 43
0.00000001
 40
0.0
 40
0.0
 40
0.0
 40
0.0
 40
0.234161780663196
 40
0.4414358015245816
 40
0.6315755808355853
 40
0.8156765084273825
 40
1.0
 40
1.0
 40
1.0
 40
1.0
 10
200.2577037581188
 20
757.9158448195665
 30
0.0
 10
200.4820872328156
 20
757.9158448195665
 30
0.0
 10
200.905089221958
 20
757.9158448195665
 30
0.0
 10
201.4608431637179
 20
757.9158448195665
 30
0.0
 10
201.8740875496143
 20
757.9158448195665
 30
0.0
 10
202.1501054820332
 20
757.9158448195665
 30
0.0
 10
202.1858457531124
 20
757.9158448195665
 30
0.0
 10
202.2037266839422
 20
757.9158448195665
 30
0.0
  0
ARC
  5
9E
330
1F
100
AcDbEntity
  8
0
  6
Continuous
 62
     7
370
    25
100
AcDbCircle
 10
202.2037266839
 20
757.6158448196
 30
0.0
 40
0.2999999999999881
100
AcDbArc
 50
334.6230664749
 51
90.0
  0
LINE
  5
9F
330
1F
100
AcDbEntity
  8
0
  6
Continuous
 62
     7
370
    25
100
AcDbLine
 10
195.2467158316
 20
752.9158448196
 30
0.0
 11
195.2467158316
 21
754.9158448196
 31
0.0
  0
ARC
  5
A0
330
1F
100
AcDbEntity
  8
0
  6
Continuous
 62
     7
370
    25
100
AcDbCircle
 10
195.2467158316
 20
760.9158448196
 30
0.0
 40
6.000000000000114
100
AcDbArc
 50
270.0
 51
326.6329870308
  0
ARC
  5
A1
330
1F
100
AcDbEntity
  8
0
  6
Continuous
 62
     7
370
    25
100
AcDbCircle
 10
195.2467158316
 20
760.9158448196
 30
0.0
 40
8.0
100
AcDbArc
 50
270.0
 51
334.6230664748
  0
LINE
  5
A2
330
1F
100
AcDbEntity
  8
0
  6
Continuous
 62
     7
370
    25
100
AcDbLine
 10
124.6629143187
 20
754.9158448196
 30
0.0
 11
195.2467158316
 21
754.9158448196
 31
0.0
  0
LINE
  5
A3
330
1F
100
AcDbEntity
  8
0
  6
Continuous
 62
     7
370
    25
100
AcDbLine
 10
124.6629143187
 20
757.6158448196
 30
0.0
 11
124.6629143187
 21
754.9158448196
 31
0.0
  0
LINE
  5
A4
330
1F
100
AcDbEntity
  8
0
  6
Continuous
 62
     7
370
    25
100
AcDbLine
 10
200.2577037581
 20
757.6158448196
 30
0.0
 11
124.6629143187
 21
757.6158448196
 31
0.0
  0
LINE
  5
A5
330
1F
100
AcDbEntity
  8
0
  6
Continuous
 62
     7
370
    25
100
AcDbLine
 10
124.6629143187
 20
757.6158448196
 30
0.0
 11
124.6629143187
 21
757.9158448196
 31
0.0
  0
LINE
  5
A6
330
1F
100
AcDbEntity
  8
0
  6
Continuous
 62
     7
370
    25
100
AcDbLine
 10
124.6629143187
 20
757.9158448196
 30
0.0
 11
200.2577037581
 21
757.9158448196
 31
0.0
  0
LINE
  5
A7
330
1F
100
AcDbEntity
  8
0
  6
Continuous
 62
     7
370
    25
100
AcDbLine
 10
195.2467158316
 20
752.9158448196
 30
0.0
 11
124.6629143187
 21
752.9158448196
 31
0.0
  0
LINE
  5
A8
330
1F
100
AcDbEntity
  8
0
  6
Continuous
 62
     7
370
    25
100
AcDbLine
 10
124.6629143187
 20
752.9158448196
 30
0.0
 11
124.6629143187
 21
754.9158448196
 31
0.0
  0
LINE
  5
A9
330
1F
100
AcDbEntity
  8
0
  6
Continuous
 62
     7
370
    25
100
AcDbLine
 10
122.9629143187
 20
757.9158448196
 30
0.0
 11
124.6629143187
 21
757.9158448196
 31
0.0
  0
LINE
  5
AA
330
1F
100
AcDbEntity
  8
0
  6
Continuous
 62
     7
370
    25
100
AcDbLine
 10
124.6629143187
 20
757.6158448196
 30
0.0
 11
122.6629143187
 21
757.6158448196
 31
0.0
  0
ARC
  5
AB
330
1F
100
AcDbEntity
  8
0
  6
Continuous
 62
     7
370
    25
100
AcDbCircle
 10
122.9629143187
 20
757.6158448196
 30
0.0
 40
0.2999999999999829
100
AcDbArc
 50
90.0
 51
180.0
  0
LINE
  5
AC
330
1F
100
AcDbEntity
  8
0
  6
Continuous
 62
     7
370
    25
100
AcDbLine
 10
122.6629143187
 20
754.9158448196
 30
0.0
 11
124.6629143187
 21
754.9158448196
 31
0.0
  0
LINE
  5
AD
330
1F
100
AcDbEntity
  8
0
  6
Continuous
 62
     7
370
    25
100
AcDbLine
 10
122.6629143187
 20
754.9158448196
 30
0.0
 11
122.6629143187
 21
757.6158448196
 31
0.0
  0
ARC
  5
AE
330
1F
100
AcDbEntity
  8
0
  6
Continuous
 62
     7
370
    25
100
AcDbCircle
 10
124.6629143187
 20
754.9158448196
 30
0.0
 40
2.000000000000014
100
AcDbArc
 50
180.0
 51
270.0
  0
LINE
  5
AF
330
1F
100
AcDbEntity
  8
0
  6
Continuous
 62
     7
370
    25
100
AcDbLine
 10
328.3892372133
 20
750.1158448196
 30
0.0
 11
289.9629143187
 21
750.1158448196
 31
0.0
  0
LINE
  5
B0
330
1F
100
AcDbEntity
  8
0
  6
Continuous
 62
     7
370
    25
100
AcDbLine
 10
336.2276207884
 20
721.5503645814
 30
0.0
 11
328.3892372133
 21
750.1158448196
 31
0.0
  0
LINE
  5
B1
330
1F
100
AcDbEntity
  8
0
  6
Continuous
 62
     7
370
    25
100
AcDbLine
 10
328.3892372133
 20
694.4723122312
 30
0.0
 11
336.2276207884
 21
721.5503645814
 31
0.0
  0
LINE
  5
B2
330
1F
100
AcDbEntity
  8
0
  6
Continuous
 62
     7
370
    25
100
AcDbLine
 10
336.2276207884
 20
675.5889336186
 30
0.0
 11
328.3892372133
 21
694.4723122312
 31
0.0
  0
LINE
  5
B3
330
1F
100
AcDbEntity
  8
0
  6
Continuous
 62
     7
370
    25
100
AcDbLine
 10
328.3892372133
 20
656.9995779305
 30
0.0
 11
336.2276207884
 21
675.5889336186
 31
0.0
  0
LINE
  5
B4
330
1F
100
AcDbEntity
  8
0
  6
Continuous
 62
     7
370
    25
100
AcDbLine
 10
277.0328609403
 20
651.1895763533
 30
0.0
 11
328.3892372133
 21
656.9995779305
 31
0.0
  0
LINE
  5
B5
330
1F
100
AcDbEntity
  8
0
  6
Continuous
 62
     7
370
    25
100
AcDbLine
 10
217.4384025239
 20
653.1262435457
 30
0.0
 11
277.0328609403
 21
651.1895763533
 31
0.0
  0
LINE
  5
B6
330
1F
100
AcDbEntity
  8
0
  6
Continuous
 62
     7
370
    25
100
AcDbLine
 10
164.1292971436
 20
649.2529091609
 30
0.0
 11
217.4384025239
 21
653.1262435457
 31
0.0
  0
LINE
  5
B7
330
1F
100
AcDbEntity
  8
0
  6
Continuous
 62
     7
370
    25
100
AcDbLine
 10
110.6629143187
 20
656.9995779305
 30
0.0
 11
164.1292971436
 21
649.2529091609
 31
0.0
  0
LINE
  5
B8
330
1F
100
AcDbEntity
  8
0
  6
Continuous
 62
     7
370
    25
100
AcDbLine
 10
110.6629143187
 20
750.1158448196
 30
0.0
 11
110.6629143187
 21
656.9995779305
 31
0.0
  0
LINE
  5
B9
330
1F
100
AcDbEntity
  8
0
  6
Continuous
 62
     7
370
    25
100
AcDbLine
 10
135.3629143187
 20
750.1158448196
 30
0.0
 11
110.6629143187
 21
750.1158448196
 31
0.0
  0
LINE
  5
BA
330
1F
100
AcDbEntity
  8
0
  6
Continuous
 62
     7
370
    25
100
AcDbLine
 10
289.8278253827
 20
750.3158448196
 30
0.0
 11
289.8278253827
 21
750.1158448196
 31
0.0
  0
LINE
  5
BB
330
1F
100
AcDbEntity
  8
0
  6
Continuous
 62
     7
370
    25
100
AcDbLine
 10
289.8278253827
 20
750.1158448196
 30
0.0
 11
289.9629143187
 21
750.1158448196
 31
0.0
  0
LINE
  5
BC
330
1F
100
AcDbEntity
  8
0
  6
Continuous
 62
     7
370
    25
100
AcDbLine
 10
289.9629143187
 20
750.1158448196
 30
0.0
 11
289.9629143187
 21
707.1158448196
 31
0.0
  0
LINE
  5
BD
330
1F
100
AcDbEntity
  8
0
  6
Continuous
 62
     7
370
    25
100
AcDbLine
 10
289.9629143187
 20
707.1158448196
 30
0.0
 11
289.8278253827
 21
707.1158448196
 31
0.0
  0
LINE
  5
BE
330
1F
100
AcDbEntity
  8
0
  6
Continuous
 62
     7
370
    25
100
AcDbLine
 10
289.8278253827
 20
707.1158448196
 30
0.0
 11
289.8278253827
 21
706.9158448196
 31
0.0
  0
LINE
  5
BF
330
1F
100
AcDbEntity
  8
0
  6
Continuous
 62
     7
370
    25
100
AcDbLine
 10
289.8278253827
 20
706.9158448196
 30
0.0
 11
289.9629143187
 21
706.9158448196
 31
0.0
  0
LINE
  5
C0
330
1F
100
AcDbEntity
  8
0
  6
Continuous
 62
     7
370
    25
100
AcDbLine
 10
289.9629143187
 20
706.9158448196
 30
0.0
 11
289.9629143187
 21
706.1158448196
 31
0.0
  0
LINE
  5
C1
330
1F
100
AcDbEntity
  8
0
  6
Continuous
 62
     7
370
    25
100
AcDbLine
 10
288.5629143187
 20
707.5158448196
 30
0.0
 11
289.9629143187
 21
706.1158448196
 31
0.0
  0
LINE
  5
C2
330
1F
100
AcDbEntity
  8
0
  6
Continuous
 62
     7
370
    25
100
AcDbLine
 10
288.5629143187
 20
707.5158448196
 30
0.0
 11
288.5629143187
 21
749.7158448196
 31
0.0
  0
LINE
  5
C3
330
1F
100
AcDbEntity
  8
0
  6
Continuous
 62
     7
370
    25
100
AcDbLine
 10
288.5629143187
 20
749.7158448196
 30
0.0
 11
289.9629143187
 21
751.1158448196
 31
0.0
  0
LINE
  5
C4
330
1F
100
AcDbEntity
  8
0
  6
Continuous
 62
     7
370
    25
100
AcDbLine
 10
289.9629143187
 20
751.1158448196
 30
0.0
 11
289.9629143187
 21
750.3158448196
 31
0.0
  0
LINE
  5
C5
330
1F
100
AcDbEntity
  8
0
  6
Continuous
 62
     7
370
    25
100
AcDbLine
 10
289.9629143187
 20
750.3158448196
 30
0.0
 11
289.8278253827
 21
750.3158448196
 31
0.0
  0
LINE
  5
C6
330
1F
100
AcDbEntity
  8
0
  6
Continuous
 62
     7
370
    25
100
AcDbLine
 10
136.7629143187
 20
707.5158448196
 30
0.0
 11
288.5629143187
 21
707.5158448196
 31
0.0
  0
LINE
  5
C7
330
1F
100
AcDbEntity
  8
0
  6
Continuous
 62
     7
370
    25
100
AcDbLine
 10
136.7629143187
 20
749.7158448196
 30
0.0
 11
136.7629143187
 21
707.5158448196
 31
0.0
  0
LINE
  5
C8
330
1F
100
AcDbEntity
  8
0
  6
Continuous
 62
     7
370
    25
100
AcDbLine
 10
288.5629143187
 20
749.7158448196
 30
0.0
 11
136.7629143187
 21
749.7158448196
 31
0.0
  0
LINE
  5
C9
330
1F
100
AcDbEntity
  8
0
  6
Continuous
 62
     7
370
    25
100
AcDbLine
 10
135.3629143187
 20
751.1158448196
 30
0.0
 11
136.7629143187
 21
749.7158448196
 31
0.0
  0
LINE
  5
CA
330
1F
100
AcDbEntity
  8
0
  6
Continuous
 62
     7
370
    25
100
AcDbLine
 10
135.3629143187
 20
751.1158448196
 30
0.0
 11
289.9629143187
 21
751.1158448196
 31
0.0
  0
LINE
  5
CB
330
1F
100
AcDbEntity
  8
0
  6
Continuous
 62
     7
370
    25
100
AcDbLine
 10
289.9629143187
 20
706.1158448196
 30
0.0
 11
135.3629143187
 21
706.1158448196
 31
0.0
  0
LINE
  5
CC
330
1F
100
AcDbEntity
  8
0
  6
Continuous
 62
     7
370
    25
100
AcDbLine
 10
135.3629143187
 20
706.1158448196
 30
0.0
 11
136.7629143187
 21
707.5158448196
 31
0.0
  0
LINE
  5
CD
330
1F
100
AcDbEntity
  8
0
  6
Continuous
 62
     7
370
    25
100
AcDbLine
 10
135.3629143187
 20
706.1158448196
 30
0.0
 11
135.3629143187
 21
706.9158448196
 31
0.0
  0
LINE
  5
CE
330
1F
100
AcDbEntity
  8
0
  6
Continuous
 62
     7
370
    25
100
AcDbLine
 10
135.3629143187
 20
706.9158448196
 30
0.0
 11
135.4980032546
 21
706.9158448196
 31
0.0
  0
LINE
  5
CF
330
1F
100
AcDbEntity
  8
0
  6
Continuous
 62
     7
370
    25
100
AcDbLine
 10
135.4980032546
 20
706.9158448196
 30
0.0
 11
135.4980032546
 21
707.1158448196
 31
0.0
  0
LINE
  5
D0
330
1F
100
AcDbEntity
  8
0
  6
Continuous
 62
     7
370
    25
100
AcDbLine
 10
135.4980032546
 20
707.1158448196
 30
0.0
 11
135.3629143187
 21
707.1158448196
 31
0.0
  0
LINE
  5
D1
330
1F
100
AcDbEntity
  8
0
  6
Continuous
 62
     7
370
    25
100
AcDbLine
 10
135.3629143187
 20
707.1158448196
 30
0.0
 11
135.3629143187
 21
750.1158448196
 31
0.0
  0
LINE
  5
D2
330
1F
100
AcDbEntity
  8
0
  6
Continuous
 62
     7
370
    25
100
AcDbLine
 10
135.3629143187
 20
750.1158448196
 30
0.0
 11
135.4980032546
 21
750.1158448196
 31
0.0
  0
LINE
  5
D3
330
1F
100
AcDbEntity
  8
0
  6
Continuous
 62
     7
370
    25
100
AcDbLine
 10
135.4980032546
 20
750.1158448196
 30
0.0
 11
135.4980032546
 21
750.3158448196
 31
0.0
  0
LINE
  5
D4
330
1F
100
AcDbEntity
  8
0
  6
Continuous
 62
     7
370
    25
100
AcDbLine
 10
135.4980032546
 20
750.3158448196
 30
0.0
 11
135.3629143187
 21
750.3158448196
 31
0.0
  0
LINE
  5
D5
330
1F
100
AcDbEntity
  8
0
  6
Continuous
 62
     7
370
    25
100
AcDbLine
 10
135.3629143187
 20
750.3158448196
 30
0.0
 11
135.3629143187
 21
751.1158448196
 31
0.0
  0
LINE
  5
D6
330
1F
100
AcDbEntity
  8
0
  6
Continuous
 62
     7
370
    25
100
AcDbLine
 10
143.3463966683
 20
765.9158448196
 30
0.0
 11
144.2571487779
 21
765.9158448196
 31
0.0
  0
LINE
  5
D7
330
1F
100
AcDbEntity
  8
0
  6
Continuous
 62
     7
370
    25
100
AcDbLine
 10
144.2571487779
 20
780.2865200962
 30
0.0
 11
144.2571487779
 21
765.9158448196
 31
0.0
  0
LINE
  5
D8
330
1F
100
AcDbEntity
  8
0
  6
Continuous
 62
     7
370
    25
100
AcDbLine
 10
144.2571487779
 20
780.2865200962
 30
0.0
 11
146.1629143187
 21
780.2865200962
 31
0.0
  0
LINE
  5
D9
330
1F
100
AcDbEntity
  8
0
  6
Continuous
 62
     7
370
    25
100
AcDbLine
 10
138.1629143187
 20
780.2865200962
 30
0.0
 11
138.3420021857
 21
780.2865200962
 31
0.0
  0
LINE
  5
DA
330
1F
100
AcDbEntity
  8
0
  6
Continuous
 62
     7
370
    25
100
AcDbLine
 10
138.3420021857
 20
765.9158448196
 30
0.0
 11
138.3420021857
 21
780.2865200962
 31
0.0
  0
LINE
  5
DB
330
1F
100
AcDbEntity
  8
0
  6
Continuous
 62
     7
370
    25
100
AcDbLine
 10
138.3420021857
 20
765.9158448196
 30
0.0
 11
138.7549556878
 21
765.9158448196
 31
0.0
  0
LINE
  5
DC
330
1F
100
AcDbEntity
  8
0
  6
Continuous
 62
     7
370
    25
100
AcDbLine
 10
138.7549556878
 20
765.9158448196
 30
0.0
 11
138.7549556878
 21
780.2865200962
 31
0.0
  0
LINE
  5
DD
330
1F
100
AcDbEntity
  8
0
  6
Continuous
 62
     7
370
    25
100
AcDbLine
 10
138.7549556878
 20
780.2865200962
 30
0.0
 11
143.3463966683
 21
780.2865200962
 31
0.0
  0
LINE
  5
DE
330
1F
100
AcDbEntity
  8
0
  6
Continuous
 62
     7
370
    25
100
AcDbLine
 10
143.3463966683
 20
780.2865200962
 30
0.0
 11
143.3463966683
 21
765.9158448196
 31
0.0
  0
SPLINE
  5
DF
330
1F
100
AcDbEntity
  8
0
  6
Continuous
 62
     7
370
    25
100
AcDbSpline
210
0.0
220
0.0
230
1.0
 70
     8
 71
     3
 72
     9
 73
     5
 74
     0
 42
0.000000001
 43
0.00000001
 40
0.0
 40
0.0
 40
0.0
 40
0.0
 40
0.4785453229089759
 40
1.0
 40
1.0
 40
1.0
 40
1.0
 10
139.4446854024633
 20
780.9158448195666
 30
0.0
 10
139.3345934200885
 20
780.8155500816305
 30
0.0
 10
139.1045379225119
 20
780.605967554888
 30
0.0
 10
138.8747695041633
 20
780.3960056917354
 30
0.0
 10
138.7549556877676
 20
780.2865200961836
 30
0.0
  0
LINE
  5
E0
330
1F
100
AcDbEntity
  8
0
  6
Continuous
 62
     7
370
    25
100
AcDbLine
 10
139.4446854025
 20
780.9158448196
 30
0.0
 11
143.0336592086
 21
780.9158448196
 31
0.0
  0
SPLINE
  5
E1
330
1F
100
AcDbEntity
  8
0
  6
Continuous
 62
     7
370
    25
100
AcDbSpline
210
0.0
220
0.0
230
1.0
 70
     8
 71
     3
 72
     9
 73
     5
 74
     0
 42
0.000000001
 43
0.00000001
 40
0.0
 40
0.0
 40
0.0
 40
0.0
 40
0.5214546770910243
 40
1.0
 40
1.0
 40
1.0
 40
1.0
 10
143.3463966682845
 20
780.2865200961836
 30
0.0
 10
143.2920706507426
 20
780.3960056917354
 30
0.0
 10
143.1878889837088
 20
780.605967554888
 30
0.0
 10
143.0835771491231
 20
780.8155500816305
 30
0.0
 10
143.033659208558
 20
780.9158448195666
 30
0.0
  0
LINE
  5
E2
330
1F
100
AcDbEntity
  8
0
  6
Continuous
 62
     7
370
    25
100
AcDbLine
 10
143.2022948168
 20
780.9158448196
 30
0.0
 11
143.2343360365
 21
780.5122408383
 31
0.0
  0
LINE
  5
E3
330
1F
100
AcDbEntity
  8
0
  6
Continuous
 62
     7
370
    25
100
AcDbLine
 10
143.3463966683
 20
779.0788958478
 30
0.0
 11
143.4044674641
 21
778.3358448194
 31
0.0
  0
LINE
  5
E4
330
1F
100
AcDbEntity
  8
0
  6
Continuous
 62
     7
370
    25
100
AcDbLine
 10
143.9444113181
 20
780.9158448196
 30
0.0
 11
143.2022948168
 21
780.9158448196
 31
0.0
  0
SPLINE
  5
E5
330
1F
100
AcDbEntity
  8
0
  6
Continuous
 62
     7
370
    25
100
AcDbSpline
210
0.0
220
0.0
230
1.0
 70
     8
 71
     3
 72
     9
 73
     5
 74
     0
 42
0.000000001
 43
0.00000001
 40
0.0
 40
0.0
 40
0.0
 40
0.0
 40
0.5214546770910262
 40
1.0
 40
1.0
 40
1.0
 40
1.0
 10
144.2571487778615
 20
780.2865200961836
 30
0.0
 10
144.2028227603196
 20
780.3960056917354
 30
0.0
 10
144.0986410932858
 20
780.605967554888
 30
0.0
 10
143.9943292587
 20
780.8155500816305
 30
0.0
 10
143.944411318135
 20
780.9158448195666
 30
0.0
  0
LINE
  5
E6
330
1F
100
AcDbEntity
  8
0
  6
Continuous
 62
     7
370
    25
100
AcDbLine
 10
143.9444113181
 20
780.9158448196
 30
0.0
 11
145.4129143187
 21
780.9158448196
 31
0.0
  0
SPLINE
  5
E7
330
1F
100
AcDbEntity
  8
0
  6
Continuous
 62
     7
370
    25
100
AcDbSpline
210
0.0
220
0.0
230
1.0
 70
     8
 71
     3
 72
     9
 73
     5
 74
     0
 42
0.000000001
 43
0.00000001
 40
0.0
 40
0.0
 40
0.0
 40
0.0
 40
0.4785453229089806
 40
1.0
 40
1.0
 40
1.0
 40
1.0
 10
139.031731900358
 20
780.9158448195666
 30
0.0
 10
138.9216399179832
 20
780.8155500816305
 30
0.0
 10
138.6915844204066
 20
780.605967554888
 30
0.0
 10
138.461816002058
 20
780.3960056917354
 30
0.0
 10
138.3420021856623
 20
780.2865200961836
 30
0.0
  0
LINE
  5
E8
330
1F
100
AcDbEntity
  8
0
  6
Continuous
 62
     7
370
    25
100
AcDbLine
 10
139.4446854025
 20
780.9158448196
 30
0.0
 11
139.0317319004
 21
780.9158448196
 31
0.0
  0
LINE
  5
E9
330
1F
100
AcDbEntity
  8
0
  6
Continuous
 62
     7
370
    25
100
AcDbLine
 10
138.9129143187
 20
780.9158448196
 30
0.0
 11
139.0317319004
 21
780.9158448196
 31
0.0
  0
LINE
  5
EA
330
1F
100
AcDbEntity
  8
0
  6
Continuous
 62
     7
370
    25
100
AcDbLine
 10
143.2022948168
 20
780.9158448196
 30
0.0
 11
143.0336592086
 21
780.9158448196
 31
0.0
  0
LINE
  5
EB
330
1F
100
AcDbEntity
  8
0
  6
Continuous
 62
     7
370
    25
100
AcDbLine
 10
188.3463966683
 20
765.9158448196
 30
0.0
 11
189.2571487779
 21
765.9158448196
 31
0.0
  0
LINE
  5
EC
330
1F
100
AcDbEntity
  8
0
  6
Continuous
 62
     7
370
    25
100
AcDbLine
 10
189.2571487779
 20
780.2865200962
 30
0.0
 11
189.2571487779
 21
765.9158448196
 31
0.0
  0
LINE
  5
ED
330
1F
100
AcDbEntity
  8
0
  6
Continuous
 62
     7
370
    25
100
AcDbLine
 10
189.2571487779
 20
780.2865200962
 30
0.0
 11
191.1629143187
 21
780.2865200962
 31
0.0
  0
LINE
  5
EE
330
1F
100
AcDbEntity
  8
0
  6
Continuous
 62
     7
370
    25
100
AcDbLine
 10
183.1629143187
 20
780.2865200962
 30
0.0
 11
183.3420021857
 21
780.2865200962
 31
0.0
  0
LINE
  5
EF
330
1F
100
AcDbEntity
  8
0
  6
Continuous
 62
     7
370
    25
100
AcDbLine
 10
183.3420021857
 20
765.9158448196
 30
0.0
 11
183.3420021857
 21
780.2865200962
 31
0.0
  0
LINE
  5
F0
330
1F
100
AcDbEntity
  8
0
  6
Continuous
 62
     7
370
    25
100
AcDbLine
 10
183.3420021857
 20
765.9158448196
 30
0.0
 11
183.7549556878
 21
765.9158448196
 31
0.0
  0
LINE
  5
F1
330
1F
100
AcDbEntity
  8
0
  6
Continuous
 62
     7
370
    25
100
AcDbLine
 10
183.7549556878
 20
765.9158448196
 30
0.0
 11
183.7549556878
 21
780.2865200962
 31
0.0
  0
LINE
  5
F2
330
1F
100
AcDbEntity
  8
0
  6
Continuous
 62
     7
370
    25
100
AcDbLine
 10
183.7549556878
 20
780.2865200962
 30
0.0
 11
188.3463966683
 21
780.2865200962
 31
0.0
  0
LINE
  5
F3
330
1F
100
AcDbEntity
  8
0
  6
Continuous
 62
     7
370
    25
100
AcDbLine
 10
188.3463966683
 20
780.2865200962
 30
0.0
 11
188.3463966683
 21
765.9158448196
 31
0.0
  0
SPLINE
  5
F4
330
1F
100
AcDbEntity
  8
0
  6
Continuous
 62
     7
370
    25
100
AcDbSpline
210
0.0
220
0.0
230
1.0
 70
     8
 71
     3
 72
     9
 73
     5
 74
     0
 42
0.000000001
 43
0.00000001
 40
0.0
 40
0.0
 40
0.0
 40
0.0
 40
0.4785453229089759
 40
1.0
 40
1.0
 40
1.0
 40
1.0
 10
184.4446854024633
 20
780.9158448195666
 30
0.0
 10
184.3345934200885
 20
780.8155500816306
 30
0.0
 10
184.1045379225119
 20
780.6059675548881
 30
0.0
 10
183.8747695041633
 20
780.3960056917354
 30
0.0
 10
183.7549556877676
 20
780.2865200961836
 30
0.0
  0
LINE
  5
F5
330
1F
100
AcDbEntity
  8
0
  6
Continuous
 62
     7
370
    25
100
AcDbLine
 10
184.4446854025
 20
780.9158448196
 30
0.0
 11
188.0336592086
 21
780.9158448196
 31
0.0
  0
SPLINE
  5
F6
330
1F
100
AcDbEntity
  8
0
  6
Continuous
 62
     7
370
    25
100
AcDbSpline
210
0.0
220
0.0
230
1.0
 70
     8
 71
     3
 72
     9
 73
     5
 74
     0
 42
0.000000001
 43
0.00000001
 40
0.0
 40
0.0
 40
0.0
 40
0.0
 40
0.5214546770910243
 40
1.0
 40
1.0
 40
1.0
 40
1.0
 10
188.3463966682845
 20
780.2865200961836
 30
0.0
 10
188.2920706507427
 20
780.3960056917354
 30
0.0
 10
188.1878889837089
 20
780.6059675548881
 30
0.0
 10
188.0835771491231
 20
780.8155500816306
 30
0.0
 10
188.033659208558
 20
780.9158448195666
 30
0.0
  0
LINE
  5
F7
330
1F
100
AcDbEntity
  8
0
  6
Continuous
 62
     7
370
    25
100
AcDbLine
 10
188.2022948168
 20
780.9158448196
 30
0.0
 11
188.2343360365
 21
780.5122408383
 31
0.0
  0
LINE
  5
F8
330
1F
100
AcDbEntity
  8
0
  6
Continuous
 62
     7
370
    25
100
AcDbLine
 10
188.3463966683
 20
779.0788958478
 30
0.0
 11
188.4044674641
 21
778.3358448194
 31
0.0
  0
LINE
  5
F9
330
1F
100
AcDbEntity
  8
0
  6
Continuous
 62
     7
370
    25
100
AcDbLine
 10
188.9444113181
 20
780.9158448196
 30
0.0
 11
188.2022948168
 21
780.9158448196
 31
0.0
  0
SPLINE
  5
FA
330
1F
100
AcDbEntity
  8
0
  6
Continuous
 62
     7
370
    25
100
AcDbSpline
210
0.0
220
0.0
230
1.0
 70
     8
 71
     3
 72
     9
 73
     5
 74
     0
 42
0.000000001
 43
0.00000001
 40
0.0
 40
0.0
 40
0.0
 40
0.0
 40
0.5214546770910262
 40
1.0
 40
1.0
 40
1.0
 40
1.0
 10
189.2571487778615
 20
780.2865200961836
 30
0.0
 10
189.2028227603196
 20
780.3960056917354
 30
0.0
 10
189.0986410932859
 20
780.6059675548881
 30
0.0
 10
188.9943292587001
 20
780.8155500816306
 30
0.0
 10
188.944411318135
 20
780.9158448195666
 30
0.0
  0
LINE
  5
FB
330
1F
100
AcDbEntity
  8
0
  6
Continuous
 62
     7
370
    25
100
AcDbLine
 10
188.9444113181
 20
780.9158448196
 30
0.0
 11
190.4129143187
 21
780.9158448196
 31
0.0
  0
SPLINE
  5
FC
330
1F
100
AcDbEntity
  8
0
  6
Continuous
 62
     7
370
    25
100
AcDbSpline
210
0.0
220
0.0
230
1.0
 70
     8
 71
     3
 72
     9
 73
     5
 74
     0
 42
0.000000001
 43
0.00000001
 40
0.0
 40
0.0
 40
0.0
 40
0.0
 40
0.4785453229089806
 40
1.0
 40
1.0
 40
1.0
 40
1.0
 10
184.031731900358
 20
780.9158448195666
 30
0.0
 10
183.9216399179832
 20
780.8155500816306
 30
0.0
 10
183.6915844204066
 20
780.6059675548881
 30
0.0
 10
183.461816002058
 20
780.3960056917354
 30
0.0
 10
183.3420021856623
 20
780.2865200961836
 30
0.0
  0
LINE
  5
FD
330
1F
100
AcDbEntity
  8
0
  6
Continuous
 62
     7
370
    25
100
AcDbLine
 10
184.4446854025
 20
780.9158448196
 30
0.0
 11
184.0317319004
 21
780.9158448196
 31
0.0
  0
LINE
  5
FE
330
1F
100
AcDbEntity
  8
0
  6
Continuous
 62
     7
370
    25
100
AcDbLine
 10
183.9129143187
 20
780.9158448196
 30
0.0
 11
184.0317319004
 21
780.9158448196
 31
0.0
  0
LINE
  5
FF
330
1F
100
AcDbEntity
  8
0
  6
Continuous
 62
     7
370
    25
100
AcDbLine
 10
188.2022948168
 20
780.9158448196
 30
0.0
 11
188.0336592086
 21
780.9158448196
 31
0.0
  0
LINE
  5
100
330
1F
100
AcDbEntity
  8
0
  6
Continuous
 62
     8
370
    25
100
AcDbLine
 10
174.6629143187
 20
752.5158448196
 30
0.0
 11
160.6629143187
 21
752.5158448196
 31
0.0
  0
LINE
  5
101
330
1F
100
AcDbEntity
  8
0
  6
Continuous
 62
     7
370
    18
100
AcDbLine
 10
187.1629143187
 20
785.3192872957
 30
0.0
 11
187.1629143187
 21
731.7396699266
 31
0.0
  0
LINE
  5
102
330
1F
100
AcDbEntity
  8
0
  6
Continuous
 62
     7
370
    18
100
AcDbLine
 10
202.4747790548
 20
757.487273391
 30
0.0
 11
202.4747790548
 21
731.7396699266
 31
0.0
  0
LINE
  5
103
330
1F
100
AcDbEntity
  8
0
  6
HIDDEN
 62
     7
370
    18
100
AcDbLine
 10
169.0868829231
 20
738.1799491926
 30
0.0
 11
168.5791902265
 21
739.5310899918
 31
0.0
  0
LINE
  5
104
330
1F
100
AcDbEntity
  8
0
  6
HIDDEN
 62
     7
370
    18
100
AcDbLine
 10
168.1706070154
 20
737.0647040204
 30
0.0
 11
169.0868829231
 21
738.1799491926
 31
0.0
  0
LINE
  5
105
330
1F
100
AcDbEntity
  8
0
  6
HIDDEN
 62
     7
370
    18
100
AcDbLine
 10
166.7466384109
 20
737.3005996474
 30
0.0
 11
168.1706070154
 21
737.0647040204
 31
0.0
  0
LINE
  5
106
330
1F
100
AcDbEntity
  8
0
  6
HIDDEN
 62
     7
370
    18
100
AcDbLine
 10
166.2389457142
 20
738.6517404465
 30
0.0
 11
166.7466384109
 21
737.3005996474
 31
0.0
  0
LINE
  5
107
330
1F
100
AcDbEntity
  8
0
  6
HIDDEN
 62
     7
370
    18
100
AcDbLine
 10
167.155221622
 20
739.7669856187
 30
0.0
 11
166.2389457142
 21
738.6517404465
 31
0.0
  0
LINE
  5
108
330
1F
100
AcDbEntity
  8
0
  6
HIDDEN
 62
     7
370
    18
100
AcDbLine
 10
168.5791902265
 20
739.5310899918
 30
0.0
 11
167.155221622
 21
739.7669856187
 31
0.0
  0
LINE
  5
109
330
1F
100
AcDbEntity
  8
0
  6
HIDDEN
 62
     7
370
    18
100
AcDbLine
 10
164.6629143187
 20
733.8808448196
 30
0.0
 11
164.6629143187
 21
742.9508448196
 31
0.0
  0
LINE
  5
10A
330
1F
100
AcDbEntity
  8
0
  6
HIDDEN
 62
     7
370
    18
100
AcDbLine
 10
170.6629143187
 20
742.9508448196
 30
0.0
 11
170.6629143187
 21
733.8808448196
 31
0.0
  0
CIRCLE
  5
10B
330
1F
100
AcDbEntity
  8
0
  6
HIDDEN
 62
     7
370
    18
100
AcDbCircle
 10
167.6629143187
 20
738.4158448196
 30
0.0
 40
2.500000000000012
  0
ARC
  5
10C
330
1F
100
AcDbEntity
  8
0
  6
HIDDEN
 62
     7
370
    18
100
AcDbCircle
 10
167.6629143187
 20
733.9158448196
 30
0.0
 40
3.0
100
AcDbArc
 50
180.0
 51
0.0
  0
ARC
  5
10D
330
1F
100
AcDbEntity
  8
0
  6
HIDDEN
 62
     7
370
    18
100
AcDbCircle
 10
167.6629143187
 20
742.9158448196
 30
0.0
 40
3.0
100
AcDbArc
 50
360.0
 51
180.0
  0
HATCH
  5
10E
330
1F
100
AcDbEntity
  8
0
  6
Continuous
 62
     7
100
AcDbHatch
 10
0.0
 20
0.0
 30
0.0
210
0.0
220
0.0
230
1.0
  2
LINE
 70
     0
 71
     0
 91
        1
 92
        0
 93
       16
 72
     1
 10
191.1629143186672
 20
782.9158448195665
 11
191.1629143186672
 21
757.9158448195665
 72
     1
 10
191.1629143186672
 20
757.9158448195665
 11
337.6629143186672
 21
757.9158448195665
 72
     1
 10
337.6629143186672
 20
757.9158448195665
 11
337.6629143186673
 21
807.9158448195665
 72
     1
 10
337.6629143186673
 20
807.9158448195665
 11
77.66291431866722
 21
807.9158448195666
 72
     1
 10
77.66291431866723
 20
807.9158448195666
 11
77.6629143186672
 21
651.2456727680582
 72
     1
 10
77.6629143186672
 20
651.2456727680582
 11
107.6629143186672
 21
651.2456727680581
 72
     1
 10
107.6629143186672
 20
651.2456727680581
 11
107.6629143186672
 21
757.9158448195665
 72
     1
 10
107.6629143186672
 20
757.9158448195665
 11
138.1629143186672
 21
757.9158448195665
 72
     1
 10
138.1629143186672
 20
757.9158448195665
 11
138.1629143186672
 21
782.9158448195664
 72
     1
 10
138.1629143186672
 20
782.9158448195664
 11
142.1629143186674
 21
785.3192872956768
 72
     1
 10
142.1629143186674
 20
785.3192872956768
 11
146.1629143186673
 21
782.9158448195664
 72
     1
 10
146.1629143186673
 20
782.9158448195664
 11
146.1629143186672
 21
757.9158448195665
 72
     1
 10
146.1629143186672
 20
757.9158448195665
 11
183.1629143186672
 21
757.9158448195665
 72
     1
 10
183.1629143186672
 20
757.9158448195665
 11
183.1629143186672
 21
782.9158448195664
 72
     1
 10
183.1629143186672
 20
782.9158448195664
 11
187.1629143186672
 21
785.3192872956769
 72
     1
 10
187.1629143186672
 20
785.3192872956769
 11
191.1629143186672
 21
782.9158448195665
 97
        0
 75
     0
 76
     1
 52
45.0
 41
2.0
 77
     0
 78
     1
 53
45.0000000000001
 43
0.0
 44
0.0
 45
-4.490128060534585
 46
4.490128060534569
 79
     0
 98
        1
 10
0.0
 20
0.0
  0
DIMENSION
  5
10F
330
1F
100
AcDbEntity
  8
0
  6
Continuous
 62
     7
370
    18
100
AcDbDimension
  2
_D
 10
107.6629143187
 20
880.5158448196
 30
0.0
 11
144.1226565046
 21
880.5158448196
 31
0.0
 70
   160
  1
<>
 71
     2
 42
-1.0
  3
SLDDIMSTYLE0
100
AcDbAlignedDimension
 13
187.1629143187
 23
785.3192872957
 33
0.0
 14
107.6629143187
 24
757.9158448196
 34
0.0
100
AcDbRotatedDimension
  0
DIMENSION
  5
11A
330
1F
100
AcDbEntity
  8
0
  6
Continuous
 62
     7
370
    18
100
AcDbDimension
  2
_D_1
 10
202.4747790548
 20
908.3676573161
 30
0.0
 11
164.6629143187
 21
908.3676573161
 31
0.0
 70
   160
  1
<>
 71
     2
 42
-1.0
  3
SLDDIMSTYLE0
100
AcDbAlignedDimension
 13
107.6629143187
 23
757.9158448196
 33
0.0
 14
202.4747790548
 24
757.487273391
 34
0.0
100
AcDbRotatedDimension
  0
DIMENSION
  5
124
330
1F
100
AcDbEntity
  8
0
  6
Continuous
 62
     7
370
    18
100
AcDbDimension
  2
_D_2
 10
107.6629143187
 20
616.2529091609
 30
0.0
 11
73.5897515177
 21
616.2529091609
 31
0.0
 70
   160
  1
<>
 71
     2
 42
-1.0
  3
SLDDIMSTYLE1
100
AcDbAlignedDimension
 13
110.6629143187
 23
656.9995779305
 33
0.0
 14
107.6629143187
 24
651.2456727681
 34
0.0
100
AcDbRotatedDimension
  0
DIMENSION
  5
131
330
1F
100
AcDbEntity
  8
0
  6
Continuous
 62
     7
370
    18
100
AcDbDimension
  2
_D_3
 10
167.6629143187
 20
596.4529091609
 30
0.0
 11
137.716118129
 21
596.4529091609
 31
0.0
 70
   160
  1
<>
 71
     2
 42
-1.0
  3
SLDDIMSTYLE0
100
AcDbAlignedDimension
 13
107.6629143187
 23
651.2456727681
 33
0.0
 14
167.6629143187
 24
721.1751281172
 34
0.0
100
AcDbRotatedDimension
  0
DIMENSION
  5
13B
330
1F
100
AcDbEntity
  8
0
  6
Continuous
 62
     7
370
    18
100
AcDbDimension
  2
_D_4
 10
382.1517138151
 20
750.1158448196
 30
0.0
 11
382.1517138151
 21
827.6093490671
 31
0.0
 70
   160
  1
8
 71
     2
 42
-1.0
  3
SLDDIMSTYLE2
100
AcDbAlignedDimension
 13
337.6629143187
 23
757.9158448196
 33
0.0
 14
328.3892372133
 24
750.1158448196
 34
0.0
 50
90.0
100
AcDbRotatedDimension
  0
DIMENSION
  5
14C
330
1F
100
AcDbEntity
  8
0
  6
Continuous
 62
     7
370
    18
100
AcDbDimension
  2
_D_5
 10
267.6741586755
 20
706.1158448196
 30
0.0
 11
267.6741586755
 21
727.0956196556
 31
0.0
 70
   160
  1
<>
 71
     2
 42
-1.0
  3
SLDDIMSTYLE1
100
AcDbAlignedDimension
 13
289.9629143187
 23
751.1158448196
 33
0.0
 14
289.9629143187
 24
706.1158448196
 34
0.0
 50
90.0
100
AcDbRotatedDimension
  0
DIMENSION
  5
156
330
1F
100
AcDbEntity
  8
0
  6
Continuous
 62
     7
370
    18
100
AcDbDimension
  2
_D_6
 10
289.9629143187
 20
667.0570671891
 30
0.0
 11
212.6629143187
 21
667.0570671891
 31
0.0
 70
   160
  1
<>
 71
     2
 42
-1.0
  3
SLDDIMSTYLE3
100
AcDbAlignedDimension
 13
135.3629143187
 23
707.1158448196
 33
0.0
 14
289.9629143187
 24
707.1158448196
 34
0.0
100
AcDbRotatedDimension
  0
DIMENSION
  5
161
330
1F
100
AcDbEntity
  8
0
  6
Continuous
 62
     7
370
    18
100
AcDbDimension
  2
_D_7
 10
187.1629143187
 20
860.7158448196
 30
0.0
 11
164.6629143187
 21
860.7158448196
 31
0.0
 70
   160
  1
<>
 71
     2
 42
-1.0
  3
SLDDIMSTYLE1
100
AcDbAlignedDimension
 13
142.1629143187
 23
785.3192872957
 33
0.0
 14
187.1629143187
 24
785.3192872957
 34
0.0
100
AcDbRotatedDimension
  0
DIMENSION
  5
16D
330
1F
100
AcDbEntity
  8
0
  6
Continuous
 62
     7
370
    18
100
AcDbDimension
  2
_D_8
 10
64.5492204856
 20
757.9158448196
 30
0.0
 11
64.5492204856
 21
776.4922094374
 31
0.0
 70
   160
  1
<>
 71
     2
 42
-1.0
  3
SLDDIMSTYLE4
100
AcDbAlignedDimension
 13
142.1629143187
 23
785.3192872957
 33
0.0
 14
107.6629143187
 24
757.9158448196
 34
0.0
 50
90.0
100
AcDbRotatedDimension
  0
DIMENSION
  5
17A
330
1F
100
AcDbEntity
  8
0
  6
Continuous
 62
     7
370
    18
100
AcDbDimension
  2
_D_9
 10
183.1629143187
 20
840.9158448196
 30
0.0
 11
226.2810882153
 21
840.9158448196
 31
0.0
 70
   160
  1
%%c<>
 71
     2
 42
-1.0
  3
SLDDIMSTYLE1
100
AcDbAlignedDimension
 13
191.1629143187
 23
782.9158448196
 33
0.0
 14
183.1629143187
 24
782.9158448196
 34
0.0
100
AcDbRotatedDimension
  0
DIMENSION
  5
187
330
1F
100
AcDbEntity
  8
0
  6
Continuous
 62
     7
370
    18
100
AcDbDimension
  2
_D_10
 10
107.6629143187
 20
831.7200705652
 30
0.0
 11
67.3751738152
 21
831.7200705652
 31
0.0
 70
   160
  1
<>
 71
     2
 42
-1.0
  3
SLDDIMSTYLE1
100
AcDbAlignedDimension
 13
122.6629143187
 23
757.6158448196
 33
0.0
 14
107.6629143187
 24
757.9158448196
 34
0.0
100
AcDbRotatedDimension
  0
INSERT
  5
199
102
{ACAD_REACTORS
330
19B
102
}
330
1F
100
AcDbEntity
  8
0
  6
Continuous
 62
     7
370
     0
100
AcDbBlockReference
  2
SW_NOTE_0
 10
71.0704224745
 20
719.9260749112
 30
0.0
  0
LEADER
  5
19B
330
1F
100
AcDbEntity
  8
0
  6
Continuous
 62
     7
370
     0
100
AcDbLeader
  3
SLDDIMSTYLE5
 73
     2
 76
     2
 10
164.6629143187
 20
736.4108130999
 30
0.0
 10
71.0704224745
 20
719.9260749112
 30
0.0
340
199
  0
INSERT
  5
1A7
330
1F
100
AcDbEntity
  8
0
  6
Continuous
 62
     7
370
     0
100
AcDbBlockReference
  2
SW_CENTERMARKSYMBOL_0
 10
147.6629143187
 20
728.6158448196
 30
0.0
  0
INSERT
  5
1B3
330
1F
100
AcDbEntity
  8
0
  6
Continuous
 62
     7
370
     0
100
AcDbBlockReference
  2
SW_CENTERMARKSYMBOL_1
 10
277.6629143187
 20
728.6158448196
 30
0.0
  0
LINE
  5
1B4
330
1F
100
AcDbEntity
  8
0
  6
CENTERX2
 62
     7
370
    18
100
AcDbLine
 10
167.6629143187
 20
721.1751281172
 30
0.0
 11
167.6629143187
 21
759.1158448196
 31
0.0
  0
LINE
  5
1B5
330
1F
100
AcDbEntity
  8
0
  6
Continuous
 62
     7
370
    25
100
AcDbLine
 10
202.5037266839
 20
525.9280756295
 30
0.0
 11
202.5037266839
 21
546.9280756295
 31
0.0
  0
ARC
  5
1B6
330
1F
100
AcDbEntity
  8
0
  6
Continuous
 62
     7
370
    25
100
AcDbCircle
 10
271.3629143187
 20
540.7280756295
 30
0.0
 40
0.2000000000000455
100
AcDbArc
 50
90.0
 51
180.0
  0
LINE
  5
1B7
330
1F
100
AcDbEntity
  8
0
  6
Continuous
 62
     7
370
    25
100
AcDbLine
 10
271.1629143187
 20
540.7280756295
 30
0.0
 11
271.1629143187
 21
531.4280756295
 31
0.0
  0
LINE
  5
1B8
330
1F
100
AcDbEntity
  8
0
  6
Continuous
 62
     7
370
    25
100
AcDbLine
 10
110.6629143187
 20
541.4280756295
 30
0.0
 11
110.6629143187
 21
531.4280756295
 31
0.0
  0
LINE
  5
1B9
330
1F
100
AcDbEntity
  8
0
  6
Continuous
 62
     7
370
    25
100
AcDbLine
 10
122.6629143187
 20
531.4280756295
 30
0.0
 11
110.6629143187
 21
531.4280756295
 31
0.0
  0
LINE
  5
1BA
330
1F
100
AcDbEntity
  8
0
  6
Continuous
 62
     7
370
    25
100
AcDbLine
 10
122.6629143187
 20
541.4280756295
 30
0.0
 11
110.6629143187
 21
541.4280756295
 31
0.0
  0
LINE
  5
1BB
330
1F
100
AcDbEntity
  8
0
  6
Continuous
 62
     7
370
    25
100
AcDbLine
 10
336.2276207884
 20
531.4280756295
 30
0.0
 11
336.2276207884
 21
541.4280756295
 31
0.0
  0
LINE
  5
1BC
330
1F
100
AcDbEntity
  8
0
  6
Continuous
 62
     7
370
    25
100
AcDbLine
 10
336.2276207884
 20
531.4280756295
 30
0.0
 11
328.3892372133
 21
531.4280756295
 31
0.0
  0
LINE
  5
1BD
330
1F
100
AcDbEntity
  8
0
  6
Continuous
 62
     7
370
    25
100
AcDbLine
 10
336.2276207884
 20
541.4280756295
 30
0.0
 11
328.3892372133
 21
541.4280756295
 31
0.0
  0
LINE
  5
1BE
330
1F
100
AcDbEntity
  8
0
  6
Continuous
 62
     7
370
    25
100
AcDbLine
 10
272.1629143187
 20
541.4280756295
 30
0.0
 11
272.1629143187
 21
531.4280756295
 31
0.0
  0
LINE
  5
1BF
330
1F
100
AcDbEntity
  8
0
  6
Continuous
 62
     7
370
    25
100
AcDbLine
 10
328.3892372133
 20
531.4280756295
 30
0.0
 11
289.9629143187
 21
531.4280756295
 31
0.0
  0
LINE
  5
1C0
330
1F
100
AcDbEntity
  8
0
  6
Continuous
 62
     7
370
    25
100
AcDbLine
 10
328.3892372133
 20
541.4280756295
 30
0.0
 11
289.9629143187
 21
541.4280756295
 31
0.0
  0
ARC
  5
1C1
330
1F
100
AcDbEntity
  8
0
  6
Continuous
 62
     7
370
    25
100
AcDbCircle
 10
142.1629143187
 20
536.4280756295
 30
0.0
 40
2.250000000060463
100
AcDbArc
 50
101.5509163135
 51
127.2300931266
  0
LWPOLYLINE
  5
1C2
330
1F
100
AcDbEntity
  8
0
  6
Continuous
 62
     7
370
    25
100
AcDbPolyline
 90
        3
 70
   128
 43
0.0
 10
143.9543918995
 20
537.789364753
 10
144.2208608404
 20
537.3376668091
 10
144.3673454016
 20
536.8786126434
  0
ARC
  5
1C3
330
1F
100
AcDbEntity
  8
0
  6
Continuous
 62
     7
370
    25
100
AcDbCircle
 10
142.1629143187
 20
536.4280756295
 30
0.0
 40
2.250000000060513
100
AcDbArc
 50
281.5509163135
 51
307.2300931266
  0
LWPOLYLINE
  5
1C4
330
1F
100
AcDbEntity
  8
0
  6
Continuous
 62
     7
370
    25
100
AcDbPolyline
 90
        3
 70
   128
 43
0.0
 10
140.3714367378
 20
535.0667865061
 10
140.1049677969
 20
535.51848445
 10
139.9584832357
 20
535.9775386156
  0
LWPOLYLINE
  5
1C5
330
1F
100
AcDbEntity
  8
0
  6
Continuous
 62
     7
370
    25
100
AcDbPolyline
 90
        3
 70
   128
 43
0.0
 10
143.839823306
 20
533.9405113091
 10
143.3600095746
 20
533.6772643041
 10
142.9290711965
 20
533.527557807
  0
LWPOLYLINE
  5
1C6
330
1F
100
AcDbEntity
  8
0
  6
Continuous
 62
     7
370
    25
100
AcDbPolyline
 90
        3
 70
   128
 43
0.0
 10
139.6753499983
 20
534.7511666422
 10
139.492697324
 20
535.0606176954
 10
139.2623964962
 20
535.6619187517
  0
ARC
  5
1C7
330
1F
100
AcDbEntity
  8
0
  6
Continuous
 62
     7
370
    25
100
AcDbCircle
 10
142.1629143187
 20
536.4280756295
 30
0.0
 40
3.000000000000044
100
AcDbArc
 50
104.7964364932
 51
123.9845729469
  0
LWPOLYLINE
  5
1C8
330
1F
100
AcDbEntity
  8
0
  6
Continuous
 62
     7
370
    25
100
AcDbPolyline
 90
        3
 70
   128
 43
0.0
 10
144.6629143187
 20
538.0863880247
 10
144.9834637794
 20
537.4500838191
 10
145.0634321412
 20
537.1942325073
  0
ARC
  5
1C9
330
1F
100
AcDbEntity
  8
0
  6
Continuous
 62
     7
370
    25
100
AcDbCircle
 10
187.1629143187
 20
536.4280756295
 30
0.0
 40
2.250000000060469
100
AcDbArc
 50
101.5509163135
 51
127.2300931266
  0
LWPOLYLINE
  5
1CA
330
1F
100
AcDbEntity
  8
0
  6
Continuous
 62
     7
370
    25
100
AcDbPolyline
 90
        3
 70
   128
 43
0.0
 10
188.9543918995
 20
537.789364753
 10
189.2208608404
 20
537.3376668091
 10
189.3673454016
 20
536.8786126434
  0
ARC
  5
1CB
330
1F
100
AcDbEntity
  8
0
  6
Continuous
 62
     7
370
    25
100
AcDbCircle
 10
187.1629143187
 20
536.4280756295
 30
0.0
 40
2.250000000060517
100
AcDbArc
 50
281.5509163135
 51
307.2300931266
  0
LWPOLYLINE
  5
1CC
330
1F
100
AcDbEntity
  8
0
  6
Continuous
 62
     7
370
    25
100
AcDbPolyline
 90
        3
 70
   128
 43
0.0
 10
185.3714367378
 20
535.0667865061
 10
185.1049677969
 20
535.51848445
 10
184.9584832357
 20
535.9775386156
  0
LWPOLYLINE
  5
1CD
330
1F
100
AcDbEntity
  8
0
  6
Continuous
 62
     7
370
    25
100
AcDbPolyline
 90
        3
 70
   128
 43
0.0
 10
188.839823306
 20
533.9405113091
 10
188.3600095746
 20
533.6772643041
 10
187.9290711965
 20
533.527557807
  0
LWPOLYLINE
  5
1CE
330
1F
100
AcDbEntity
  8
0
  6
Continuous
 62
     7
370
    25
100
AcDbPolyline
 90
        3
 70
   128
 43
0.0
 10
184.6753499983
 20
534.7511666422
 10
184.492697324
 20
535.0606176954
 10
184.2623964962
 20
535.6619187517
  0
ARC
  5
1CF
330
1F
100
AcDbEntity
  8
0
  6
Continuous
 62
     7
370
    25
100
AcDbCircle
 10
187.1629143187
 20
536.4280756295
 30
0.0
 40
2.999999999999996
100
AcDbArc
 50
104.7964364932
 51
123.9845729469
  0
LWPOLYLINE
  5
1D0
330
1F
100
AcDbEntity
  8
0
  6
Continuous
 62
     7
370
    25
100
AcDbPolyline
 90
        3
 70
   128
 43
0.0
 10
189.6504786391
 20
538.1049846169
 10
189.9834637794
 20
537.4500838191
 10
190.0634321412
 20
537.1942325073
  0
LINE
  5
1D1
330
1F
100
AcDbEntity
  8
0
  6
Continuous
 62
     7
370
    25
100
AcDbLine
 10
270.7629143187
 20
541.4280756295
 30
0.0
 11
270.7629143187
 21
531.4280756295
 31
0.0
  0
ARC
  5
1D2
330
1F
100
AcDbEntity
  8
0
  6
Continuous
 62
     7
370
    25
100
AcDbCircle
 10
201.1629143187
 20
535.4280756295
 30
0.0
 40
6.500000000000028
100
AcDbArc
 50
322.0201275551
 51
0.0
  0
LINE
  5
1D3
330
1F
100
AcDbEntity
  8
0
  6
Continuous
 62
     7
370
    25
100
AcDbLine
 10
207.6629143187
 20
535.4280756295
 30
0.0
 11
207.6629143187
 21
537.4280756295
 31
0.0
  0
ARC
  5
1D4
330
1F
100
AcDbEntity
  8
0
  6
Continuous
 62
     7
370
    25
100
AcDbCircle
 10
201.1629143187
 20
537.4280756295
 30
0.0
 40
6.500000000000086
100
AcDbArc
 50
0.0
 51
37.9798724449
  0
ARC
  5
1D5
330
1F
100
AcDbEntity
  8
0
  6
Continuous
 62
     7
370
    25
100
AcDbCircle
 10
216.1629143187
 20
537.4280756295
 30
0.0
 40
6.500000000000108
100
AcDbArc
 50
142.0201275551
 51
180.0
  0
LINE
  5
1D6
330
1F
100
AcDbEntity
  8
0
  6
Continuous
 62
     7
370
    25
100
AcDbLine
 10
209.6629143187
 20
537.4280756295
 30
0.0
 11
209.6629143187
 21
535.4280756295
 31
0.0
  0
ARC
  5
1D7
330
1F
100
AcDbEntity
  8
0
  6
Continuous
 62
     7
370
    25
100
AcDbCircle
 10
216.1629143187
 20
535.4280756295
 30
0.0
 40
6.500000000000085
100
AcDbArc
 50
180.0
 51
217.9798724449
  0
ARC
  5
1D8
330
1F
100
AcDbEntity
  8
0
  6
Continuous
 62
     7
370
    25
100
AcDbCircle
 10
231.1629143187
 20
535.4280756295
 30
0.0
 40
6.500000000000028
100
AcDbArc
 50
322.0201275551
 51
0.0
  0
LINE
  5
1D9
330
1F
100
AcDbEntity
  8
0
  6
Continuous
 62
     7
370
    25
100
AcDbLine
 10
237.6629143187
 20
535.4280756295
 30
0.0
 11
237.6629143187
 21
537.4280756295
 31
0.0
  0
ARC
  5
1DA
330
1F
100
AcDbEntity
  8
0
  6
Continuous
 62
     7
370
    25
100
AcDbCircle
 10
231.1629143187
 20
537.4280756295
 30
0.0
 40
6.500000000000063
100
AcDbArc
 50
0.0
 51
37.9798724449
  0
ARC
  5
1DB
330
1F
100
AcDbEntity
  8
0
  6
Continuous
 62
     7
370
    25
100
AcDbCircle
 10
246.1629143187
 20
537.4280756295
 30
0.0
 40
6.500000000000063
100
AcDbArc
 50
142.0201275551
 51
180.0
  0
LINE
  5
1DC
330
1F
100
AcDbEntity
  8
0
  6
Continuous
 62
     7
370
    25
100
AcDbLine
 10
239.6629143187
 20
537.4280756295
 30
0.0
 11
239.6629143187
 21
535.4280756295
 31
0.0
  0
ARC
  5
1DD
330
1F
100
AcDbEntity
  8
0
  6
Continuous
 62
     7
370
    25
100
AcDbCircle
 10
246.1629143187
 20
535.4280756295
 30
0.0
 40
6.5
100
AcDbArc
 50
180.0
 51
217.9798724449
  0
ARC
  5
1DE
330
1F
100
AcDbEntity
  8
0
  6
Continuous
 62
     7
370
    25
100
AcDbCircle
 10
261.1629143187
 20
535.4280756295
 30
0.0
 40
6.499999999999943
100
AcDbArc
 50
322.0201275551
 51
0.0
  0
LINE
  5
1DF
330
1F
100
AcDbEntity
  8
0
  6
Continuous
 62
     7
370
    25
100
AcDbLine
 10
267.6629143187
 20
535.4280756295
 30
0.0
 11
267.6629143187
 21
537.4280756295
 31
0.0
  0
ARC
  5
1E0
330
1F
100
AcDbEntity
  8
0
  6
Continuous
 62
     7
370
    25
100
AcDbCircle
 10
261.1629143187
 20
537.4280756295
 30
0.0
 40
6.500000000000063
100
AcDbArc
 50
0.0
 51
37.9798724449
  0
LINE
  5
1E1
330
1F
100
AcDbEntity
  8
0
  6
Continuous
 62
     7
370
    25
100
AcDbLine
 10
267.1998981487
 20
537.4280756295
 30
0.0
 11
267.6629143187
 21
537.4280756295
 31
0.0
  0
LINE
  5
1E2
330
1F
100
AcDbEntity
  8
0
  6
Continuous
 62
     7
370
    25
100
AcDbLine
 10
240.1259304886
 20
537.4280756295
 30
0.0
 11
239.6629143187
 21
537.4280756295
 31
0.0
  0
LINE
  5
1E3
330
1F
100
AcDbEntity
  8
0
  6
Continuous
 62
     7
370
    25
100
AcDbLine
 10
237.1998981487
 20
537.4280756295
 30
0.0
 11
237.6629143187
 21
537.4280756295
 31
0.0
  0
LINE
  5
1E4
330
1F
100
AcDbEntity
  8
0
  6
Continuous
 62
     7
370
    25
100
AcDbLine
 10
210.1259304886
 20
537.4280756295
 30
0.0
 11
209.6629143187
 21
537.4280756295
 31
0.0
  0
LINE
  5
1E5
330
1F
100
AcDbEntity
  8
0
  6
Continuous
 62
     7
370
    25
100
AcDbLine
 10
267.1998981487
 20
535.4280756295
 30
0.0
 11
267.6629143187
 21
535.4280756295
 31
0.0
  0
LINE
  5
1E6
330
1F
100
AcDbEntity
  8
0
  6
Continuous
 62
     7
370
    25
100
AcDbLine
 10
267.1998981487
 20
537.4280756295
 30
0.0
 11
267.1998981487
 21
535.4280756295
 31
0.0
  0
LINE
  5
1E7
330
1F
100
AcDbEntity
  8
0
  6
Continuous
 62
     7
370
    25
100
AcDbLine
 10
237.1998981487
 20
535.4280756295
 30
0.0
 11
237.6629143187
 21
535.4280756295
 31
0.0
  0
LINE
  5
1E8
330
1F
100
AcDbEntity
  8
0
  6
Continuous
 62
     7
370
    25
100
AcDbLine
 10
237.1998981487
 20
537.4280756295
 30
0.0
 11
237.1998981487
 21
535.4280756295
 31
0.0
  0
LINE
  5
1E9
330
1F
100
AcDbEntity
  8
0
  6
Continuous
 62
     7
370
    25
100
AcDbLine
 10
207.1998981487
 20
537.4280756295
 30
0.0
 11
207.6629143187
 21
537.4280756295
 31
0.0
  0
LINE
  5
1EA
330
1F
100
AcDbEntity
  8
0
  6
Continuous
 62
     7
370
    25
100
AcDbLine
 10
240.1259304886
 20
535.4280756295
 30
0.0
 11
240.1259304886
 21
537.4280756295
 31
0.0
  0
LINE
  5
1EB
330
1F
100
AcDbEntity
  8
0
  6
Continuous
 62
     7
370
    25
100
AcDbLine
 10
240.1259304886
 20
535.4280756295
 30
0.0
 11
239.6629143187
 21
535.4280756295
 31
0.0
  0
LINE
  5
1EC
330
1F
100
AcDbEntity
  8
0
  6
Continuous
 62
     7
370
    25
100
AcDbLine
 10
207.1998981487
 20
535.4280756295
 30
0.0
 11
207.6629143187
 21
535.4280756295
 31
0.0
  0
LINE
  5
1ED
330
1F
100
AcDbEntity
  8
0
  6
Continuous
 62
     7
370
    25
100
AcDbLine
 10
207.1998981487
 20
537.4280756295
 30
0.0
 11
207.1998981487
 21
535.4280756295
 31
0.0
  0
LINE
  5
1EE
330
1F
100
AcDbEntity
  8
0
  6
Continuous
 62
     7
370
    25
100
AcDbLine
 10
210.1259304886
 20
535.4280756295
 30
0.0
 11
210.1259304886
 21
537.4280756295
 31
0.0
  0
LINE
  5
1EF
330
1F
100
AcDbEntity
  8
0
  6
Continuous
 62
     7
370
    25
100
AcDbLine
 10
210.1259304886
 20
535.4280756295
 30
0.0
 11
209.6629143187
 21
535.4280756295
 31
0.0
  0
LINE
  5
1F0
330
1F
100
AcDbEntity
  8
0
  6
Continuous
 62
     7
370
    25
100
AcDbLine
 10
265.700126606
 20
537.4280756295
 30
0.0
 11
267.1998981487
 21
537.4280756295
 31
0.0
  0
LINE
  5
1F1
330
1F
100
AcDbEntity
  8
0
  6
Continuous
 62
     7
370
    25
100
AcDbLine
 10
240.1259304886
 20
537.4280756295
 30
0.0
 11
241.6257020313
 21
537.4280756295
 31
0.0
  0
LINE
  5
1F2
330
1F
100
AcDbEntity
  8
0
  6
Continuous
 62
     7
370
    25
100
AcDbLine
 10
235.700126606
 20
537.4280756295
 30
0.0
 11
237.1998981487
 21
537.4280756295
 31
0.0
  0
LINE
  5
1F3
330
1F
100
AcDbEntity
  8
0
  6
Continuous
 62
     7
370
    25
100
AcDbLine
 10
265.700126606
 20
535.4280756295
 30
0.0
 11
265.700126606
 21
537.4280756295
 31
0.0
  0
LINE
  5
1F4
330
1F
100
AcDbEntity
  8
0
  6
Continuous
 62
     7
370
    25
100
AcDbLine
 10
265.700126606
 20
535.4280756295
 30
0.0
 11
267.1998981487
 21
535.4280756295
 31
0.0
  0
LINE
  5
1F5
330
1F
100
AcDbEntity
  8
0
  6
Continuous
 62
     7
370
    25
100
AcDbLine
 10
241.6257020313
 20
537.4280756295
 30
0.0
 11
241.6257020313
 21
535.4280756295
 31
0.0
  0
LINE
  5
1F6
330
1F
100
AcDbEntity
  8
0
  6
Continuous
 62
     7
370
    25
100
AcDbLine
 10
240.1259304886
 20
535.4280756295
 30
0.0
 11
241.6257020313
 21
535.4280756295
 31
0.0
  0
LINE
  5
1F7
330
1F
100
AcDbEntity
  8
0
  6
Continuous
 62
     7
370
    25
100
AcDbLine
 10
210.1259304886
 20
537.4280756295
 30
0.0
 11
211.6257020313
 21
537.4280756295
 31
0.0
  0
LINE
  5
1F8
330
1F
100
AcDbEntity
  8
0
  6
Continuous
 62
     7
370
    25
100
AcDbLine
 10
207.1998981487
 20
537.4280756295
 30
0.0
 11
205.700126606
 21
537.4280756295
 31
0.0
  0
LINE
  5
1F9
330
1F
100
AcDbEntity
  8
0
  6
Continuous
 62
     7
370
    25
100
AcDbLine
 10
235.700126606
 20
535.4280756295
 30
0.0
 11
235.700126606
 21
537.4280756295
 31
0.0
  0
LINE
  5
1FA
330
1F
100
AcDbEntity
  8
0
  6
Continuous
 62
     7
370
    25
100
AcDbLine
 10
235.700126606
 20
535.4280756295
 30
0.0
 11
237.1998981487
 21
535.4280756295
 31
0.0
  0
LINE
  5
1FB
330
1F
100
AcDbEntity
  8
0
  6
Continuous
 62
     7
370
    25
100
AcDbLine
 10
205.700126606
 20
535.4280756295
 30
0.0
 11
205.700126606
 21
537.4280756295
 31
0.0
  0
LINE
  5
1FC
330
1F
100
AcDbEntity
  8
0
  6
Continuous
 62
     7
370
    25
100
AcDbLine
 10
205.700126606
 20
535.4280756295
 30
0.0
 11
207.1998981487
 21
535.4280756295
 31
0.0
  0
LINE
  5
1FD
330
1F
100
AcDbEntity
  8
0
  6
Continuous
 62
     7
370
    25
100
AcDbLine
 10
211.6257020313
 20
537.4280756295
 30
0.0
 11
211.6257020313
 21
535.4280756295
 31
0.0
  0
LINE
  5
1FE
330
1F
100
AcDbEntity
  8
0
  6
Continuous
 62
     7
370
    25
100
AcDbLine
 10
210.1259304886
 20
535.4280756295
 30
0.0
 11
211.6257020313
 21
535.4280756295
 31
0.0
  0
ARC
  5
1FF
330
1F
100
AcDbEntity
  8
0
  6
Continuous
 62
     7
370
    25
100
AcDbCircle
 10
124.6629143187
 20
546.9280756295
 30
0.0
 40
1.70000000000006
100
AcDbArc
 50
90.0
 51
180.0
  0
LINE
  5
200
330
1F
100
AcDbEntity
  8
0
  6
Continuous
 62
     7
370
    25
100
AcDbLine
 10
200.2577037581
 20
548.6280756295
 30
0.0
 11
124.6629143187
 21
548.6280756295
 31
0.0
  0
SPLINE
  5
201
330
1F
100
AcDbEntity
  8
0
  6
Continuous
 62
     7
370
    25
100
AcDbSpline
210
0.0
220
0.0
230
1.0
 70
     8
 71
     3
 72
    12
 73
     8
 74
     0
 42
0.000000001
 43
0.00000001
 40
0.0
 40
0.0
 40
0.0
 40
0.0
 40
0.0565928288545298
 40
0.2553664499363656
 40
0.4767746658434507
 40
0.6973060911888374
 40
1.0
 40
1.0
 40
1.0
 40
1.0
 10
202.2037266839422
 20
546.9280756295268
 30
0.0
 10
202.2019650379878
 20
546.9820033215551
 30
0.0
 10
202.1940158811332
 20
547.2253437508153
 30
0.0
 10
202.0561983601976
 20
547.6722017192089
 30
0.0
 10
201.6699007800519
 20
548.1598823553794
 30
0.0
 10
201.0516714630193
 20
548.5471458042525
 30
0.0
 10
200.5486876407592
 20
548.5984153868817
 30
0.0
 10
200.2577037581188
 20
548.6280756295268
 30
0.0
  0
LINE
  5
202
330
1F
100
AcDbEntity
  8
0
  6
Continuous
 62
     7
370
    25
100
AcDbLine
 10
202.2037266839
 20
525.9280756295
 30
0.0
 11
202.2037266839
 21
546.9280756295
 31
0.0
  0
SPLINE
  5
203
330
1F
100
AcDbEntity
  8
0
  6
Continuous
 62
     7
370
    25
100
AcDbSpline
210
0.0
220
0.0
230
1.0
 70
     8
 71
     3
 72
    12
 73
     8
 74
     0
 42
0.000000001
 43
0.00000001
 40
0.0
 40
0.0
 40
0.0
 40
0.0
 40
0.234161780663196
 40
0.4414358015245816
 40
0.6315755808355857
 40
0.8156765084273825
 40
1.0
 40
1.0
 40
1.0
 40
1.0
 10
200.2577037581187
 20
524.2280756295269
 30
0.0
 10
200.4820872328156
 20
524.2458470694006
 30
0.0
 10
200.905089221958
 20
524.2793493334452
 30
0.0
 10
201.4608431637179
 20
524.5461605575832
 30
0.0
 10
201.8740875496143
 20
524.9243879999826
 30
0.0
 10
202.1501054820332
 20
525.3981793687092
 30
0.0
 10
202.1858457531124
 20
525.7513724216667
 30
0.0
 10
202.2037266839422
 20
525.9280756295268
 30
0.0
  0
LINE
  5
204
330
1F
100
AcDbEntity
  8
0
  6
Continuous
 62
     7
370
    25
100
AcDbLine
 10
124.6629143187
 20
524.2280756295
 30
0.0
 11
200.2577037581
 21
524.2280756295
 31
0.0
  0
ARC
  5
205
330
1F
100
AcDbEntity
  8
0
  6
Continuous
 62
     7
370
    25
100
AcDbCircle
 10
124.6629143187
 20
525.9280756295
 30
0.0
 40
1.700000000000088
100
AcDbArc
 50
180.0
 51
270.0
  0
LINE
  5
206
330
1F
100
AcDbEntity
  8
0
  6
Continuous
 62
     7
370
    25
100
AcDbLine
 10
122.9629143187
 20
546.9280756295
 30
0.0
 11
122.9629143187
 21
525.9280756295
 31
0.0
  0
LINE
  5
207
330
1F
100
AcDbEntity
  8
0
  6
Continuous
 62
     7
370
    25
100
AcDbLine
 10
200.2577037581
 20
548.6280756295
 30
0.0
 11
200.2577037581
 21
548.9280756295
 31
0.0
  0
SPLINE
  5
208
330
1F
100
AcDbEntity
  8
0
  6
Continuous
 62
     7
370
    25
100
AcDbSpline
210
0.0
220
0.0
230
1.0
 70
     8
 71
     3
 72
    13
 73
     9
 74
     0
 42
0.000000001
 43
0.00000001
 40
0.0
 40
0.0
 40
0.0
 40
0.0
 40
0.0453600895818855
 40
0.2977608885509211
 40
0.5175301228221492
 40
0.7406917899629544
 40
0.9424602014888434
 40
1.0
 40
1.0
 40
1.0
 40
1.0
 10
200.2577037581188
 20
548.9280756295268
 30
0.0
 10
200.3075803245853
 20
548.9271726293606
 30
0.0
 10
200.6349890860282
 20
548.9212449926578
 30
0.0
 10
201.203544216497
 20
548.7909583863897
 30
0.0
 10
201.8642200577442
 20
548.3772636199348
 30
0.0
 10
202.3059958367774
 20
547.8003747675476
 30
0.0
 10
202.4636058407494
 20
547.2774549008159
 30
0.0
 10
202.4727499920813
 20
546.9915231259024
 30
0.0
 10
202.4747790548138
 20
546.9280756295268
 30
0.0
  0
LINE
  5
209
330
1F
100
AcDbEntity
  8
0
  6
Continuous
 62
     7
370
    25
100
AcDbLine
 10
124.6629143187
 20
548.6280756295
 30
0.0
 11
124.6629143187
 21
548.9280756295
 31
0.0
  0
LINE
  5
20A
330
1F
100
AcDbEntity
  8
0
  6
Continuous
 62
     7
370
    25
100
AcDbLine
 10
124.6629143187
 20
548.9280756295
 30
0.0
 11
200.2577037581
 21
548.9280756295
 31
0.0
  0
LINE
  5
20B
330
1F
100
AcDbEntity
  8
0
  6
Continuous
 62
     7
370
    25
100
AcDbLine
 10
122.9629143187
 20
546.9280756295
 30
0.0
 11
122.6629143187
 21
546.9280756295
 31
0.0
  0
ARC
  5
20C
330
1F
100
AcDbEntity
  8
0
  6
Continuous
 62
     7
370
    25
100
AcDbCircle
 10
124.6629143187
 20
546.9280756295
 30
0.0
 40
2.000000000000071
100
AcDbArc
 50
90.0
 51
180.0
  0
LINE
  5
20D
330
1F
100
AcDbEntity
  8
0
  6
Continuous
 62
     7
370
    25
100
AcDbLine
 10
122.9629143187
 20
525.9280756295
 30
0.0
 11
122.6629143187
 21
525.9280756295
 31
0.0
  0
LINE
  5
20E
330
1F
100
AcDbEntity
  8
0
  6
Continuous
 62
     7
370
    25
100
AcDbLine
 10
122.6629143187
 20
525.9280756295
 30
0.0
 11
122.6629143187
 21
546.9280756295
 31
0.0
  0
SPLINE
  5
20F
330
1F
100
AcDbEntity
  8
0
  6
Continuous
 62
     7
370
    25
100
AcDbSpline
210
0.0
220
0.0
230
1.0
 70
     8
 71
     3
 72
    12
 73
     8
 74
     0
 42
0.000000001
 43
0.00000001
 40
0.0
 40
0.0
 40
0.0
 40
0.0
 40
0.1874402685167824
 40
0.373800109723454
 40
0.5646922088791452
 40
0.7705018884375513
 40
1.0
 40
1.0
 40
1.0
 40
1.0
 10
202.4747790548138
 20
525.9280756295268
 30
0.0
 10
202.4542619054703
 20
525.7203499595652
 30
0.0
 10
202.4133458699969
 20
525.3060959743437
 30
0.0
 10
202.0972300023887
 20
524.7493762206956
 30
0.0
 10
201.6248679259164
 20
524.3045399951553
 30
0.0
 10
200.9925975681787
 20
523.9895918953572
 30
0.0
 10
200.5113969653044
 20
523.9493117027648
 30
0.0
 10
200.2577037581187
 20
523.9280756295268
 30
0.0
  0
LINE
  5
210
330
1F
100
AcDbEntity
  8
0
  6
Continuous
 62
     7
370
    25
100
AcDbLine
 10
200.2577037581
 20
523.9280756295
 30
0.0
 11
200.2577037581
 21
524.2280756295
 31
0.0
  0
LINE
  5
211
330
1F
100
AcDbEntity
  8
0
  6
Continuous
 62
     7
370
    25
100
AcDbLine
 10
200.2577037581
 20
523.9280756295
 30
0.0
 11
124.6629143187
 21
523.9280756295
 31
0.0
  0
LINE
  5
212
330
1F
100
AcDbEntity
  8
0
  6
Continuous
 62
     7
370
    25
100
AcDbLine
 10
124.6629143187
 20
523.9280756295
 30
0.0
 11
124.6629143187
 21
524.2280756295
 31
0.0
  0
ARC
  5
213
330
1F
100
AcDbEntity
  8
0
  6
Continuous
 62
     7
370
    25
100
AcDbCircle
 10
124.6629143187
 20
525.9280756295
 30
0.0
 40
2.000000000000071
100
AcDbArc
 50
180.0
 51
270.0
  0
LINE
  5
214
330
1F
100
AcDbEntity
  8
0
  6
Continuous
 62
     7
370
    25
100
AcDbLine
 10
289.9629143187
 20
531.4280756295
 30
0.0
 11
202.5037266839
 21
531.4280756295
 31
0.0
  0
LINE
  5
215
330
1F
100
AcDbEntity
  8
0
  6
Continuous
 62
     7
370
    25
100
AcDbLine
 10
289.9629143187
 20
524.0280756295
 30
0.0
 11
289.9629143187
 21
531.4280756295
 31
0.0
  0
LINE
  5
216
330
1F
100
AcDbEntity
  8
0
  6
Continuous
 62
     7
370
    25
100
AcDbLine
 10
288.5629143187
 20
522.6280756295
 30
0.0
 11
136.7629143187
 21
522.6280756295
 31
0.0
  0
ARC
  5
217
330
1F
100
AcDbEntity
  8
0
  6
Continuous
 62
     7
370
    25
100
AcDbCircle
 10
136.7629143187
 20
524.0280756295
 30
0.0
 40
1.400000000000091
100
AcDbArc
 50
184.0960437582
 51
270.0
  0
ARC
  5
218
330
1F
100
AcDbEntity
  8
0
  6
Continuous
 62
     7
370
    25
100
AcDbCircle
 10
288.5629143187
 20
524.0280756295
 30
0.0
 40
1.400000000000091
100
AcDbArc
 50
270.0
 51
0.0
  0
LINE
  5
219
330
1F
100
AcDbEntity
  8
0
  6
Continuous
 62
     7
370
    25
100
AcDbLine
 10
136.7629143187
 20
550.2280756295
 30
0.0
 11
288.5629143187
 21
550.2280756295
 31
0.0
  0
ARC
  5
21A
330
1F
100
AcDbEntity
  8
0
  6
Continuous
 62
     7
370
    25
100
AcDbCircle
 10
288.5629143187
 20
548.8280756295
 30
0.0
 40
1.400000000000034
100
AcDbArc
 50
0.0
 51
90.0
  0
ARC
  5
21B
330
1F
100
AcDbEntity
  8
0
  6
Continuous
 62
     7
370
    25
100
AcDbCircle
 10
136.7629143187
 20
548.8280756295
 30
0.0
 40
1.40000000000001
100
AcDbArc
 50
90.0
 51
175.9039562419
  0
LINE
  5
21C
330
1F
100
AcDbEntity
  8
0
  6
Continuous
 62
     7
370
    25
100
AcDbLine
 10
202.5037266839
 20
541.4280756295
 30
0.0
 11
289.9629143187
 21
541.4280756295
 31
0.0
  0
LINE
  5
21D
330
1F
100
AcDbEntity
  8
0
  6
Continuous
 62
     7
370
    25
100
AcDbLine
 10
289.9629143187
 20
548.8280756295
 30
0.0
 11
289.9629143187
 21
541.4280756295
 31
0.0
  0
ARC
  5
21E
330
1F
100
AcDbEntity
  8
0
  6
Continuous
 62
     7
370
    25
100
AcDbCircle
 10
142.1629143187
 20
536.4280756295
 30
0.0
 40
3.25000000000004
100
AcDbArc
 50
33.2403878184
 51
105.5406216216
  0
SPLINE
  5
21F
330
1F
100
AcDbEntity
  8
0
  6
Continuous
 62
     7
370
    25
100
AcDbSpline
210
0.0
220
0.0
230
1.0
 70
    24
 71
     3
 72
     9
 73
     5
 74
     0
 42
0.000000001
 43
0.00000001
 40
0.0
 40
0.0
 40
0.0
 40
0.0
 40
0.0622188834796577
 40
1.0
 40
1.0
 40
1.0
 40
1.0
 10
141.2921694287765
 20
539.5592580478361
 30
0.0
 10
141.2856776423247
 20
539.5735754181351
 30
0.0
 10
141.1813397614646
 20
539.8036883597078
 30
0.0
 10
141.0771444059142
 20
540.0334869675215
 30
0.0
 10
140.97943196905
 20
540.2489877625318
 30
0.0
  0
ARC
  5
220
330
1F
100
AcDbEntity
  8
0
  6
Continuous
 62
     7
370
    25
100
AcDbCircle
 10
142.1629143187
 20
536.4280756295
 30
0.0
 40
4.000000000000042
100
AcDbArc
 50
31.5712605015
 51
107.2097489386
  0
SPLINE
  5
221
330
1F
100
AcDbEntity
  8
0
  6
Continuous
 62
     7
370
    25
100
AcDbSpline
210
0.0
220
0.0
230
1.0
 70
    24
 71
     3
 72
     9
 73
     5
 74
     0
 42
0.000000001
 43
0.00000001
 40
0.0
 40
0.0
 40
0.0
 40
0.0
 40
0.93778111652034
 40
1.0
 40
1.0
 40
1.0
 40
1.0
 10
145.5708729495669
 20
538.5223100887212
 30
0.0
 10
145.3553721545566
 20
538.4245976518569
 30
0.0
 10
145.1255735467429
 20
538.3204022963066
 30
0.0
 10
144.8954606051701
 20
538.2160644154463
 30
0.0
 10
144.8811432348712
 20
538.2095726289946
 30
0.0
  0
ARC
  5
222
330
1F
100
AcDbEntity
  8
0
  6
Continuous
 62
     7
370
    25
100
AcDbCircle
 10
142.1629143187
 20
536.4280756295
 30
0.0
 40
1.500000000000089
100
AcDbArc
 50
43.8617253545
 51
94.9192840855
  0
LINE
  5
223
330
1F
100
AcDbEntity
  8
0
  6
Continuous
 62
     7
370
    25
100
AcDbLine
 10
144.8811432349
 20
538.209572629
 30
0.0
 11
143.2444355529
 21
537.4674561276
 31
0.0
  0
LINE
  5
224
330
1F
100
AcDbEntity
  8
0
  6
Continuous
 62
     7
370
    25
100
AcDbLine
 10
142.0342859301
 20
537.9225503659
 30
0.0
 11
141.2921694288
 21
539.5592580478
 31
0.0
  0
ARC
  5
225
330
1F
100
AcDbEntity
  8
0
  6
Continuous
 62
     7
370
    25
100
AcDbCircle
 10
142.1629143187
 20
536.4280756295
 30
0.0
 40
3.250000000000039
100
AcDbArc
 50
123.2403878184
 51
195.5406216216
  0
LINE
  5
226
330
1F
100
AcDbEntity
  8
0
  6
Continuous
 62
     7
370
    25
100
AcDbLine
 10
141.1235338206
 20
537.5095968638
 30
0.0
 11
140.3814173192
 21
539.1463045457
 31
0.0
  0
ARC
  5
227
330
1F
100
AcDbEntity
  8
0
  6
Continuous
 62
     7
370
    25
100
AcDbCircle
 10
142.1629143187
 20
536.4280756295
 30
0.0
 40
1.500000000000044
100
AcDbArc
 50
133.8617253545
 51
184.9192840855
  0
LINE
  5
228
330
1F
100
AcDbEntity
  8
0
  6
Continuous
 62
     7
370
    25
100
AcDbLine
 10
140.6684395823
 20
536.299447241
 30
0.0
 11
139.0317319004
 21
535.5573307396
 31
0.0
  0
ARC
  5
229
330
1F
100
AcDbEntity
  8
0
  6
Continuous
 62
     7
370
    25
100
AcDbCircle
 10
142.1629143187
 20
536.4280756295
 30
0.0
 40
4.000000000000118
100
AcDbArc
 50
121.5712605015
 51
197.2097489386
  0
SPLINE
  5
22A
330
1F
100
AcDbEntity
  8
0
  6
Continuous
 62
     7
370
    25
100
AcDbSpline
210
0.0
220
0.0
230
1.0
 70
    24
 71
     3
 72
     9
 73
     5
 74
     0
 42
0.000000001
 43
0.00000001
 40
0.0
 40
0.0
 40
0.0
 40
0.0
 40
0.0622188834796554
 40
1.0
 40
1.0
 40
1.0
 40
1.0
 10
140.3814173191995
 20
539.1463045457308
 30
0.0
 10
140.3749255327477
 20
539.1606219160298
 30
0.0
 10
140.2705876518876
 20
539.3907348576025
 30
0.0
 10
140.1663922963372
 20
539.6205334654162
 30
0.0
 10
140.068679859473
 20
539.8360342604266
 30
0.0
  0
SPLINE
  5
22B
330
1F
100
AcDbEntity
  8
0
  6
Continuous
 62
     7
370
    25
100
AcDbSpline
210
0.0
220
0.0
230
1.0
 70
    24
 71
     3
 72
     9
 73
     5
 74
     0
 42
0.000000001
 43
0.00000001
 40
0.0
 40
0.0
 40
0.0
 40
0.0
 40
0.4785453229089775
 40
1.0
 40
1.0
 40
1.0
 40
1.0
 10
139.031731900358
 20
535.5573307396361
 30
0.0
 10
138.9216399179832
 20
535.5074127990711
 30
0.0
 10
138.6915844204066
 20
535.4031009644852
 30
0.0
 10
138.461816002058
 20
535.2989192974516
 30
0.0
 10
138.3420021856623
 20
535.2445932799096
 30
0.0
  0
ARC
  5
22C
330
1F
100
AcDbEntity
  8
0
  6
Continuous
 62
     7
370
    25
100
AcDbCircle
 10
142.1629143187
 20
536.4280756295
 30
0.0
 40
3.250000000000036
100
AcDbArc
 50
303.2403878184
 51
15.5406216216
  0
SPLINE
  5
22D
330
1F
100
AcDbEntity
  8
0
  6
Continuous
 62
     7
370
    25
100
AcDbSpline
210
0.0
220
0.0
230
1.0
 70
    24
 71
     3
 72
     9
 73
     5
 74
     0
 42
0.000000001
 43
0.00000001
 40
0.0
 40
0.0
 40
0.0
 40
0.0
 40
0.9377811165203427
 40
1.0
 40
1.0
 40
1.0
 40
1.0
 10
145.9838264516722
 20
537.6115579791441
 30
0.0
 10
145.7683256566619
 20
537.5138455422799
 30
0.0
 10
145.5385270488483
 20
537.4096501867297
 30
0.0
 10
145.3084141072754
 20
537.3053123058693
 30
0.0
 10
145.2940967369765
 20
537.2988205194176
 30
0.0
  0
ARC
  5
22E
330
1F
100
AcDbEntity
  8
0
  6
Continuous
 62
     7
370
    25
100
AcDbCircle
 10
142.1629143187
 20
536.4280756295
 30
0.0
 40
4.000000000000043
100
AcDbArc
 50
301.5712605015
 51
17.2097489386
  0
SPLINE
  5
22F
330
1F
100
AcDbEntity
  8
0
  6
Continuous
 62
     7
370
    25
100
AcDbSpline
210
0.0
220
0.0
230
1.0
 70
    24
 71
     3
 72
     9
 73
     5
 74
     0
 42
0.000000001
 43
0.00000001
 40
0.0
 40
0.0
 40
0.0
 40
0.0
 40
0.5214546770910263
 40
1.0
 40
1.0
 40
1.0
 40
1.0
 10
144.2571487778615
 20
533.0201169986273
 30
0.0
 10
144.2028227603196
 20
533.1399308150228
 30
0.0
 10
144.0986410932858
 20
533.3696992333714
 30
0.0
 10
143.9943292587001
 20
533.5997547309481
 30
0.0
 10
143.944411318135
 20
533.7098467133229
 30
0.0
  0
ARC
  5
230
330
1F
100
AcDbEntity
  8
0
  6
Continuous
 62
     7
370
    25
100
AcDbCircle
 10
142.1629143187
 20
536.4280756295
 30
0.0
 40
1.500000000000006
100
AcDbArc
 50
313.8617253545
 51
4.9192840855
  0
LINE
  5
231
330
1F
100
AcDbEntity
  8
0
  6
Continuous
 62
     7
370
    25
100
AcDbLine
 10
145.294096737
 20
537.2988205194
 30
0.0
 11
143.657389055
 21
536.556704018
 31
0.0
  0
LINE
  5
232
330
1F
100
AcDbEntity
  8
0
  6
Continuous
 62
     7
370
    25
100
AcDbLine
 10
143.9444113181
 20
533.7098467133
 30
0.0
 11
143.2022948168
 21
535.3465543953
 31
0.0
  0
LINE
  5
233
330
1F
100
AcDbEntity
  8
0
  6
Continuous
 62
     7
370
    25
100
AcDbLine
 10
141.0813930844
 20
535.3886951314
 30
0.0
 11
139.4446854025
 21
534.6465786301
 31
0.0
  0
ARC
  5
234
330
1F
100
AcDbEntity
  8
0
  6
Continuous
 62
     7
370
    25
100
AcDbCircle
 10
142.1629143187
 20
536.4280756295
 30
0.0
 40
1.499999999999924
100
AcDbArc
 50
223.8617253545
 51
274.9192840855
  0
LINE
  5
235
330
1F
100
AcDbEntity
  8
0
  6
Continuous
 62
     7
370
    25
100
AcDbLine
 10
143.0336592086
 20
533.2968932112
 30
0.0
 11
142.2915427072
 21
534.9336008932
 31
0.0
  0
ARC
  5
236
330
1F
100
AcDbEntity
  8
0
  6
Continuous
 62
     7
370
    25
100
AcDbCircle
 10
142.1629143187
 20
536.4280756295
 30
0.0
 40
3.249999999999953
100
AcDbArc
 50
213.2403878184
 51
285.5406216216
  0
SPLINE
  5
237
330
1F
100
AcDbEntity
  8
0
  6
Continuous
 62
     7
370
    25
100
AcDbSpline
210
0.0
220
0.0
230
1.0
 70
    24
 71
     3
 72
     9
 73
     5
 74
     0
 42
0.000000001
 43
0.00000001
 40
0.0
 40
0.0
 40
0.0
 40
0.0
 40
0.5214546770910242
 40
1.0
 40
1.0
 40
1.0
 40
1.0
 10
143.3463966682845
 20
532.6071634965219
 30
0.0
 10
143.2920706507426
 20
532.7269773129176
 30
0.0
 10
143.1878889837088
 20
532.9567457312662
 30
0.0
 10
143.0835771491231
 20
533.1868012288428
 30
0.0
 10
143.033659208558
 20
533.2968932112176
 30
0.0
  0
ARC
  5
238
330
1F
100
AcDbEntity
  8
0
  6
Continuous
 62
     7
370
    25
100
AcDbCircle
 10
142.1629143187
 20
536.4280756295
 30
0.0
 40
3.999999999999926
100
AcDbArc
 50
211.5712605015
 51
287.2097489386
  0
SPLINE
  5
239
330
1F
100
AcDbEntity
  8
0
  6
Continuous
 62
     7
370
    25
100
AcDbSpline
210
0.0
220
0.0
230
1.0
 70
    24
 71
     3
 72
     9
 73
     5
 74
     0
 42
0.000000001
 43
0.00000001
 40
0.0
 40
0.0
 40
0.0
 40
0.0
 40
0.4785453229089719
 40
1.0
 40
1.0
 40
1.0
 40
1.0
 10
139.4446854024633
 20
534.6465786300591
 30
0.0
 10
139.3345934200885
 20
534.5966606894941
 30
0.0
 10
139.1045379225119
 20
534.4923488549083
 30
0.0
 10
138.8747695041633
 20
534.3881671878745
 30
0.0
 10
138.7549556877676
 20
534.3338411703327
 30
0.0
  0
ARC
  5
23A
330
1F
100
AcDbEntity
  8
0
  6
Continuous
 62
     7
370
    25
100
AcDbCircle
 10
142.1629143187
 20
536.4280756295
 30
0.0
 40
4.000000000000118
100
AcDbArc
 50
107.2097489386
 51
121.5712605015
  0
ARC
  5
23B
330
1F
100
AcDbEntity
  8
0
  6
Continuous
 62
     7
370
    25
100
AcDbCircle
 10
142.1629143187
 20
536.4280756295
 30
0.0
 40
4.000000000000042
100
AcDbArc
 50
17.2097489386
 51
31.5712605015
  0
ARC
  5
23C
330
1F
100
AcDbEntity
  8
0
  6
Continuous
 62
     7
370
    25
100
AcDbCircle
 10
142.1629143187
 20
536.4280756295
 30
0.0
 40
3.999999999999982
100
AcDbArc
 50
197.2097489386
 51
211.5712605015
  0
ARC
  5
23D
330
1F
100
AcDbEntity
  8
0
  6
Continuous
 62
     7
370
    25
100
AcDbCircle
 10
142.1629143187
 20
536.4280756295
 30
0.0
 40
3.999999999999926
100
AcDbArc
 50
287.2097489386
 51
301.5712605015
  0
ARC
  5
23E
330
1F
100
AcDbEntity
  8
0
  6
Continuous
 62
     7
370
    25
100
AcDbCircle
 10
187.1629143187
 20
536.4280756295
 30
0.0
 40
3.250000000000055
100
AcDbArc
 50
33.2403878184
 51
105.5406216216
  0
SPLINE
  5
23F
330
1F
100
AcDbEntity
  8
0
  6
Continuous
 62
     7
370
    25
100
AcDbSpline
210
0.0
220
0.0
230
1.0
 70
    24
 71
     3
 72
     9
 73
     5
 74
     0
 42
0.000000001
 43
0.00000001
 40
0.0
 40
0.0
 40
0.0
 40
0.0
 40
0.0622188834796577
 40
1.0
 40
1.0
 40
1.0
 40
1.0
 10
186.2921694287765
 20
539.5592580478361
 30
0.0
 10
186.2856776423248
 20
539.573575418135
 30
0.0
 10
186.1813397614646
 20
539.8036883597078
 30
0.0
 10
186.0771444059143
 20
540.0334869675215
 30
0.0
 10
185.97943196905
 20
540.2489877625318
 30
0.0
  0
ARC
  5
240
330
1F
100
AcDbEntity
  8
0
  6
Continuous
 62
     7
370
    25
100
AcDbCircle
 10
187.1629143187
 20
536.4280756295
 30
0.0
 40
4.000000000000043
100
AcDbArc
 50
31.5712605015
 51
107.2097489386
  0
SPLINE
  5
241
330
1F
100
AcDbEntity
  8
0
  6
Continuous
 62
     7
370
    25
100
AcDbSpline
210
0.0
220
0.0
230
1.0
 70
    24
 71
     3
 72
     9
 73
     5
 74
     0
 42
0.000000001
 43
0.00000001
 40
0.0
 40
0.0
 40
0.0
 40
0.0
 40
0.9377811165203399
 40
1.0
 40
1.0
 40
1.0
 40
1.0
 10
190.5708729495669
 20
538.522310088721
 30
0.0
 10
190.3553721545566
 20
538.4245976518569
 30
0.0
 10
190.125573546743
 20
538.3204022963066
 30
0.0
 10
189.8954606051701
 20
538.2160644154463
 30
0.0
 10
189.8811432348712
 20
538.2095726289946
 30
0.0
  0
ARC
  5
242
330
1F
100
AcDbEntity
  8
0
  6
Continuous
 62
     7
370
    25
100
AcDbCircle
 10
187.1629143187
 20
536.4280756295
 30
0.0
 40
1.500000000000089
100
AcDbArc
 50
43.8617253545
 51
94.9192840855
  0
LINE
  5
243
330
1F
100
AcDbEntity
  8
0
  6
Continuous
 62
     7
370
    25
100
AcDbLine
 10
187.0342859301
 20
537.9225503659
 30
0.0
 11
186.2921694288
 21
539.5592580478
 31
0.0
  0
LINE
  5
244
330
1F
100
AcDbEntity
  8
0
  6
Continuous
 62
     7
370
    25
100
AcDbLine
 10
189.8811432349
 20
538.209572629
 30
0.0
 11
188.2444355529
 21
537.4674561276
 31
0.0
  0
ARC
  5
245
330
1F
100
AcDbEntity
  8
0
  6
Continuous
 62
     7
370
    25
100
AcDbCircle
 10
187.1629143187
 20
536.4280756295
 30
0.0
 40
3.250000000000039
100
AcDbArc
 50
123.2403878184
 51
195.5406216216
  0
LINE
  5
246
330
1F
100
AcDbEntity
  8
0
  6
Continuous
 62
     7
370
    25
100
AcDbLine
 10
186.1235338206
 20
537.5095968638
 30
0.0
 11
185.3814173192
 21
539.1463045457
 31
0.0
  0
ARC
  5
247
330
1F
100
AcDbEntity
  8
0
  6
Continuous
 62
     7
370
    25
100
AcDbCircle
 10
187.1629143187
 20
536.4280756295
 30
0.0
 40
1.500000000000083
100
AcDbArc
 50
133.8617253545
 51
184.9192840855
  0
LINE
  5
248
330
1F
100
AcDbEntity
  8
0
  6
Continuous
 62
     7
370
    25
100
AcDbLine
 10
185.6684395823
 20
536.299447241
 30
0.0
 11
184.0317319004
 21
535.5573307396
 31
0.0
  0
ARC
  5
249
330
1F
100
AcDbEntity
  8
0
  6
Continuous
 62
     7
370
    25
100
AcDbCircle
 10
187.1629143187
 20
536.4280756295
 30
0.0
 40
4.000000000000021
100
AcDbArc
 50
121.5712605015
 51
197.2097489386
  0
SPLINE
  5
24A
330
1F
100
AcDbEntity
  8
0
  6
Continuous
 62
     7
370
    25
100
AcDbSpline
210
0.0
220
0.0
230
1.0
 70
    24
 71
     3
 72
     9
 73
     5
 74
     0
 42
0.000000001
 43
0.00000001
 40
0.0
 40
0.0
 40
0.0
 40
0.0
 40
0.0622188834796554
 40
1.0
 40
1.0
 40
1.0
 40
1.0
 10
185.3814173191995
 20
539.1463045457308
 30
0.0
 10
185.3749255327478
 20
539.1606219160298
 30
0.0
 10
185.2705876518876
 20
539.3907348576025
 30
0.0
 10
185.1663922963372
 20
539.6205334654162
 30
0.0
 10
185.068679859473
 20
539.8360342604265
 30
0.0
  0
SPLINE
  5
24B
330
1F
100
AcDbEntity
  8
0
  6
Continuous
 62
     7
370
    25
100
AcDbSpline
210
0.0
220
0.0
230
1.0
 70
    24
 71
     3
 72
     9
 73
     5
 74
     0
 42
0.000000001
 43
0.00000001
 40
0.0
 40
0.0
 40
0.0
 40
0.0
 40
0.4785453229089775
 40
1.0
 40
1.0
 40
1.0
 40
1.0
 10
184.031731900358
 20
535.5573307396361
 30
0.0
 10
183.9216399179832
 20
535.5074127990711
 30
0.0
 10
183.6915844204066
 20
535.4031009644852
 30
0.0
 10
183.461816002058
 20
535.2989192974514
 30
0.0
 10
183.3420021856623
 20
535.2445932799096
 30
0.0
  0
ARC
  5
24C
330
1F
100
AcDbEntity
  8
0
  6
Continuous
 62
     7
370
    25
100
AcDbCircle
 10
187.1629143187
 20
536.4280756295
 30
0.0
 40
3.250000000000008
100
AcDbArc
 50
303.2403878184
 51
15.5406216216
  0
ARC
  5
24D
330
1F
100
AcDbEntity
  8
0
  6
Continuous
 62
     7
370
    25
100
AcDbCircle
 10
187.1629143187
 20
536.4280756295
 30
0.0
 40
3.999999999999992
100
AcDbArc
 50
301.5712605015
 51
17.2097489386
  0
SPLINE
  5
24E
330
1F
100
AcDbEntity
  8
0
  6
Continuous
 62
     7
370
    25
100
AcDbSpline
210
0.0
220
0.0
230
1.0
 70
    24
 71
     3
 72
     9
 73
     5
 74
     0
 42
0.000000001
 43
0.00000001
 40
0.0
 40
0.0
 40
0.0
 40
0.0
 40
0.5214546770910263
 40
1.0
 40
1.0
 40
1.0
 40
1.0
 10
189.2571487778615
 20
533.0201169986271
 30
0.0
 10
189.2028227603196
 20
533.1399308150228
 30
0.0
 10
189.0986410932859
 20
533.3696992333714
 30
0.0
 10
188.9943292587001
 20
533.5997547309481
 30
0.0
 10
188.944411318135
 20
533.7098467133229
 30
0.0
  0
SPLINE
  5
24F
330
1F
100
AcDbEntity
  8
0
  6
Continuous
 62
     7
370
    25
100
AcDbSpline
210
0.0
220
0.0
230
1.0
 70
    24
 71
     3
 72
     9
 73
     5
 74
     0
 42
0.000000001
 43
0.00000001
 40
0.0
 40
0.0
 40
0.0
 40
0.0
 40
0.9377811165203427
 40
1.0
 40
1.0
 40
1.0
 40
1.0
 10
190.9838264516722
 20
537.6115579791441
 30
0.0
 10
190.7683256566619
 20
537.5138455422798
 30
0.0
 10
190.5385270488483
 20
537.4096501867296
 30
0.0
 10
190.3084141072755
 20
537.3053123058693
 30
0.0
 10
190.2940967369766
 20
537.2988205194176
 30
0.0
  0
LINE
  5
250
330
1F
100
AcDbEntity
  8
0
  6
Continuous
 62
     7
370
    25
100
AcDbLine
 10
188.9444113181
 20
533.7098467133
 30
0.0
 11
188.2022948168
 21
535.3465543953
 31
0.0
  0
LINE
  5
251
330
1F
100
AcDbEntity
  8
0
  6
Continuous
 62
     7
370
    25
100
AcDbLine
 10
190.294096737
 20
537.2988205194
 30
0.0
 11
188.657389055
 21
536.556704018
 31
0.0
  0
ARC
  5
252
330
1F
100
AcDbEntity
  8
0
  6
Continuous
 62
     7
370
    25
100
AcDbCircle
 10
187.1629143187
 20
536.4280756295
 30
0.0
 40
1.499999999999978
100
AcDbArc
 50
313.8617253545
 51
4.9192840855
  0
SPLINE
  5
253
330
1F
100
AcDbEntity
  8
0
  6
Continuous
 62
     7
370
    25
100
AcDbSpline
210
0.0
220
0.0
230
1.0
 70
    24
 71
     3
 72
     9
 73
     5
 74
     0
 42
0.000000001
 43
0.00000001
 40
0.0
 40
0.0
 40
0.0
 40
0.0
 40
0.4785453229089719
 40
1.0
 40
1.0
 40
1.0
 40
1.0
 10
184.4446854024633
 20
534.646578630059
 30
0.0
 10
184.3345934200885
 20
534.596660689494
 30
0.0
 10
184.1045379225119
 20
534.4923488549082
 30
0.0
 10
183.8747695041633
 20
534.3881671878745
 30
0.0
 10
183.7549556877676
 20
534.3338411703326
 30
0.0
  0
ARC
  5
254
330
1F
100
AcDbEntity
  8
0
  6
Continuous
 62
     7
370
    25
100
AcDbCircle
 10
187.1629143187
 20
536.4280756295
 30
0.0
 40
3.250000000000039
100
AcDbArc
 50
213.2403878184
 51
285.5406216216
  0
SPLINE
  5
255
330
1F
100
AcDbEntity
  8
0
  6
Continuous
 62
     7
370
    25
100
AcDbSpline
210
0.0
220
0.0
230
1.0
 70
    24
 71
     3
 72
     9
 73
     5
 74
     0
 42
0.000000001
 43
0.00000001
 40
0.0
 40
0.0
 40
0.0
 40
0.0
 40
0.5214546770910242
 40
1.0
 40
1.0
 40
1.0
 40
1.0
 10
188.3463966682845
 20
532.6071634965219
 30
0.0
 10
188.2920706507427
 20
532.7269773129175
 30
0.0
 10
188.1878889837089
 20
532.9567457312661
 30
0.0
 10
188.0835771491231
 20
533.1868012288428
 30
0.0
 10
188.033659208558
 20
533.2968932112176
 30
0.0
  0
ARC
  5
256
330
1F
100
AcDbEntity
  8
0
  6
Continuous
 62
     7
370
    25
100
AcDbCircle
 10
187.1629143187
 20
536.4280756295
 30
0.0
 40
4.000000000000006
100
AcDbArc
 50
211.5712605015
 51
287.2097489386
  0
LINE
  5
257
330
1F
100
AcDbEntity
  8
0
  6
Continuous
 62
     7
370
    25
100
AcDbLine
 10
186.0813930844
 20
535.3886951314
 30
0.0
 11
184.4446854025
 21
534.6465786301
 31
0.0
  0
LINE
  5
258
330
1F
100
AcDbEntity
  8
0
  6
Continuous
 62
     7
370
    25
100
AcDbLine
 10
188.0336592086
 20
533.2968932112
 30
0.0
 11
187.2915427072
 21
534.9336008932
 31
0.0
  0
ARC
  5
259
330
1F
100
AcDbEntity
  8
0
  6
Continuous
 62
     7
370
    25
100
AcDbCircle
 10
187.1629143187
 20
536.4280756295
 30
0.0
 40
1.500000000000003
100
AcDbArc
 50
223.8617253545
 51
274.9192840855
  0
ARC
  5
25A
330
1F
100
AcDbEntity
  8
0
  6
Continuous
 62
     7
370
    25
100
AcDbCircle
 10
187.1629143187
 20
536.4280756295
 30
0.0
 40
4.000000000000035
100
AcDbArc
 50
107.2097489386
 51
121.5712605015
  0
ARC
  5
25B
330
1F
100
AcDbEntity
  8
0
  6
Continuous
 62
     7
370
    25
100
AcDbCircle
 10
187.1629143187
 20
536.4280756295
 30
0.0
 40
4.000000000000015
100
AcDbArc
 50
17.2097489386
 51
31.5712605015
  0
ARC
  5
25C
330
1F
100
AcDbEntity
  8
0
  6
Continuous
 62
     7
370
    25
100
AcDbCircle
 10
187.1629143187
 20
536.4280756295
 30
0.0
 40
4.000000000000006
100
AcDbArc
 50
197.2097489386
 51
211.5712605015
  0
ARC
  5
25D
330
1F
100
AcDbEntity
  8
0
  6
Continuous
 62
     7
370
    25
100
AcDbCircle
 10
187.1629143187
 20
536.4280756295
 30
0.0
 40
4.000000000000006
100
AcDbArc
 50
287.2097489386
 51
301.5712605015
  0
LINE
  5
25E
330
1F
100
AcDbEntity
  8
0
  6
Continuous
 62
     7
370
    25
100
AcDbLine
 10
271.4129143187
 20
531.4280756295
 30
0.0
 11
271.4129143187
 21
533.4280756295
 31
0.0
  0
LINE
  5
25F
330
1F
100
AcDbEntity
  8
0
  6
Continuous
 62
     7
370
    25
100
AcDbLine
 10
271.4129143187
 20
533.4280756295
 30
0.0
 11
272.1629143187
 21
533.4280756295
 31
0.0
  0
LINE
  5
260
330
1F
100
AcDbEntity
  8
0
  6
Continuous
 62
     7
370
    25
100
AcDbLine
 10
271.3629145473
 20
540.9280756295
 30
0.0
 11
272.1629143187
 21
540.9280756295
 31
0.0
  0
SPLINE
  5
261
330
1F
100
AcDbEntity
  8
0
  6
Continuous
 62
     7
370
    25
100
AcDbSpline
210
0.0
220
0.0
230
1.0
 70
     8
 71
     3
 72
    12
 73
     8
 74
     0
 42
0.000000001
 43
0.00000001
 40
0.0
 40
0.0
 40
0.0
 40
0.0
 40
0.0067138606421102
 40
0.0680683015410795
 40
0.3035447179804869
 40
0.5985469924132466
 40
1.0
 40
1.0
 40
1.0
 40
1.0
 10
271.162914318667
 20
531.4280756295275
 30
0.0
 10
271.1629171746649
 20
531.4286713810307
 30
0.0
 10
271.162946130125
 20
531.4347113921542
 30
0.0
 10
271.1651162738521
 20
531.4617094184545
 30
0.0
 10
271.1871558798999
 20
531.5115492893631
 30
0.0
 10
271.2639185924472
 20
531.5829578839391
 30
0.0
 10
271.3950306118309
 20
531.5643619539794
 30
0.0
 10
271.4706066263594
 20
531.5536428278504
 30
0.0
  0
ARC
  5
262
330
1F
100
AcDbEntity
  8
0
  6
Continuous
 62
     8
370
    25
100
AcDbCircle
 10
261.1629143187
 20
537.4280756295
 30
0.0
 40
6.036983830070952
100
AcDbArc
 50
0.0
 51
41.4971296371
  0
ARC
  5
263
330
1F
100
AcDbEntity
  8
0
  6
Continuous
 62
     8
370
    25
100
AcDbCircle
 10
246.1629143187
 20
537.4280756295
 30
0.0
 40
6.036983830070966
100
AcDbArc
 50
138.5028703629
 51
180.0
  0
ARC
  5
264
330
1F
100
AcDbEntity
  8
0
  6
Continuous
 62
     8
370
    25
100
AcDbCircle
 10
231.1629143187
 20
537.4280756295
 30
0.0
 40
6.036983830070966
100
AcDbArc
 50
0.0
 51
41.4971296371
  0
ARC
  5
265
330
1F
100
AcDbEntity
  8
0
  6
Continuous
 62
     8
370
    25
100
AcDbCircle
 10
216.1629143187
 20
537.4280756295
 30
0.0
 40
6.036983830070994
100
AcDbArc
 50
138.5028703629
 51
180.0
  0
ARC
  5
266
330
1F
100
AcDbEntity
  8
0
  6
Continuous
 62
     8
370
    25
100
AcDbCircle
 10
261.1629143187
 20
535.4280756295
 30
0.0
 40
6.036983830070975
100
AcDbArc
 50
318.5028703629
 51
0.0
  0
ARC
  5
267
330
1F
100
AcDbEntity
  8
0
  6
Continuous
 62
     8
370
    25
100
AcDbCircle
 10
201.1629143187
 20
537.4280756295
 30
0.0
 40
6.036983830070952
100
AcDbArc
 50
0.0
 51
41.4971296371
  0
ARC
  5
268
330
1F
100
AcDbEntity
  8
0
  6
Continuous
 62
     8
370
    25
100
AcDbCircle
 10
231.1629143187
 20
535.4280756295
 30
0.0
 40
6.036983830070975
100
AcDbArc
 50
318.5028703629
 51
0.0
  0
ARC
  5
269
330
1F
100
AcDbEntity
  8
0
  6
Continuous
 62
     8
370
    25
100
AcDbCircle
 10
246.1629143187
 20
535.4280756295
 30
0.0
 40
6.036983830070975
100
AcDbArc
 50
180.0
 51
221.4971296371
  0
ARC
  5
26A
330
1F
100
AcDbEntity
  8
0
  6
Continuous
 62
     8
370
    25
100
AcDbCircle
 10
201.1629143187
 20
535.4280756295
 30
0.0
 40
6.036983830070975
100
AcDbArc
 50
318.5028703629
 51
0.0
  0
ARC
  5
26B
330
1F
100
AcDbEntity
  8
0
  6
Continuous
 62
     8
370
    25
100
AcDbCircle
 10
216.1629143187
 20
535.4280756295
 30
0.0
 40
6.036983830070996
100
AcDbArc
 50
180.0
 51
221.4971296371
  0
ARC
  5
26C
330
1F
100
AcDbEntity
  8
0
  6
Continuous
 62
     8
370
    25
100
AcDbCircle
 10
261.1629143187
 20
537.4280756295
 30
0.0
 40
4.53721228733639
100
AcDbArc
 50
0.0
 51
61.8358069201
  0
ARC
  5
26D
330
1F
100
AcDbEntity
  8
0
  6
Continuous
 62
     8
370
    25
100
AcDbCircle
 10
246.1629143187
 20
537.4280756295
 30
0.0
 40
4.537212287336404
100
AcDbArc
 50
118.1641930799
 51
180.0
  0
ARC
  5
26E
330
1F
100
AcDbEntity
  8
0
  6
Continuous
 62
     8
370
    25
100
AcDbCircle
 10
231.1629143187
 20
537.4280756295
 30
0.0
 40
4.537212287336404
100
AcDbArc
 50
0.0
 51
61.8358069201
  0
ARC
  5
26F
330
1F
100
AcDbEntity
  8
0
  6
Continuous
 62
     8
370
    25
100
AcDbCircle
 10
216.1629143187
 20
537.4280756295
 30
0.0
 40
4.537212287336376
100
AcDbArc
 50
118.1641930799
 51
180.0
  0
ARC
  5
270
330
1F
100
AcDbEntity
  8
0
  6
Continuous
 62
     8
370
    25
100
AcDbCircle
 10
201.1629143187
 20
537.4280756295
 30
0.0
 40
4.537212287336404
100
AcDbArc
 50
0.0
 51
61.8358069201
  0
ARC
  5
271
330
1F
100
AcDbEntity
  8
0
  6
Continuous
 62
     8
370
    25
100
AcDbCircle
 10
261.1629143187
 20
535.4280756295
 30
0.0
 40
4.537212287336376
100
AcDbArc
 50
298.1641930799
 51
0.0
  0
ARC
  5
272
330
1F
100
AcDbEntity
  8
0
  6
Continuous
 62
     8
370
    25
100
AcDbCircle
 10
246.1629143187
 20
535.4280756295
 30
0.0
 40
4.53721228733639
100
AcDbArc
 50
180.0
 51
241.8358069201
  0
ARC
  5
273
330
1F
100
AcDbEntity
  8
0
  6
Continuous
 62
     8
370
    25
100
AcDbCircle
 10
231.1629143187
 20
535.4280756295
 30
0.0
 40
4.53721228733639
100
AcDbArc
 50
298.1641930799
 51
0.0
  0
ARC
  5
274
330
1F
100
AcDbEntity
  8
0
  6
Continuous
 62
     8
370
    25
100
AcDbCircle
 10
216.1629143187
 20
535.4280756295
 30
0.0
 40
4.53721228733639
100
AcDbArc
 50
180.0
 51
241.8358069201
  0
ARC
  5
275
330
1F
100
AcDbEntity
  8
0
  6
Continuous
 62
     8
370
    25
100
AcDbCircle
 10
201.1629143187
 20
535.4280756295
 30
0.0
 40
4.53721228733639
100
AcDbArc
 50
298.1641930799
 51
0.0
  0
LINE
  5
276
330
1F
100
AcDbEntity
  8
0
  6
Continuous
 62
     8
370
    25
100
AcDbLine
 10
202.5037266839
 20
546.9280756295
 30
0.0
 11
202.2037266839
 21
546.9280756295
 31
0.0
  0
LINE
  5
277
330
1F
100
AcDbEntity
  8
0
  6
Continuous
 62
     8
370
    25
100
AcDbLine
 10
202.5037266839
 20
525.9280756295
 30
0.0
 11
202.2037266839
 21
525.9280756295
 31
0.0
  0
LINE
  5
278
330
1F
100
AcDbEntity
  8
0
  6
Continuous
 62
     8
370
    25
100
AcDbLine
 10
200.9188327031
 20
524.0280756295
 30
0.0
 11
289.9629143187
 21
524.0280756295
 31
0.0
  0
LINE
  5
279
330
1F
100
AcDbEntity
  8
0
  6
Continuous
 62
     8
370
    25
100
AcDbLine
 10
289.9629143187
 20
548.8280756295
 30
0.0
 11
200.822123937
 21
548.8280756295
 31
0.0
  0
LINE
  5
27A
330
1F
100
AcDbEntity
  8
0
  6
Continuous
 62
     8
370
    25
100
AcDbLine
 10
272.1629143187
 20
540.7280756295
 30
0.0
 11
271.1629143187
 21
540.7280756295
 31
0.0
  0
SPLINE
  5
27B
330
1F
100
AcDbEntity
  8
0
  6
Continuous
 62
     8
370
    25
100
AcDbSpline
210
0.0
220
0.0
230
1.0
 70
     8
 71
     3
 72
    11
 73
     7
 74
     0
 42
0.000000001
 43
0.00000001
 40
0.0
 40
0.0
 40
0.0
 40
0.0
 40
0.0088600566722602
 40
0.1145667480420642
 40
0.8892750721839356
 40
1.0
 40
1.0
 40
1.0
 40
1.0
 10
271.162914318667
 20
531.4280756295275
 30
0.0
 10
271.1629179307874
 20
531.4295628720618
 30
0.0
 10
271.1629646380365
 20
531.448793961319
 30
0.0
 10
271.1732366866515
 20
531.5959185382462
 30
0.0
 10
271.2233073149879
 20
531.7928639640171
 30
0.0
 10
271.391839129785
 20
531.8455889076986
 30
0.0
 10
271.4129143186678
 20
531.8521822512063
 30
0.0
  0
ARC
  5
27C
330
1F
100
AcDbEntity
  8
0
  6
Continuous
 62
     8
370
    25
100
AcDbCircle
 10
271.9317031954
 20
530.9293921901
 30
0.0
 40
0.776003006785285
100
AcDbArc
 50
131.9544638565
 51
140.011726856
  0
LINE
  5
27D
330
1F
100
AcDbEntity
  8
0
  6
CENTERX2
 62
     7
370
    18
100
AcDbLine
 10
272.1629143187
 20
536.4280756295
 30
0.0
 11
404.8745110963
 21
536.4280756295
 31
0.0
  0
DIMENSION
  5
27E
330
1F
100
AcDbEntity
  8
0
  6
Continuous
 62
     7
370
    18
100
AcDbDimension
  2
_D_11
 10
70.6629143187
 20
523.9280756295
 30
0.0
 11
70.6629143187
 21
538.8160760008
 31
0.0
 70
   160
  1
<>
 71
     2
 42
-1.0
  3
SLDDIMSTYLE1
100
AcDbAlignedDimension
 13
124.6629143187
 23
548.9280756295
 33
0.0
 14
124.6629143187
 24
523.9280756295
 34
0.0
 50
90.0
100
AcDbRotatedDimension
  0
DIMENSION
  5
28A
330
1F
100
AcDbEntity
  8
0
  6
Continuous
 62
     7
370
    18
100
AcDbDimension
  2
_D_12
 10
187.1629143187
 20
458.6280756295
 30
0.0
 11
165.2079909914
 21
458.6280756295
 31
0.0
 70
   160
  1
<>
 71
     2
 42
-1.0
  3
SLDDIMSTYLE0
100
AcDbAlignedDimension
 13
142.1629143187
 23
536.4280756295
 33
0.0
 14
187.1629143187
 24
536.4280756295
 34
0.0
100
AcDbRotatedDimension
  0
DIMENSION
  5
294
330
1F
100
AcDbEntity
  8
0
  6
Continuous
 62
     7
370
    18
100
AcDbDimension
  2
_D_13
 10
202.5037266839
 20
434.6280756295
 30
0.0
 11
165.2079909914
 21
434.6280756295
 31
0.0
 70
   160
  1
<>
 71
     2
 42
-1.0
  3
SLDDIMSTYLE3
100
AcDbAlignedDimension
 13
122.6629143187
 23
525.9280756295
 33
0.0
 14
202.5037266839
 24
525.9280756295
 34
0.0
 50
0.0
100
AcDbRotatedDimension
  0
DIMENSION
  5
29E
330
1F
100
AcDbEntity
  8
0
  6
Continuous
 62
     7
370
    18
100
AcDbDimension
  2
_D_14
 10
376.2276207884
 20
541.4280756295
 30
0.0
 11
376.2276207884
 21
590.2280756295
 31
0.0
 70
   160
  1
8÷13.52
 71
     2
 42
-1.0
  3
SLDDIMSTYLE1
100
AcDbAlignedDimension
 13
336.2276207884
 23
531.4280756295
 33
0.0
 14
336.2276207884
 24
541.4280756295
 34
0.0
 50
90.0
100
AcDbRotatedDimension
  0
DIMENSION
  5
2AA
330
1F
100
AcDbEntity
  8
0
  6
Continuous
 62
     7
370
    18
100
AcDbDimension
  2
_D_15
 10
187.1629143187
 20
458.6280756295
 30
0.0
 11
228.5565526951
 21
458.6280756295
 31
0.0
 70
   160
  1
<>,5
 71
     2
 42
-1.0
  3
SLDDIMSTYLE4
100
AcDbAlignedDimension
 13
202.5037266839
 23
525.9280756295
 33
0.0
 14
187.1629143187
 24
536.4280756295
 34
0.0
 50
0.0
100
AcDbRotatedDimension
  0
DIMENSION
  5
2B7
330
1F
100
AcDbEntity
  8
0
  6
Continuous
 62
     7
370
    18
100
AcDbDimension
  2
_D_16
 10
142.1629143187
 20
458.6280756295
 30
0.0
 11
92.2232484617
 21
458.6280756295
 31
0.0
 70
   160
  1
<>
 71
     2
 42
-1.0
  3
SLDDIMSTYLE1
100
AcDbAlignedDimension
 13
122.6629143187
 23
525.9280756295
 33
0.0
 14
142.1629143187
 24
536.4280756295
 34
0.0
100
AcDbRotatedDimension
  0
LINE
  5
2C3
330
1F
100
AcDbEntity
  8
0
  6
Continuous
 62
     7
370
    25
100
AcDbLine
 10
131.4681131712
 20
318.1804874155
 30
0.0
 11
133.881952273
 21
318.1804874155
 31
0.0
  0
ARC
  5
2C4
330
1F
100
AcDbEntity
  8
0
  6
Continuous
 62
     7
370
    25
100
AcDbCircle
 10
133.8819437022
 20
313.1805246088
 30
0.0
 40
5.000000000000023
100
AcDbArc
 50
40.8322170275
 51
90.0
  0
ARC
  5
2C5
330
1F
100
AcDbEntity
  8
0
  6
Continuous
 62
     7
370
    25
100
AcDbCircle
 10
143.7181014887
 20
321.6805246088
 30
0.0
 40
8.000000000000057
100
AcDbArc
 50
220.8322170275
 51
270.0
  0
ARC
  5
2C6
330
1F
100
AcDbEntity
  8
0
  6
Continuous
 62
     7
370
    25
100
AcDbCircle
 10
247.7181014887
 20
321.6805246088
 30
0.0
 40
8.000000000000057
100
AcDbArc
 50
270.0
 51
319.1677829725
  0
ARC
  5
2C7
330
1F
100
AcDbEntity
  8
0
  6
Continuous
 62
     7
370
    25
100
AcDbCircle
 10
257.5542592751
 20
313.1805246088
 30
0.0
 40
5.000000000000066
100
AcDbArc
 50
90.0
 51
139.1677829725
  0
LINE
  5
2C8
330
1F
100
AcDbEntity
  8
0
  6
Continuous
 62
     7
370
    25
100
AcDbLine
 10
259.9680979124
 20
318.1804874155
 30
0.0
 11
257.5542588106
 21
318.1804874155
 31
0.0
  0
ARC
  5
2C9
330
1F
100
AcDbEntity
  8
0
  6
Continuous
 62
     7
370
    25
100
AcDbCircle
 10
259.9681014887
 20
326.1805246088
 30
0.0
 40
8.0
100
AcDbArc
 50
270.0
 51
88.8980901607
  0
ARC
  5
2CA
330
1F
100
AcDbEntity
  8
0
  6
Continuous
 62
     7
370
    25
100
AcDbCircle
 10
260.2181014887
 20
339.1781205403
 30
0.0
 40
5.000000000000199
100
AcDbArc
 50
180.0
 51
268.8980901607
  0
LINE
  5
2CB
330
1F
100
AcDbEntity
  8
0
  6
Continuous
 62
     7
370
    25
100
AcDbLine
 10
319.2828107945
 20
318.6150052759
 30
0.0
 11
311.4444274775
 21
347.1805312845
 31
0.0
  0
LINE
  5
2CC
330
1F
100
AcDbEntity
  8
0
  6
Continuous
 62
     7
370
    25
100
AcDbLine
 10
311.4444274775
 20
291.5369727823
 30
0.0
 11
319.2828107945
 21
318.6150052759
 31
0.0
  0
LINE
  5
2CD
330
1F
100
AcDbEntity
  8
0
  6
Continuous
 62
     7
370
    25
100
AcDbLine
 10
319.2828107945
 20
272.653625271
 30
0.0
 11
311.4444274775
 21
291.5369727823
 31
0.0
  0
LINE
  5
2CE
330
1F
100
AcDbEntity
  8
0
  6
Continuous
 62
     7
370
    25
100
AcDbLine
 10
311.4444274775
 20
254.0642478677
 30
0.0
 11
319.2828107945
 21
272.653625271
 31
0.0
  0
LINE
  5
2CF
330
1F
100
AcDbEntity
  8
0
  6
Continuous
 62
     7
370
    25
100
AcDbLine
 10
260.08805226
 20
248.2542255136
 30
0.0
 11
311.4444274775
 21
254.0642478677
 31
0.0
  0
LINE
  5
2D0
330
1F
100
AcDbEntity
  8
0
  6
Continuous
 62
     7
370
    25
100
AcDbLine
 10
200.4935998789
 20
250.1908996317
 30
0.0
 11
260.08805226
 21
248.2542255136
 31
0.0
  0
LINE
  5
2D1
330
1F
100
AcDbEntity
  8
0
  6
Continuous
 62
     7
370
    25
100
AcDbLine
 10
147.1844870916
 20
246.3175513956
 30
0.0
 11
200.4935998789
 21
250.1908996317
 31
0.0
  0
LINE
  5
2D2
330
1F
100
AcDbEntity
  8
0
  6
Continuous
 62
     7
370
    25
100
AcDbLine
 10
93.7181074492
 20
254.0642478677
 30
0.0
 11
147.1844870916
 21
246.3175513956
 31
0.0
  0
ARC
  5
2D3
330
1F
100
AcDbEntity
  8
0
  6
Continuous
 62
     7
370
    25
100
AcDbCircle
 10
131.2181014887
 20
339.1781205403
 30
0.0
 40
5.000000000000199
100
AcDbArc
 50
271.1019098393
 51
0.0
  0
ARC
  5
2D4
330
1F
100
AcDbEntity
  8
0
  6
Continuous
 62
     7
370
    25
100
AcDbCircle
 10
131.4681014887
 20
326.1805246088
 30
0.0
 40
8.0
100
AcDbArc
 50
91.1019098393
 51
270.0
  0
LINE
  5
2D5
330
1F
100
AcDbEntity
  8
0
  6
Continuous
 62
     7
370
    25
100
AcDbLine
 10
247.7180917135
 20
313.6805751535
 30
0.0
 11
143.7180895678
 21
313.6805751535
 31
0.0
  0
LINE
  5
2D6
330
1F
100
AcDbEntity
  8
0
  6
Continuous
 62
     7
370
    25
100
AcDbLine
 10
136.2180967203
 20
347.1805312845
 30
0.0
 11
136.2180967203
 21
339.1781308862
 31
0.0
  0
LINE
  5
2D7
330
1F
100
AcDbEntity
  8
0
  6
Continuous
 62
     7
370
    25
100
AcDbLine
 10
136.2180967203
 20
347.1805312845
 30
0.0
 11
93.7181074492
 21
347.1805312845
 31
0.0
  0
LINE
  5
2D8
330
1F
100
AcDbEntity
  8
0
  6
Continuous
 62
     7
370
    25
100
AcDbLine
 10
93.7181074492
 20
347.1805312845
 30
0.0
 11
93.7181074492
 21
254.0642478677
 31
0.0
  0
LINE
  5
2D9
330
1F
100
AcDbEntity
  8
0
  6
Continuous
 62
     7
370
    25
100
AcDbLine
 10
311.4444274775
 20
347.1805312845
 30
0.0
 11
255.2181143633
 21
347.1805312845
 31
0.0
  0
LINE
  5
2DA
330
1F
100
AcDbEntity
  8
0
  6
Continuous
 62
     7
370
    25
100
AcDbLine
 10
255.2181143633
 20
339.1781308862
 30
0.0
 11
255.2181143633
 21
347.1805312845
 31
0.0
  0
LINE
  5
2DB
330
1F
100
AcDbEntity
  8
0
  6
Continuous
 62
     7
370
    18
100
AcDbLine
 10
80.4371574346
 20
355.1805246088
 30
0.0
 11
322.141303302
 21
355.1805246088
 31
0.0
  0
LINE
  5
2DC
330
1F
100
AcDbEntity
  8
0
  6
Continuous
 62
     7
370
    18
100
AcDbLine
 10
80.4371574346
 20
355.1805246088
 30
0.0
 11
80.4371574346
 21
387.5056991321
 31
0.0
  0
LINE
  5
2DD
330
1F
100
AcDbEntity
  8
0
  6
Continuous
 62
     7
370
    18
100
AcDbLine
 10
80.4371574346
 20
387.5056991321
 30
0.0
 11
322.141303302
 21
387.5056991321
 31
0.0
  0
LINE
  5
2DE
330
1F
100
AcDbEntity
  8
0
  6
Continuous
 62
     7
370
    18
100
AcDbLine
 10
322.141303302
 20
355.1805246088
 30
0.0
 11
322.141303302
 21
387.5056991321
 31
0.0
  0
HATCH
  5
2DF
330
1F
100
AcDbEntity
  8
0
  6
Continuous
 62
     7
100
AcDbHatch
 10
0.0
 20
0.0
 30
0.0
210
0.0
220
0.0
230
1.0
  2
LINE
 70
     0
 71
     0
 91
        1
 92
        0
 93
        4
 72
     1
 10
80.43715743456832
 20
355.1805246087739
 11
322.1413033020075
 21
355.1805246087739
 72
     1
 10
322.1413033020075
 20
355.1805246087739
 11
322.1413033020075
 21
387.5056991320789
 72
     1
 10
322.1413033020075
 20
387.5056991320789
 11
80.43715743456832
 21
387.5056991320789
 72
     1
 10
80.43715743456832
 20
387.5056991320789
 11
80.43715743456832
 21
355.1805246087739
 97
        0
 75
     0
 76
     1
 52
45.0
 41
2.0
 77
     0
 78
     1
 53
45.0000000000001
 43
0.0
 44
0.0
 45
-4.490128060534586
 46
4.49012806053457
 79
     0
 98
        1
 10
0.0
 20
0.0
  0
LINE
  5
2E0
330
1F
100
AcDbEntity
  8
0
  6
Continuous
 62
     7
370
    25
100
AcDbLine
 10
656.7152628957
 20
316.4988863959
 30
0.0
 11
648.8768795787
 21
345.0644124046
 31
0.0
  0
LINE
  5
2E1
330
1F
100
AcDbEntity
  8
0
  6
Continuous
 62
     7
370
    25
100
AcDbLine
 10
648.8768795787
 20
289.4208539024
 30
0.0
 11
656.7152628957
 21
316.4988863959
 31
0.0
  0
LINE
  5
2E2
330
1F
100
AcDbEntity
  8
0
  6
Continuous
 62
     7
370
    25
100
AcDbLine
 10
656.7152628957
 20
270.5375063911
 30
0.0
 11
648.8768795787
 21
289.4208539024
 31
0.0
  0
LINE
  5
2E3
330
1F
100
AcDbEntity
  8
0
  6
Continuous
 62
     7
370
    25
100
AcDbLine
 10
648.8768795787
 20
251.9481289878
 30
0.0
 11
656.7152628957
 21
270.5375063911
 31
0.0
  0
LINE
  5
2E4
330
1F
100
AcDbEntity
  8
0
  6
Continuous
 62
     7
370
    25
100
AcDbLine
 10
597.5205043613
 20
246.1381066337
 30
0.0
 11
648.8768795787
 21
251.9481289878
 31
0.0
  0
LINE
  5
2E5
330
1F
100
AcDbEntity
  8
0
  6
Continuous
 62
     7
370
    25
100
AcDbLine
 10
537.9260519801
 20
248.0747807517
 30
0.0
 11
597.5205043613
 21
246.1381066337
 31
0.0
  0
LINE
  5
2E6
330
1F
100
AcDbEntity
  8
0
  6
Continuous
 62
     7
370
    25
100
AcDbLine
 10
484.6169391929
 20
244.2014325156
 30
0.0
 11
537.9260519801
 21
248.0747807517
 31
0.0
  0
LINE
  5
2E7
330
1F
100
AcDbEntity
  8
0
  6
Continuous
 62
     7
370
    25
100
AcDbLine
 10
431.1505595504
 20
251.9481289878
 30
0.0
 11
484.6169391929
 21
244.2014325156
 31
0.0
  0
LINE
  5
2E8
330
1F
100
AcDbEntity
  8
0
  6
Continuous
 62
     7
370
    25
100
AcDbLine
 10
473.6505488216
 20
332.0644009605
 30
0.0
 11
468.9005652724
 21
332.0644009605
 31
0.0
  0
ARC
  5
2E9
330
1F
100
AcDbEntity
  8
0
  6
Continuous
 62
     7
370
    25
100
AcDbCircle
 10
468.9005535899
 20
324.0644057288
 30
0.0
 40
8.000000000000057
100
AcDbArc
 50
90.0
 51
270.0
  0
LINE
  5
2EA
330
1F
100
AcDbEntity
  8
0
  6
Continuous
 62
     7
370
    25
100
AcDbLine
 10
468.9005652724
 20
316.0643685355
 30
0.0
 11
473.9567974864
 21
316.0643685355
 31
0.0
  0
ARC
  5
2EB
330
1F
100
AcDbEntity
  8
0
  6
Continuous
 62
     7
370
    25
100
AcDbCircle
 10
481.1505535899
 20
319.5644057288
 30
0.0
 40
8.000000000000057
100
AcDbArc
 50
205.9444797724
 51
270.0
  0
LINE
  5
2EC
330
1F
100
AcDbEntity
  8
0
  6
Continuous
 62
     7
370
    25
100
AcDbLine
 10
585.1505438148
 20
311.5644562736
 30
0.0
 11
481.150541669
 21
311.5644562736
 31
0.0
  0
ARC
  5
2ED
330
1F
100
AcDbEntity
  8
0
  6
Continuous
 62
     7
370
    25
100
AcDbCircle
 10
585.1505535899
 20
319.5644057288
 30
0.0
 40
8.000000000000057
100
AcDbArc
 50
270.0
 51
334.0555202276
  0
ARC
  5
2EE
330
1F
100
AcDbEntity
  8
0
  6
Continuous
 62
     7
370
    25
100
AcDbCircle
 10
597.4005535899
 20
324.0644057288
 30
0.0
 40
8.000000000000057
100
AcDbArc
 50
270.0
 51
90.0
  0
LINE
  5
2EF
330
1F
100
AcDbEntity
  8
0
  6
Continuous
 62
     7
370
    25
100
AcDbLine
 10
597.4005500137
 20
332.0644009605
 30
0.0
 11
592.6505664645
 21
332.0644009605
 31
0.0
  0
LINE
  5
2F0
330
1F
100
AcDbEntity
  8
0
  6
Continuous
 62
     7
370
    25
100
AcDbLine
 10
597.4005500137
 20
316.0643685355
 30
0.0
 11
592.3442879974
 21
316.0643685355
 31
0.0
  0
LINE
  5
2F1
330
1F
100
AcDbEntity
  8
0
  6
Continuous
 62
     7
370
    25
100
AcDbLine
 10
473.6505488216
 20
345.0644124046
 30
0.0
 11
473.6505488216
 21
332.0644009605
 31
0.0
  0
LINE
  5
2F2
330
1F
100
AcDbEntity
  8
0
  6
Continuous
 62
     7
370
    25
100
AcDbLine
 10
473.6505488216
 20
345.0644124046
 30
0.0
 11
431.1505595504
 21
345.0644124046
 31
0.0
  0
LINE
  5
2F3
330
1F
100
AcDbEntity
  8
0
  6
Continuous
 62
     7
370
    25
100
AcDbLine
 10
431.1505595504
 20
345.0644124046
 30
0.0
 11
431.1505595504
 21
251.9481289878
 31
0.0
  0
LINE
  5
2F4
330
1F
100
AcDbEntity
  8
0
  6
Continuous
 62
     7
370
    25
100
AcDbLine
 10
648.8768795787
 20
345.0644124046
 30
0.0
 11
592.6505664645
 21
345.0644124046
 31
0.0
  0
LINE
  5
2F5
330
1F
100
AcDbEntity
  8
0
  6
Continuous
 62
     7
370
    25
100
AcDbLine
 10
592.6505664645
 20
332.0644009605
 30
0.0
 11
592.6505664645
 21
345.0644124046
 31
0.0
  0
LINE
  5
2F6
330
1F
100
AcDbEntity
  8
0
  6
Continuous
 62
     7
370
    18
100
AcDbLine
 10
416.9299959307
 20
353.0644057288
 30
0.0
 11
666.387369355
 21
353.0644057288
 31
0.0
  0
LINE
  5
2F7
330
1F
100
AcDbEntity
  8
0
  6
Continuous
 62
     7
370
    18
100
AcDbLine
 10
416.9299959307
 20
353.0644057288
 30
0.0
 11
416.9299959307
 21
387.0685862384
 31
0.0
  0
LINE
  5
2F8
330
1F
100
AcDbEntity
  8
0
  6
Continuous
 62
     7
370
    18
100
AcDbLine
 10
416.9299959307
 20
387.0685862384
 30
0.0
 11
666.387369355
 21
387.0685862384
 31
0.0
  0
LINE
  5
2F9
330
1F
100
AcDbEntity
  8
0
  6
Continuous
 62
     7
370
    18
100
AcDbLine
 10
666.387369355
 20
353.0644057288
 30
0.0
 11
666.387369355
 21
387.0685862384
 31
0.0
  0
HATCH
  5
2FA
330
1F
100
AcDbEntity
  8
0
  6
Continuous
 62
     7
100
AcDbHatch
 10
0.0
 20
0.0
 30
0.0
210
0.0
220
0.0
230
1.0
  2
LINE
 70
     0
 71
     0
 91
        1
 92
        0
 93
        4
 72
     1
 10
416.9299959306707
 20
353.0644057288326
 11
666.3873693550074
 21
353.0644057288326
 72
     1
 10
666.3873693550074
 20
353.0644057288326
 11
666.3873693550074
 21
387.0685862384128
 72
     1
 10
666.3873693550074
 20
387.0685862384128
 11
416.9299959306707
 21
387.0685862384128
 72
     1
 10
416.9299959306707
 20
387.0685862384128
 11
416.9299959306707
 21
353.0644057288326
 97
        0
 75
     0
 76
     1
 52
45.0
 41
2.0
 77
     0
 78
     1
 53
45.0000000000001
 43
0.0
 44
0.0
 45
-4.490128060534586
 46
4.49012806053457
 79
     0
 98
        1
 10
0.0
 20
0.0
  0
LINE
  5
2FB
330
1F
100
AcDbEntity
  8
0
  6
Continuous
 62
     7
370
    25
100
AcDbLine
 10
479.5111431358
 20
579.0943352565
 30
0.0
 11
656.048051651
 21
528.1325194299
 31
0.0
  0
LINE
  5
2FC
330
1F
100
AcDbEntity
  8
0
  6
Continuous
 62
     7
370
    25
100
AcDbLine
 10
479.5073123106
 20
630.1125072822
 30
0.0
 11
479.5073123106
 21
579.0994292795
 31
0.0
  0
LINE
  5
2FD
330
1F
100
AcDbEntity
  8
0
  6
Continuous
 62
     7
370
    25
100
AcDbLine
 10
673.444968023
 20
543.0815322733
 30
0.0
 11
673.444968023
 21
594.094610276
 31
0.0
  0
LINE
  5
2FE
330
1F
100
AcDbEntity
  8
0
  6
Continuous
 62
     7
370
    25
100
AcDbLine
 10
673.4411371978
 20
594.0997032344
 30
0.0
 11
496.9042286826
 21
645.0615190609
 31
0.0
  0
ARC
  5
2FF
330
1F
100
AcDbEntity
  8
0
  6
Continuous
 62
     7
370
    25
100
AcDbCircle
 10
668.6174865707
 20
564.951768744
 30
0.0
 40
1.319999999999909
100
AcDbArc
 50
157.3992342171
 51
202.6007657829
  0
LINE
  5
300
330
1F
100
AcDbEntity
  8
0
  6
Continuous
 62
     7
370
    25
100
AcDbLine
 10
509.5242286703
 20
627.5109203171
 30
0.0
 11
509.5242286703
 21
625.1437626938
 31
0.0
  0
LINE
  5
301
330
1F
100
AcDbEntity
  8
0
  6
Continuous
 62
     7
370
    25
100
AcDbLine
 10
540.5442285408
 20
625.1396129719
 30
0.0
 11
540.5442285408
 21
627.5109200479
 31
0.0
  0
LINE
  5
302
330
1F
100
AcDbEntity
  8
0
  6
Continuous
 62
     7
370
    25
100
AcDbLine
 10
666.9864112355
 20
541.2533369872
 30
0.0
 11
667.3988515262
 21
541.6105207565
 31
0.0
  0
LINE
  5
303
330
1F
100
AcDbEntity
  8
0
  6
Continuous
 62
     7
370
    25
100
AcDbLine
 10
494.1076463105
 20
638.9916983011
 30
0.0
 11
493.8858606497
 21
638.7996262846
 31
0.0
  0
LINE
  5
304
330
1F
100
AcDbEntity
  8
0
  6
Continuous
 62
     7
370
    25
100
AcDbLine
 10
648.2939333569
 20
593.4568867394
 30
0.0
 11
647.6339332487
 21
592.8853098793
 31
0.0
  0
LINE
  5
305
330
1F
100
AcDbEntity
  8
0
  6
Continuous
 62
     7
370
    25
100
AcDbLine
 10
665.2607528941
 20
542.7453161679
 30
0.0
 11
665.9207530023
 21
543.3168930281
 31
0.0
  0
LINE
  5
306
330
1F
100
AcDbEntity
  8
0
  6
Continuous
 62
     7
370
    25
100
AcDbLine
 10
494.2539956204
 20
637.9243864985
 30
0.0
 11
493.5939955123
 21
637.3528096383
 31
0.0
  0
LINE
  5
307
330
1F
100
AcDbEntity
  8
0
  6
Continuous
 62
     7
370
    25
100
AcDbLine
 10
654.304962501
 20
577.7333003952
 30
0.0
 11
480.4313116552
 21
627.9262999556
 31
0.0
  0
ELLIPSE
  5
308
330
1F
100
AcDbEntity
  8
0
  6
Continuous
 62
     7
370
    25
100
AcDbEllipse
 10
481.3553113757
 20
628.7265074034
 30
0.0
 11
-1.569835805762978
 21
2.087109473320993
 31
0.0
210
0.0
220
0.0
230
1.0
 40
0.4671764921
 41
0.032201913974648
 42
1.602998240769544
  0
LINE
  5
309
330
1F
100
AcDbEntity
  8
0
  6
Continuous
 62
     7
370
    25
100
AcDbLine
 10
479.7548969581
 20
630.788921853
 30
0.0
 11
656.8293786468
 21
579.6719220182
 31
0.0
  0
ELLIPSE
  5
30A
330
1F
100
AcDbEntity
  8
0
  6
Continuous
 62
     7
370
    25
100
AcDbEllipse
 10
655.2289637443
 20
578.5335074034
 30
0.0
 11
1.847041928739145
 21
1.389267113941173
 31
0.0
210
0.0
220
0.0
230
1.0
 40
0.0428275111
 41
4.156588290812632
 42
5.727384617606637
  0
LINE
  5
30B
330
1F
100
AcDbEntity
  8
0
  6
Continuous
 62
     7
370
    25
100
AcDbLine
 10
656.2789456044
 20
578.4590341348
 30
0.0
 11
656.2789456044
 21
578.2304032843
 31
0.0
  0
ARC
  5
30C
330
1F
100
AcDbEntity
  8
0
  6
Continuous
 62
     7
370
    25
100
AcDbCircle
 10
655.7669905164
 20
579.83178442
 30
0.0
 40
1.681225610701932
100
AcDbArc
 50
287.7288684299
 51
309.19139334
  0
LINE
  5
30D
330
1F
100
AcDbEntity
  8
0
  6
Continuous
 62
     7
370
    25
100
AcDbLine
 10
656.8293786468
 20
578.5287682979
 30
0.0
 11
656.8293786468
 21
529.3731657744
 31
0.0
  0
ARC
  5
30E
330
1F
100
AcDbEntity
  8
0
  6
Continuous
 62
     7
370
    25
100
AcDbCircle
 10
655.7669905164
 20
530.6761818965
 30
0.0
 40
1.68122561069826
100
AcDbArc
 50
287.7288684299
 51
309.19139334
  0
LINE
  5
30F
330
1F
100
AcDbEntity
  8
0
  6
Continuous
 62
     7
370
    25
100
AcDbLine
 10
656.2789456044
 20
529.0748007607
 30
0.0
 11
656.2789456044
 21
528.8461704425
 31
0.0
  0
ARC
  5
310
330
1F
100
AcDbEntity
  8
0
  6
Continuous
 62
     7
370
    25
100
AcDbCircle
 10
655.7669905164
 20
530.4475515783
 30
0.0
 40
1.681225610696827
100
AcDbArc
 50
287.7288684299
 51
309.19139334
  0
LINE
  5
311
330
1F
100
AcDbEntity
  8
0
  6
Continuous
 62
     7
370
    25
100
AcDbLine
 10
656.8293786468
 20
529.1445354561
 30
0.0
 11
656.8293786468
 21
528.2300141833
 31
0.0
  0
ELLIPSE
  5
312
330
1F
100
AcDbEntity
  8
0
  6
Continuous
 62
     7
370
    25
100
AcDbEllipse
 10
655.2289637443
 20
530.292428311
 30
0.0
 11
-1.569835805762978
 21
2.087109473320993
 31
0.0
210
0.0
220
0.0
230
1.0
 40
0.4671764921
 41
1.602998240769509
 42
3.17379456756451
  0
LINE
  5
313
330
1F
100
AcDbEntity
  8
0
  6
Continuous
 62
     7
370
    25
100
AcDbLine
 10
654.304962501
 20
529.4922196769
 30
0.0
 11
654.304962501
 21
577.7333003952
 31
0.0
  0
LINE
  5
314
330
1F
100
AcDbEntity
  8
0
  6
Continuous
 62
     7
370
    25
100
AcDbLine
 10
656.8293786468
 20
579.6719220182
 30
0.0
 11
656.8293786468
 21
578.7573991484
 31
0.0
  0
ARC
  5
315
330
1F
100
AcDbEntity
  8
0
  6
Continuous
 62
     7
370
    25
100
AcDbCircle
 10
655.7669905164
 20
580.0604152705
 30
0.0
 40
1.681225610692982
100
AcDbArc
 50
287.7288684299
 51
309.19139334
  0
LINE
  5
316
330
1F
100
AcDbEntity
  8
0
  6
Continuous
 62
     7
370
    25
100
AcDbLine
 10
508.9023616512
 20
628.0143313457
 30
0.0
 11
484.6388972669
 21
635.0185901925
 31
0.0
  0
LWPOLYLINE
  5
317
330
1F
100
AcDbEntity
  8
0
  6
Continuous
 62
     7
370
    25
100
AcDbPolyline
 90
       20
 70
   128
 43
0.0
 10
508.9023616512
 20
628.0143313457
 10
508.8843485857
 20
627.0464680244
 10
509.0931713368
 20
626.0842109437
 10
509.525955068
 20
625.1408048191
 10
510.1767436987
 20
624.229235448
 10
511.0365787707
 20
623.3620493754
 10
512.0936257895
 20
622.551183632
 10
513.3333350004
 20
621.807799017
 10
514.7386429148
 20
621.1421282344
 10
516.2902050402
 20
620.5633327642
 10
517.9666659027
 20
620.0793801991
 10
519.7449502601
 20
619.6969317877
 10
521.6005798339
 20
619.421251002
 10
523.508014495
 20
619.2561334361
 10
525.4409986702
 20
619.2038515222
 10
527.3729262774
 20
619.2651251276
 10
529.2772045257
 20
619.4391102235
 10
531.127624796
 20
619.7234121256
 10
532.8987137929
 20
620.114117916
 10
534.5660957074
 20
620.6058494628
  0
LINE
  5
318
330
1F
100
AcDbEntity
  8
0
  6
Continuous
 62
     7
370
    25
100
AcDbLine
 10
661.7133789556
 20
583.9015903578
 30
0.0
 11
534.5660957074
 21
620.6058494628
 31
0.0
  0
LINE
  5
319
330
1F
100
AcDbEntity
  8
0
  6
Continuous
 62
     7
370
    25
100
AcDbLine
 10
656.8293786468
 20
579.6719220182
 30
0.0
 11
661.7133789556
 21
583.9015903578
 31
0.0
  0
LINE
  5
31A
330
1F
100
AcDbEntity
  8
0
  6
Continuous
 62
     7
370
    25
100
AcDbLine
 10
479.7548969581
 20
630.788921853
 30
0.0
 11
484.6388972669
 21
635.0185901925
 31
0.0
  0
LINE
  5
31B
330
1F
100
AcDbEntity
  8
0
  6
Continuous
 62
     7
370
    25
100
AcDbLine
 10
661.7133789556
 20
582.9870674879
 30
0.0
 11
661.7133789556
 21
583.9015903578
 31
0.0
  0
LINE
  5
31C
330
1F
100
AcDbEntity
  8
0
  6
Continuous
 62
     7
370
    25
100
AcDbLine
 10
656.8293786468
 20
578.7573991484
 30
0.0
 11
661.7133789556
 21
582.9870674879
 31
0.0
  0
LINE
  5
31D
330
1F
100
AcDbEntity
  8
0
  6
Continuous
 62
     7
370
    25
100
AcDbLine
 10
661.7133789556
 20
582.7584366374
 30
0.0
 11
661.5153720773
 21
582.8155962996
 31
0.0
  0
LINE
  5
31E
330
1F
100
AcDbEntity
  8
0
  6
Continuous
 62
     7
370
    25
100
AcDbLine
 10
661.7133789556
 20
582.7584366374
 30
0.0
 11
656.8293786468
 21
578.5287682979
 31
0.0
  0
LINE
  5
31F
330
1F
100
AcDbEntity
  8
0
  6
Continuous
 62
     7
370
    25
100
AcDbLine
 10
480.4313116552
 20
579.6852192373
 30
0.0
 11
654.304962501
 21
529.4922196769
 31
0.0
  0
LINE
  5
320
330
1F
100
AcDbEntity
  8
0
  6
Continuous
 62
     7
370
    25
100
AcDbLine
 10
480.4313116552
 20
627.9262999556
 30
0.0
 11
480.4313116552
 21
579.6852192373
 31
0.0
  0
LINE
  5
321
330
1F
100
AcDbEntity
  8
0
  6
Continuous
 62
     7
370
    25
100
AcDbLine
 10
661.7133789556
 20
533.6028341139
 30
0.0
 11
661.7133789556
 21
582.7584366374
 31
0.0
  0
LINE
  5
322
330
1F
100
AcDbEntity
  8
0
  6
Continuous
 62
     7
370
    25
100
AcDbLine
 10
656.8293786468
 20
529.3731657744
 30
0.0
 11
661.7133789556
 21
533.6028341139
 31
0.0
  0
LWPOLYLINE
  5
323
330
1F
100
AcDbEntity
  8
0
  6
Continuous
 62
     7
370
    25
100
AcDbPolyline
 90
       17
 70
   128
 43
0.0
 10
660.3933787392
 20
557.0374821876
 10
660.4184985766
 20
556.8405032237
 10
660.4900335939
 20
556.7170209415
 10
660.5970933241
 20
556.6858361677
 10
660.7233787933
 20
556.7516948221
 10
660.8496642625
 20
556.9045690165
 10
660.9567239927
 20
557.1211866825
 10
661.02825901
 20
557.3685712493
 10
661.0533788474
 20
557.6090590478
 10
661.02825901
 20
557.8060380116
 10
660.9567239927
 20
557.9295202939
 10
660.8496642625
 20
557.9607050677
 10
660.7233787933
 20
557.8948464132
 10
660.5970933241
 20
557.7419722188
 10
660.4900335939
 20
557.5253545528
 10
660.4184985766
 20
557.2779699861
 10
660.3933787392
 20
557.0374821876
  0
ELLIPSE
  5
324
330
1F
100
AcDbEntity
  8
0
  6
Continuous
 62
     7
370
    25
100
AcDbEllipse
 10
481.3553113757
 20
580.485428311
 30
0.0
 11
1.847041928739145
 21
1.389267113941287
 31
0.0
210
0.0
220
0.0
230
1.0
 40
0.0428275111
 41
3.109390739614736
 42
4.156588290811672
  0
LINE
  5
325
330
1F
100
AcDbEntity
  8
0
  6
Continuous
 62
     7
370
    25
100
AcDbLine
 10
661.5153720773
 20
533.4313634579
 30
0.0
 11
661.7133789556
 21
533.3742037957
 31
0.0
  0
LINE
  5
326
330
1F
100
AcDbEntity
  8
0
  6
Continuous
 62
     7
370
    25
100
AcDbLine
 10
661.7133789556
 20
533.3742037957
 30
0.0
 11
656.8293786468
 21
529.1445354561
 31
0.0
  0
LINE
  5
327
330
1F
100
AcDbEntity
  8
0
  6
Continuous
 62
     7
370
    25
100
AcDbLine
 10
661.7133789556
 20
532.4596825228
 30
0.0
 11
661.7133789556
 21
533.3742037957
 31
0.0
  0
LINE
  5
328
330
1F
100
AcDbEntity
  8
0
  6
Continuous
 62
     7
370
    25
100
AcDbLine
 10
656.8293786468
 20
528.2300141833
 30
0.0
 11
661.7133789556
 21
532.4596825228
 31
0.0
  0
LINE
  5
329
330
1F
100
AcDbEntity
  8
0
  6
Continuous
 62
     7
370
    25
100
AcDbLine
 10
508.9023616512
 20
628.0143313457
 30
0.0
 11
508.9023616512
 21
627.0998084758
 31
0.0
  0
LINE
  5
32A
330
1F
100
AcDbEntity
  8
0
  6
Continuous
 62
     7
370
    25
100
AcDbLine
 10
508.8895923507
 20
626.9965010578
 30
0.0
 11
508.9023616512
 21
627.0998084758
 31
0.0
  0
LINE
  5
32B
330
1F
100
AcDbEntity
  8
0
  6
Continuous
 62
     7
370
    25
100
AcDbLine
 10
541.1660955599
 20
626.321617
 30
0.0
 11
668.3133788081
 21
589.617357895
 31
0.0
  0
ARC
  5
32C
330
1F
100
AcDbEntity
  8
0
  6
Continuous
 62
     7
370
    25
100
AcDbCircle
 10
535.1989986395
 20
626.497612235
 30
0.0
 40
5.969691782680197
100
AcDbArc
 50
358.3105919286
 51
62.14089146
  0
LWPOLYLINE
  5
32D
330
1F
100
AcDbEntity
  8
0
  6
Continuous
 62
     7
370
    25
100
AcDbPolyline
 90
        3
 70
   128
 43
0.0
 10
517.9373272963
 20
634.4064639422
 10
517.1697434182
 20
634.2218304297
 10
515.5023615037
 20
633.7300988829
  0
LINE
  5
32E
330
1F
100
AcDbEntity
  8
0
  6
Continuous
 62
     7
370
    25
100
AcDbLine
 10
491.2388971194
 20
640.7343577298
 30
0.0
 11
515.5023615037
 21
633.7300988829
 31
0.0
  0
LINE
  5
32F
330
1F
100
AcDbEntity
  8
0
  6
Continuous
 62
     7
370
    25
100
AcDbLine
 10
496.1228974282
 20
644.9640260693
 30
0.0
 11
491.2388971194
 21
640.7343577298
 31
0.0
  0
LINE
  5
330
330
1F
100
AcDbEntity
  8
0
  6
Continuous
 62
     7
370
    25
100
AcDbLine
 10
673.1973791169
 20
593.8470262345
 30
0.0
 11
496.1228974282
 21
644.9640260693
 31
0.0
  0
LINE
  5
331
330
1F
100
AcDbEntity
  8
0
  6
Continuous
 62
     7
370
    25
100
AcDbLine
 10
673.1973791169
 20
593.8470262345
 30
0.0
 11
668.3133788081
 21
589.617357895
 31
0.0
  0
LINE
  5
332
330
1F
100
AcDbEntity
  8
0
  6
Continuous
 62
     7
370
    25
100
AcDbLine
 10
541.1660955599
 20
626.321617
 30
0.0
 11
541.1660955599
 21
625.4070941302
 31
0.0
  0
LINE
  5
333
330
1F
100
AcDbEntity
  8
0
  6
Continuous
 62
     7
370
    25
100
AcDbLine
 10
668.3133788081
 20
589.617357895
 30
0.0
 11
668.3133788081
 21
588.7028350252
 31
0.0
  0
LINE
  5
334
330
1F
100
AcDbEntity
  8
0
  6
Continuous
 62
     7
370
    25
100
AcDbLine
 10
541.1660955599
 20
625.4070941302
 30
0.0
 11
668.3133788081
 21
588.7028350252
 31
0.0
  0
LINE
  5
335
330
1F
100
AcDbEntity
  8
0
  6
Continuous
 62
     7
370
    25
100
AcDbLine
 10
673.1973791169
 20
592.9325033647
 30
0.0
 11
673.1973791169
 21
593.8470262345
 31
0.0
  0
LINE
  5
336
330
1F
100
AcDbEntity
  8
0
  6
Continuous
 62
     7
370
    25
100
AcDbLine
 10
673.1973791169
 20
592.9325033647
 30
0.0
 11
668.3133788081
 21
588.7028350252
 31
0.0
  0
LINE
  5
337
330
1F
100
AcDbEntity
  8
0
  6
Continuous
 62
     7
370
    25
100
AcDbLine
 10
667.3988575352
 20
588.7382037262
 30
0.0
 11
668.3133788081
 21
588.4742041746
 31
0.0
  0
LINE
  5
338
330
1F
100
AcDbEntity
  8
0
  6
Continuous
 62
     7
370
    25
100
AcDbLine
 10
667.5968575062
 20
588.909676731
 30
0.0
 11
667.3988575352
 21
588.7382037262
 31
0.0
  0
LINE
  5
339
330
1F
100
AcDbEntity
  8
0
  6
Continuous
 62
     7
370
    25
100
AcDbLine
 10
673.3582033051
 20
593.1147079162
 30
0.0
 11
673.4389459585
 21
593.0913995198
 31
0.0
  0
ARC
  5
33A
330
1F
100
AcDbEntity
  8
0
  6
Continuous
 62
     7
370
    25
100
AcDbCircle
 10
672.784769869
 20
593.2301289282
 30
0.0
 40
0.668724311501266
100
AcDbArc
 50
308.0980791167
 51
348.0268192153
  0
LINE
  5
33B
330
1F
100
AcDbEntity
  8
0
  6
Continuous
 62
     7
370
    25
100
AcDbLine
 10
668.3133788081
 20
588.4742041746
 30
0.0
 11
673.1973791169
 21
592.7038725141
 31
0.0
  0
LINE
  5
33C
330
1F
100
AcDbEntity
  8
0
  6
Continuous
 62
     7
370
    25
100
AcDbLine
 10
667.3988575352
 20
539.5826012026
 30
0.0
 11
668.3133788081
 21
539.3186016511
 31
0.0
  0
LINE
  5
33D
330
1F
100
AcDbEntity
  8
0
  6
Continuous
 62
     7
370
    25
100
AcDbLine
 10
667.3988575352
 20
588.7382037262
 30
0.0
 11
667.3988575352
 21
539.5826012026
 31
0.0
  0
LINE
  5
33E
330
1F
100
AcDbEntity
  8
0
  6
Continuous
 62
     7
370
    25
100
AcDbLine
 10
668.3133788081
 20
588.4742041746
 30
0.0
 11
668.3133788081
 21
539.3186016511
 31
0.0
  0
LINE
  5
33F
330
1F
100
AcDbEntity
  8
0
  6
Continuous
 62
     7
370
    25
100
AcDbLine
 10
673.1973791169
 20
543.5482699906
 30
0.0
 11
673.1973791169
 21
592.7038725141
 31
0.0
  0
LINE
  5
340
330
1F
100
AcDbEntity
  8
0
  6
Continuous
 62
     7
370
    25
100
AcDbLine
 10
673.1973791169
 20
543.5482699906
 30
0.0
 11
668.3133788081
 21
539.3186016511
 31
0.0
  0
LWPOLYLINE
  5
341
330
1F
100
AcDbEntity
  8
0
  6
Continuous
 62
     7
370
    25
100
AcDbPolyline
 90
       17
 70
   128
 43
0.0
 10
669.6333790244
 20
565.0395571655
 10
669.608259187
 20
564.7990693671
 10
669.5367241697
 20
564.5516848003
 10
669.4296644395
 20
564.3350671343
 10
669.3033789703
 20
564.1821929399
 10
669.1770935012
 20
564.1163342855
 10
669.070033771
 20
564.1475190593
 10
668.9984987536
 20
564.2710013415
 10
668.9733789162
 20
564.4679803054
 10
668.9984987536
 20
564.7084681038
 10
669.070033771
 20
564.9558526706
 10
669.1770935012
 20
565.1724703366
 10
669.3033789703
 20
565.325344531
 10
669.4296644395
 20
565.3912031855
 10
669.5367241697
 20
565.3600184116
 10
669.608259187
 20
565.2365361294
 10
669.6333790244
 20
565.0395571655
  0
LINE
  5
342
330
1F
100
AcDbEntity
  8
0
  6
Continuous
 62
     7
370
    25
100
AcDbLine
 10
673.1973791169
 20
542.4051183995
 30
0.0
 11
673.1973791169
 21
543.3196396724
 31
0.0
  0
ARC
  5
343
330
1F
100
AcDbEntity
  8
0
  6
Continuous
 62
     7
370
    25
100
AcDbCircle
 10
672.784769869
 20
543.8458960865
 30
0.0
 40
0.66872431150223
100
AcDbArc
 50
308.0980791168
 51
348.0268192153
  0
LINE
  5
344
330
1F
100
AcDbEntity
  8
0
  6
Continuous
 62
     7
370
    25
100
AcDbLine
 10
673.4389459585
 20
543.7071666781
 30
0.0
 11
673.4389459585
 21
543.9357969963
 31
0.0
  0
ARC
  5
345
330
1F
100
AcDbEntity
  8
0
  6
Continuous
 62
     7
370
    25
100
AcDbCircle
 10
672.784769869
 20
544.0745264047
 30
0.0
 40
0.6687243115018257
100
AcDbArc
 50
308.0980791168
 51
348.0268192153
  0
LINE
  5
346
330
1F
100
AcDbEntity
  8
0
  6
Continuous
 62
     7
370
    25
100
AcDbLine
 10
673.4389459585
 20
593.0913995198
 30
0.0
 11
673.4389459585
 21
593.3200303704
 31
0.0
  0
ELLIPSE
  5
347
330
1F
100
AcDbEntity
  8
0
  6
Continuous
 62
     7
370
    25
100
AcDbEllipse
 10
671.5969637443
 20
592.7086112126
 30
0.0
 11
1.847041928739145
 21
1.389267113941173
 31
0.0
210
0.0
220
0.0
230
1.0
 40
0.0428275111
 41
5.727384617607191
 42
6.315387221154714
  0
ELLIPSE
  5
348
330
1F
100
AcDbEntity
  8
0
  6
Continuous
 62
     7
370
    25
100
AcDbEllipse
 10
671.5969637443
 20
544.4675321202
 30
0.0
 11
-1.569835805762978
 21
2.087109473320879
 31
0.0
210
0.0
220
0.0
230
1.0
 40
0.4671764921
 41
3.17379456756432
 42
3.6973933431626
  0
ARC
  5
349
330
1F
100
AcDbEntity
  8
0
  6
Continuous
 62
     7
370
    25
100
AcDbCircle
 10
672.784769869
 20
593.4587597788
 30
0.0
 40
0.6687243115020447
100
AcDbArc
 50
308.0980791168
 51
348.0268192153
  0
ELLIPSE
  5
34A
330
1F
100
AcDbEntity
  8
0
  6
Continuous
 62
     7
370
    25
100
AcDbEllipse
 10
497.7233113757
 20
642.9016112126
 30
0.0
 11
-1.569835805762978
 21
2.087109473320993
 31
0.0
210
0.0
220
0.0
230
1.0
 40
0.4671764921
 41
5.727384617606569
 42
6.315387221154179
  0
LINE
  5
34B
330
1F
100
AcDbEntity
  8
0
  6
Continuous
 62
     7
370
    25
100
AcDbLine
 10
673.4389459585
 20
543.7071666781
 30
0.0
 11
673.3582033051
 21
543.7304750744
 31
0.0
  0
LINE
  5
34C
330
1F
100
AcDbEntity
  8
0
  6
Continuous
 62
     7
370
    25
100
AcDbLine
 10
668.3133788081
 20
539.0899713329
 30
0.0
 11
673.1973791169
 21
543.3196396724
 31
0.0
  0
LINE
  5
34D
330
1F
100
AcDbEntity
  8
0
  6
Continuous
 62
     7
370
    25
100
AcDbLine
 10
668.3133788081
 20
539.0899713329
 30
0.0
 11
661.7133823334
 21
540.9952262035
 31
0.0
  0
LINE
  5
34E
330
1F
100
AcDbEntity
  8
0
  6
Continuous
 62
     7
370
    25
100
AcDbLine
 10
668.3133788081
 20
538.17545006
 30
0.0
 11
661.7133823334
 21
540.0807049307
 31
0.0
  0
LINE
  5
34F
330
1F
100
AcDbEntity
  8
0
  6
Continuous
 62
     7
370
    25
100
AcDbLine
 10
668.3133788081
 20
539.0899713329
 30
0.0
 11
668.3133788081
 21
538.17545006
 31
0.0
  0
LINE
  5
350
330
1F
100
AcDbEntity
  8
0
  6
Continuous
 62
     7
370
    25
100
AcDbLine
 10
673.1973791169
 20
542.4051183995
 30
0.0
 11
668.3133788081
 21
538.17545006
 31
0.0
  0
LINE
  5
351
330
1F
100
AcDbEntity
  8
0
  6
Continuous
 62
     7
370
    25
100
AcDbLine
 10
515.5023615037
 20
633.6285919318
 30
0.0
 11
515.5023615037
 21
633.7300988829
 31
0.0
  0
ARC
  5
352
330
1F
100
AcDbEntity
  8
0
  6
Continuous
 62
     7
370
    25
100
AcDbCircle
 10
536.3177441735
 20
625.7984777827
 30
0.0
 40
4.901319208102246
100
AcDbArc
 50
7.3431629914
 51
33.0925113626
  0
LINE
  5
353
330
1F
100
AcDbEntity
  8
0
  6
Continuous
 62
     7
370
    25
100
AcDbLine
 10
491.2388971194
 20
639.8198348599
 30
0.0
 11
491.2388971194
 21
640.7343577298
 31
0.0
  0
LINE
  5
354
330
1F
100
AcDbEntity
  8
0
  6
Continuous
 62
     7
370
    25
100
AcDbLine
 10
491.2388971194
 20
639.8198348599
 30
0.0
 11
514.6705397012
 21
633.0557022839
 31
0.0
  0
LINE
  5
355
330
1F
100
AcDbEntity
  8
0
  6
Continuous
 62
     7
370
    25
100
AcDbLine
 10
492.1534183923
 20
632.8493344404
 30
0.0
 11
492.1534183923
 21
639.3272044579
 31
0.0
  0
LINE
  5
356
330
1F
100
AcDbEntity
  8
0
  6
Continuous
 62
     7
370
    25
100
AcDbLine
 10
492.1534183923
 20
639.3272044579
 30
0.0
 11
492.3514183633
 21
639.4986774627
 31
0.0
  0
LINE
  5
357
330
1F
100
AcDbEntity
  8
0
  6
Continuous
 62
     7
370
    25
100
AcDbLine
 10
491.2388971194
 20
633.1133339919
 30
0.0
 11
491.2388971194
 21
639.5912040094
 31
0.0
  0
LINE
  5
358
330
1F
100
AcDbEntity
  8
0
  6
Continuous
 62
     7
370
    25
100
AcDbLine
 10
491.2388971194
 20
639.5912040094
 30
0.0
 11
492.1534183923
 21
639.3272044579
 31
0.0
  0
LINE
  5
359
330
1F
100
AcDbEntity
  8
0
  6
Continuous
 62
     7
370
    25
100
AcDbLine
 10
491.2388971194
 20
639.5912040094
 30
0.0
 11
491.4368970904
 21
639.7626770142
 31
0.0
  0
LINE
  5
35A
330
1F
100
AcDbEntity
  8
0
  6
Continuous
 62
     7
370
    25
100
AcDbLine
 10
509.7332919398
 20
628.7799208643
 30
0.0
 11
515.185786617
 21
633.5019197687
 31
0.0
  0
LWPOLYLINE
  5
35B
330
1F
100
AcDbEntity
  8
0
  6
Continuous
 62
     7
370
    25
100
AcDbPolyline
 90
       20
 70
   128
 43
0.0
 10
515.185786617
 20
633.5019197687
 10
516.7164205093
 20
634.0564179463
 10
518.3705863864
 20
634.5137048531
 10
520.1237183599
 20
634.8669887285
 10
521.9497796548
 20
635.1110234915
 10
523.8216494404
 20
635.2421837391
 10
525.7115284905
 20
635.2585222448
 10
527.5913490104
 20
635.1597967978
 10
529.4331911378
 20
634.9474720493
 10
531.2097019749
 20
634.624702883
 10
532.8944971182
 20
634.1962823823
 10
534.4625543249
 20
633.6685736137
 10
535.8905850116
 20
633.0494130306
 10
537.157382075
 20
632.3479972901
 10
538.2441292306
 20
631.5747428521
 10
539.1346884637
 20
630.7411341523
 10
539.8158332424
 20
629.859551234
 10
540.2774461127
 20
628.9430874349
 10
540.5126727906
 20
628.0053533691
 10
540.5180197948
 20
627.0602762714
  0
LINE
  5
35C
330
1F
100
AcDbEntity
  8
0
  6
Continuous
 62
     7
370
    25
100
AcDbLine
 10
533.5566623502
 20
621.0315638797
 30
0.0
 11
540.5180197948
 21
627.0602762714
 31
0.0
  0
LWPOLYLINE
  5
35D
330
1F
100
AcDbEntity
  8
0
  6
Continuous
 62
     7
370
    25
100
AcDbPolyline
 90
       20
 70
   128
 43
0.0
 10
533.5566623502
 20
621.0315638797
 10
531.917067298
 20
620.5613406516
 10
530.1752509131
 20
620.194329758
 10
528.3570826145
 20
619.9359820946
 10
526.4895638197
 20
619.7901349765
 10
524.6004315813
 20
619.7589540863
 10
522.7177420298
 20
619.8429021895
 10
520.8694557984
 20
620.0407335383
 10
519.0830228669
 20
620.3495086728
 10
517.3849758647
 20
620.7646429763
 10
515.800532219
 20
621.2799704232
 10
514.3532242053
 20
621.8878375975
 10
513.0645458895
 20
622.5792162593
 10
511.9536381394
 20
623.3438396982
 10
511.0369977363
 20
624.1703505848
 10
510.3282390562
 20
625.046474102
 10
509.837889017
 20
625.9591992186
 10
509.5732286521
 20
626.894969569
 10
509.5381898697
 20
627.8398878582
 10
509.7332919398
 20
628.7799208643
  0
LWPOLYLINE
  5
35E
330
1F
100
AcDbEntity
  8
0
  6
Continuous
 62
     7
370
    25
100
AcDbPolyline
 90
       42
 70
   128
 43
0.0
 10
519.985228577
 20
623.1383578941
 10
518.7094635933
 20
623.5749655797
 10
517.5819460176
 20
624.1038288138
 10
516.6291033596
 20
624.7125511524
 10
515.873269907
 20
625.386865072
 10
515.3321614039
 20
626.1109649608
 10
515.0184611933
 20
626.8678785554
 10
514.9395221245
 20
627.639864756
 10
515.0971943426
 20
628.4088283349
 10
515.4877821747
 20
629.1567459083
 10
516.1021306741
 20
629.86608664
 10
516.9258401357
 20
630.520224216
 10
517.9396035774
 20
631.1038262307
 10
519.1196581668
 20
631.6032137856
 10
520.4383461189
 20
632.0066812792
 10
521.8647571591
 20
632.3047718905
 10
523.3654579893
 20
632.4904987142
 10
524.9052734389
 20
632.5595083891
 10
526.448111584
 20
632.510183593
 10
527.9578095056
 20
632.3436803146
 10
529.3989809093
 20
632.063901064
 10
530.7378464002
 20
631.6774038882
 10
531.943023979
 20
631.1932479901
 10
532.9862651608
 20
630.6227812292
 10
533.8431176688
 20
629.979375003
 10
534.4934963985
 20
629.2781107286
 10
534.922159051
 20
628.5354246419
 10
535.119056487
 20
627.7687252377
 10
535.0795737327
 20
626.9959830115
 10
534.804636942
 20
626.2353104542
 10
534.3006897896
 20
625.5045371536
 10
533.579545536
 20
624.8207915524
 10
532.6581050662
 20
624.2001006366
 10
531.5579677451
 20
623.6570123574
 10
530.3049203987
 20
623.204256341
 10
528.9283310099
 20
622.8524450139
 10
527.4604689002
 20
622.6098241619
 10
525.9357367184
 20
622.4820811108
 10
524.3898736572
 20
622.4722097422
 10
522.8591142767
 20
622.5804415563
 10
521.3793378965
 20
622.8042392559
 10
519.985228577
 20
623.1383578941
  0
LINE
  5
35F
330
1F
100
AcDbEntity
  8
0
  6
Continuous
 62
     7
370
    25
100
AcDbLine
 10
533.5566623502
 20
620.2925120216
 30
0.0
 11
533.5566623502
 21
621.0315638797
 31
0.0
  0
SPLINE
  5
360
330
1F
100
AcDbEntity
  8
0
  6
Continuous
 62
     7
370
    25
100
AcDbSpline
210
0.0
220
0.0
230
1.0
 70
     8
 71
     3
 72
    15
 73
    11
 74
     0
 42
0.000000001
 43
0.00000001
 40
0.0
 40
0.0
 40
0.0
 40
0.0
 40
0.0318738329877839
 40
0.1748157000088199
 40
0.3219091162769032
 40
0.4647631288144675
 40
0.6117424303469408
 40
0.7549269994505488
 40
0.9022282287935791
 40
0.9999999999999999
 40
0.9999999999999999
 40
0.9999999999999999
 40
0.9999999999999999
 10
533.0960265778237
 20
624.4835191803224
 30
0.0
 10
533.1656200629703
 20
624.5274132610165
 30
0.0
 10
533.5473135300421
 20
624.7681553909543
 30
0.0
 10
534.0487625281586
 20
625.2627580859821
 30
0.0
 10
534.5581828880935
 20
625.9401892572548
 30
0.0
 10
534.8095698548818
 20
626.6385514619236
 30
0.0
 10
534.8147935216999
 20
627.3201701494996
 30
0.0
 10
534.5637776935332
 20
627.9778161271995
 30
0.0
 10
534.1353307206222
 20
628.5224207714666
 30
0.0
 10
533.7345900730254
 20
628.8265066270114
 30
0.0
 10
533.5747147590492
 20
628.9478215520696
 30
0.0
  0
ARC
  5
361
330
1F
100
AcDbEntity
  8
0
  6
Continuous
 62
     7
370
    25
100
AcDbCircle
 10
525.6293669277
 20
618.9346789505
 30
0.0
 40
12.78247147150428
100
AcDbArc
 50
51.568283588
 51
96.227488908
  0
SPLINE
  5
362
330
1F
100
AcDbEntity
  8
0
  6
Continuous
 62
     7
370
    25
100
AcDbSpline
210
0.0
220
0.0
230
1.0
 70
     8
 71
     3
 72
    19
 73
    15
 74
     0
 42
0.000000001
 43
0.00000001
 40
0.0
 40
0.0
 40
0.0
 40
0.0
 40
0.1487767463328785
 40
0.2289993180680218
 40
0.3092201779085176
 40
0.3890518547231226
 40
0.4688827373529818
 40
0.5484392829367081
 40
0.6279961768187097
 40
0.7074968775134989
 40
0.7869989308479951
 40
0.866678339030937
 40
0.9463597017569212
 40
0.9999999999999999
 40
0.9999999999999999
 40
0.9999999999999999
 40
0.9999999999999999
 10
516.493742185892
 20
624.9308651693818
 30
0.0
 10
516.0915755253233
 20
625.4234388680447
 30
0.0
 10
515.4725547892879
 20
626.1816154236715
 30
0.0
 10
515.23969402257
 20
627.2529438497608
 30
0.0
 10
515.2881480505276
 20
628.0689485275566
 30
0.0
 10
515.5998962919001
 20
628.8483547655709
 30
0.0
 10
516.147235596121
 20
629.5690911835519
 30
0.0
 10
516.9258512919315
 20
630.2097627431413
 30
0.0
 10
517.9030100034025
 20
630.7558492513001
 30
0.0
 10
519.0595180366598
 20
631.1881844215142
 30
0.0
 10
520.3566028483127
 20
631.5002003661274
 30
0.0
 10
521.7629137174274
 20
631.674871920386
 30
0.0
 10
523.075515478438
 20
631.7168374569364
 30
0.0
 10
523.9078801257157
 20
631.6632726336792
 30
0.0
 10
524.2427716024828
 20
631.6417214988224
 30
0.0
  0
LINE
  5
363
330
1F
100
AcDbEntity
  8
0
  6
Continuous
 62
     7
370
    25
100
AcDbLine
 10
517.072355912
 20
624.4053530015
 30
0.0
 11
516.4937421859
 21
624.9308651694
 31
0.0
  0
LINE
  5
364
330
1F
100
AcDbEntity
  8
0
  6
Continuous
 62
     7
370
    25
100
AcDbLine
 10
540.5180197948
 20
627.0602762714
 30
0.0
 11
540.5180197948
 21
625.1169153727
 31
0.0
  0
LINE
  5
365
330
1F
100
AcDbEntity
  8
0
  6
Continuous
 62
     7
370
    25
100
AcDbLine
 10
533.574714759
 20
628.9478215521
 30
0.0
 11
533.574714759
 21
624.8620857223
 31
0.0
  0
LINE
  5
366
330
1F
100
AcDbEntity
  8
0
  6
Continuous
 62
     7
370
    25
100
AcDbLine
 10
524.2427716025
 20
631.6417214988
 30
0.0
 11
524.2427716025
 21
622.4774521625
 31
0.0
  0
LINE
  5
367
330
1F
100
AcDbEntity
  8
0
  6
Continuous
 62
     7
370
    25
100
AcDbLine
 10
646.391358229
 20
595.031177089
 30
0.0
 11
640.5833582605
 21
590.001301571
 31
0.0
  0
LINE
  5
368
330
1F
100
AcDbEntity
  8
0
  6
Continuous
 62
     7
370
    25
100
AcDbLine
 10
541.166094876
 20
625.6074269222
 30
0.0
 11
535.1846016376
 21
620.4273018253
 31
0.0
  0
ARC
  5
369
330
1F
100
AcDbEntity
  8
0
  6
Continuous
 62
     7
370
    25
100
AcDbCircle
 10
545.4181020787
 20
614.6561738627
 30
0.0
 40
9.987811624116503
100
AcDbArc
 50
97.5351542983
 51
126.9656471546
  0
LINE
  5
36A
330
1F
100
AcDbEntity
  8
0
  6
Continuous
 62
     7
370
    25
100
AcDbLine
 10
539.4120706198
 20
622.6363973654
 30
0.0
 11
538.0920705571
 21
621.4932437781
 31
0.0
  0
ARC
  5
36B
330
1F
100
AcDbEntity
  8
0
  6
Continuous
 62
     7
370
    25
100
AcDbCircle
 10
540.0076434965
 20
619.0354240415
 30
0.0
 40
3.116135032915742
100
AcDbArc
 50
127.9321002655
 51
163.9052081286
  0
ARC
  5
36C
330
1F
100
AcDbEntity
  8
0
  6
Continuous
 62
     7
370
    25
100
AcDbCircle
 10
565.1946386598
 20
618.2914884828
 30
0.0
 40
7.77988568675823
100
AcDbArc
 50
290.1825360483
 51
309.0919073481
  0
LINE
  5
36D
330
1F
100
AcDbEntity
  8
0
  6
Continuous
 62
     7
370
    25
100
AcDbLine
 10
570.1003715336
 20
612.2532431855
 30
0.0
 11
571.4203715963
 21
613.3963967728
 31
0.0
  0
ARC
  5
36E
330
1F
100
AcDbEntity
  8
0
  6
Continuous
 62
     7
370
    25
100
AcDbCircle
 10
569.9860137354
 20
615.5231132429
 30
0.0
 40
2.565210598975684
100
AcDbArc
 50
303.9975833089
 51
19.7660667822
  0
ARC
  5
36F
330
1F
100
AcDbEntity
  8
0
  6
Continuous
 62
     7
370
    25
100
AcDbCircle
 10
579.7126946829
 20
604.7562187423
 30
0.0
 40
9.987765696640704
100
AcDbArc
 50
97.5351161274
 51
126.9657319099
  0
LINE
  5
370
330
1F
100
AcDbEntity
  8
0
  6
Continuous
 62
     7
370
    25
100
AcDbLine
 10
573.706679037
 20
612.7363966646
 30
0.0
 11
572.3866789743
 21
611.5932430773
 31
0.0
  0
ARC
  5
371
330
1F
100
AcDbEntity
  8
0
  6
Continuous
 62
     7
370
    25
100
AcDbCircle
 10
574.3022627168
 20
609.1354095326
 30
0.0
 40
3.116152564974191
100
AcDbArc
 50
127.932100864
 51
163.905019251
  0
ARC
  5
372
330
1F
100
AcDbEntity
  8
0
  6
Continuous
 62
     7
370
    25
100
AcDbCircle
 10
599.4893680665
 20
608.3912673043
 30
0.0
 40
7.779633725057389
100
AcDbArc
 50
290.182227026
 51
309.0922163705
  0
LINE
  5
373
330
1F
100
AcDbEntity
  8
0
  6
Continuous
 62
     7
370
    25
100
AcDbLine
 10
604.3949746276
 20
602.3532440215
 30
0.0
 11
605.7149746903
 21
603.4963976088
 31
0.0
  0
ARC
  5
374
330
1F
100
AcDbEntity
  8
0
  6
Continuous
 62
     7
370
    25
100
AcDbCircle
 10
604.2806207573
 20
605.6231158709
 30
0.0
 40
2.565209888431738
100
AcDbArc
 50
303.9974881926
 51
19.7660007746
  0
ARC
  5
375
330
1F
100
AcDbEntity
  8
0
  6
Continuous
 62
     7
370
    25
100
AcDbCircle
 10
614.0073172437
 20
594.8561811758
 30
0.0
 40
9.987804543018072
100
AcDbArc
 50
97.5351746533
 51
126.965673384
  0
LINE
  5
376
330
1F
100
AcDbEntity
  8
0
  6
Continuous
 62
     7
370
    25
100
AcDbLine
 10
608.0012863896
 20
602.8363962712
 30
0.0
 11
606.6812863269
 21
601.693242684
 31
0.0
  0
ARC
  5
377
330
1F
100
AcDbEntity
  8
0
  6
Continuous
 62
     7
370
    25
100
AcDbCircle
 10
608.5970074212
 20
599.235307544
 30
0.0
 40
3.116317131408959
100
AcDbArc
 50
127.9329444291
 51
163.9039246475
  0
ARC
  5
378
330
1F
100
AcDbEntity
  8
0
  6
Continuous
 62
     7
370
    25
100
AcDbCircle
 10
633.7839754191
 20
598.4912669109
 30
0.0
 40
7.779633725069483
100
AcDbArc
 50
290.182227026
 51
309.0922163704
  0
LINE
  5
379
330
1F
100
AcDbEntity
  8
0
  6
Continuous
 62
     7
370
    25
100
AcDbLine
 10
638.6895819802
 20
592.4532436281
 30
0.0
 11
640.0095820429
 21
593.5963972154
 31
0.0
  0
ARC
  5
37A
330
1F
100
AcDbEntity
  8
0
  6
Continuous
 62
     7
370
    25
100
AcDbCircle
 10
638.5752281099
 20
595.7231154775
 30
0.0
 40
2.565209888432814
100
AcDbArc
 50
303.9974881926
 51
19.7660007746
  0
LINE
  5
37B
330
1F
100
AcDbEntity
  8
0
  6
Continuous
 62
     7
370
    25
100
AcDbLine
 10
646.8533583662
 20
594.8978093146
 30
0.0
 11
646.8533583662
 21
588.1913084466
 31
0.0
  0
ARC
  5
37C
330
1F
100
AcDbEntity
  8
0
  6
Continuous
 62
     7
370
    25
100
AcDbCircle
 10
665.8774676579
 20
542.5109654846
 30
0.0
 40
1.667564959952957
100
AcDbArc
 50
248.1977424829
 51
335.8308120265
  0
LINE
  5
37D
330
1F
100
AcDbEntity
  8
0
  6
Continuous
 62
     7
370
    25
100
AcDbLine
 10
665.2581266634
 20
540.9626794554
 30
0.0
 11
662.4034905934
 21
541.7867419071
 31
0.0
  0
LINE
  5
37E
330
1F
100
AcDbEntity
  8
0
  6
Continuous
 62
     7
370
    25
100
AcDbLine
 10
493.3278377811
 20
637.0685291182
 30
0.0
 11
493.3278377811
 21
637.4639743545
 31
0.0
  0
ARC
  5
37F
330
1F
100
AcDbEntity
  8
0
  6
Continuous
 62
     7
370
    25
100
AcDbCircle
 10
494.9920634903
 20
637.5450161911
 30
0.0
 40
1.666197764512287
100
AcDbArc
 50
120.5068614647
 51
182.7878971355
  0
ARC
  5
380
330
1F
100
AcDbEntity
  8
0
  6
Continuous
 62
     7
370
    25
100
AcDbCircle
 10
664.2335725543
 20
586.9255781255
 30
0.0
 40
3.348101069744734
100
AcDbArc
 50
19.0215244521
 51
41.8887523697
  0
LWPOLYLINE
  5
381
330
1F
100
AcDbEntity
  8
0
  6
Continuous
 62
     7
370
    25
100
AcDbPolyline
 90
       11
 70
   128
 43
0.0
 10
667.398854589
 20
561.0502040776
 10
666.7710719417
 20
561.7056178048
 10
666.1314248938
 20
562.6006670779
 10
665.6534505303
 20
563.5665119745
 10
665.3580499556
 20
564.5609358509
 10
665.2581266634
 20
565.5404812495
 10
665.3580499556
 20
566.4623359085
 10
665.6534505303
 20
567.2862101836
 10
666.1314248938
 20
567.9760964527
 10
666.7710719417
 20
568.5018453305
 10
667.398854589
 20
568.7948085773
  0
ARC
  5
382
330
1F
100
AcDbEntity
  8
0
  6
Continuous
 62
     7
370
    25
100
AcDbCircle
 10
670.9791462996
 20
565.823037992
 30
0.0
 40
5.011919747988108
100
AcDbArc
 50
148.0768633038
 51
224.4096979634
  0
LINE
  5
383
330
1F
100
AcDbEntity
  8
0
  6
Continuous
 62
     7
370
    25
100
AcDbLine
 10
535.1233410968
 20
620.444986575
 30
0.0
 11
541.166095556
 21
625.6781654455
 31
0.0
  0
LINE
  5
384
330
1F
100
AcDbEntity
  8
0
  6
Continuous
 62
     7
370
    25
100
AcDbLine
 10
508.9023624279
 20
627.1022141712
 30
0.0
 11
509.5264685584
 21
627.6427059349
 31
0.0
  0
LINE
  5
385
330
1F
100
AcDbEntity
  8
0
  6
Continuous
 62
     7
370
    25
100
AcDbLine
 10
509.524228164
 20
626.6555054246
 30
0.0
 11
509.0439138478
 21
626.239541025
 31
0.0
  0
LINE
  5
386
330
1F
100
AcDbEntity
  8
0
  6
Continuous
 62
     7
370
    25
100
AcDbLine
 10
513.5569176404
 20
633.3771771047
 30
0.0
 11
507.7489176719
 21
628.3473015868
 31
0.0
  0
ARC
  5
387
330
1F
100
AcDbEntity
  8
0
  6
Continuous
 62
     7
370
    25
100
AcDbCircle
 10
494.9903029659
 20
635.764961532
 30
0.0
 40
2.095428974777704
100
AcDbArc
 50
68.6153585066
 51
182.2349759193
  0
LINE
  5
388
330
1F
100
AcDbEntity
  8
0
  6
Continuous
 62
     7
370
    25
100
AcDbLine
 10
495.7543533567
 20
637.7161277445
 30
0.0
 11
509.7579837697
 21
633.6736278502
 31
0.0
  0
ARC
  5
389
330
1F
100
AcDbEntity
  8
0
  6
Continuous
 62
     7
370
    25
100
AcDbCircle
 10
508.5290697257
 20
629.7687533604
 30
0.0
 40
4.093687153203332
100
AcDbArc
 50
32.9774057179
 51
72.5305430672
  0
LINE
  5
38A
330
1F
100
AcDbEntity
  8
0
  6
Continuous
 62
     7
370
    25
100
AcDbLine
 10
646.9364035983
 20
588.1673353531
 30
0.0
 11
646.9364035983
 21
591.215745274
 31
0.0
  0
ARC
  5
38B
330
1F
100
AcDbEntity
  8
0
  6
Continuous
 62
     7
370
    25
100
AcDbCircle
 10
649.0302414646
 20
591.2974587432
 30
0.0
 40
2.095431722007649
100
AcDbArc
 50
68.6153477792
 51
182.2348732626
  0
LINE
  5
38C
330
1F
100
AcDbEntity
  8
0
  6
Continuous
 62
     7
370
    25
100
AcDbLine
 10
649.7942932225
 20
593.2486273707
 30
0.0
 11
663.7979225708
 21
589.2061277838
 31
0.0
  0
ARC
  5
38D
330
1F
100
AcDbEntity
  8
0
  6
Continuous
 62
     7
370
    25
100
AcDbCircle
 10
662.5950792453
 20
585.3224477905
 30
0.0
 40
4.065685963824766
100
AcDbArc
 50
2.8308884724
 51
72.7913364227
  0
LINE
  5
38E
330
1F
100
AcDbEntity
  8
0
  6
Continuous
 62
     7
370
    25
100
AcDbLine
 10
666.6558036778
 20
585.523244802
 30
0.0
 11
666.6558036778
 21
571.0405764454
 31
0.0
  0
ARC
  5
38F
330
1F
100
AcDbEntity
  8
0
  6
Continuous
 62
     7
370
    25
100
AcDbCircle
 10
664.9008489223
 20
570.984869573
 30
0.0
 40
1.755838674027979
100
AcDbArc
 50
316.4996575075
 51
1.8181080262
  0
ARC
  5
390
330
1F
100
AcDbEntity
  8
0
  6
Continuous
 62
     7
370
    25
100
AcDbCircle
 10
672.880797016
 20
564.5138497485
 30
0.0
 40
8.524507363376284
100
AcDbArc
 50
141.8791074613
 51
218.1208925387
  0
ARC
  5
391
330
1F
100
AcDbEntity
  8
0
  6
Continuous
 62
     7
370
    25
100
AcDbCircle
 10
663.7334157452
 20
557.6434103924
 30
0.0
 40
2.923129045755822
100
AcDbArc
 50
1.2902238807
 51
33.3751280271
  0
LINE
  5
392
330
1F
100
AcDbEntity
  8
0
  6
Continuous
 62
     7
370
    25
100
AcDbLine
 10
666.6558036778
 20
557.7092297633
 30
0.0
 11
666.6558036778
 21
546.0844467723
 31
0.0
  0
ARC
  5
393
330
1F
100
AcDbEntity
  8
0
  6
Continuous
 62
     7
370
    25
100
AcDbCircle
 10
662.5457009865
 20
545.8782195584
 30
0.0
 40
4.115273234736147
100
AcDbArc
 50
258.3313701797
 51
2.8724459893
  0
LINE
  5
394
330
1F
100
AcDbEntity
  8
0
  6
Continuous
 62
     7
370
    25
100
AcDbLine
 10
492.8964679911
 20
632.6348344974
 30
0.0
 11
492.8964679911
 21
635.6832444184
 31
0.0
  0
LINE
  5
395
330
1F
100
AcDbEntity
  8
0
  6
Continuous
 62
     7
370
    25
100
AcDbLine
 10
663.7979225708
 20
589.2061277838
 30
0.0
 11
664.4579226789
 21
589.777704644
 31
0.0
  0
ARC
  5
396
330
1F
100
AcDbEntity
  8
0
  6
Continuous
 62
     7
370
    25
100
AcDbCircle
 10
663.2550793535
 20
585.8940246506
 30
0.0
 40
4.065685963824447
100
AcDbArc
 50
2.8308884724
 51
72.7913364227
  0
LINE
  5
397
330
1F
100
AcDbEntity
  8
0
  6
Continuous
 62
     7
370
    25
100
AcDbLine
 10
667.3158037859
 20
586.0948216622
 30
0.0
 11
666.6558036778
 21
585.523244802
 31
0.0
  0
LINE
  5
398
330
1F
100
AcDbEntity
  8
0
  6
Continuous
 62
     7
370
    25
100
AcDbLine
 10
650.4542933306
 20
593.8202042309
 30
0.0
 11
649.7942932225
 21
593.2486273707
 31
0.0
  0
LINE
  5
399
330
1F
100
AcDbEntity
  8
0
  6
Continuous
 62
     7
370
    25
100
AcDbLine
 10
650.4542933306
 20
593.8202042309
 30
0.0
 11
664.4579226789
 21
589.777704644
 31
0.0
  0
LINE
  5
39A
330
1F
100
AcDbEntity
  8
0
  6
Continuous
 62
     7
370
    25
100
AcDbLine
 10
666.6558036778
 20
571.0405764454
 30
0.0
 11
667.3158037859
 21
571.6121533056
 31
0.0
  0
LINE
  5
39B
330
1F
100
AcDbEntity
  8
0
  6
Continuous
 62
     7
370
    25
100
AcDbLine
 10
667.3158037859
 20
586.0948216622
 30
0.0
 11
667.3158037859
 21
571.6121533056
 31
0.0
  0
ARC
  5
39C
330
1F
100
AcDbEntity
  8
0
  6
Continuous
 62
     7
370
    25
100
AcDbCircle
 10
649.7046810402
 20
591.6729224785
 30
0.0
 40
2.274365298330741
100
AcDbArc
 50
70.7559950269
 51
128.3367249871
  0
LINE
  5
39D
330
1F
100
AcDbEntity
  8
0
  6
Continuous
 62
     7
370
    25
100
AcDbLine
 10
666.8344821795
 20
570.3477992344
 30
0.0
 11
666.1744820713
 21
569.7762223742
 31
0.0
  0
ARC
  5
39E
330
1F
100
AcDbEntity
  8
0
  6
Continuous
 62
     7
370
    25
100
AcDbCircle
 10
665.5608490305
 20
571.5564464332
 30
0.0
 40
1.755838674028476
100
AcDbArc
 50
316.4996575075
 51
1.8181080262
  0
LINE
  5
39F
330
1F
100
AcDbEntity
  8
0
  6
Continuous
 62
     7
370
    25
100
AcDbLine
 10
666.1744820713
 20
559.2514771229
 30
0.0
 11
666.8344821795
 21
559.8230539831
 31
0.0
  0
ARC
  5
3A0
330
1F
100
AcDbEntity
  8
0
  6
Continuous
 62
     7
370
    25
100
AcDbCircle
 10
673.5407971241
 20
565.0854266087
 30
0.0
 40
8.524507363376284
100
AcDbArc
 50
141.8791074613
 51
218.1208925387
  0
LINE
  5
3A1
330
1F
100
AcDbEntity
  8
0
  6
Continuous
 62
     7
370
    25
100
AcDbLine
 10
667.3158037859
 20
558.2808066235
 30
0.0
 11
666.6558036778
 21
557.7092297633
 31
0.0
  0
ARC
  5
3A2
330
1F
100
AcDbEntity
  8
0
  6
Continuous
 62
     7
370
    25
100
AcDbCircle
 10
664.3934158534
 20
558.2149872526
 30
0.0
 40
2.923129045755128
100
AcDbArc
 50
1.2902238807
 51
33.3751280271
  0
LINE
  5
3A3
330
1F
100
AcDbEntity
  8
0
  6
Continuous
 62
     7
370
    25
100
AcDbLine
 10
666.6558036778
 20
546.0844467723
 30
0.0
 11
667.3158037859
 21
546.6560236325
 31
0.0
  0
LINE
  5
3A4
330
1F
100
AcDbEntity
  8
0
  6
Continuous
 62
     7
370
    25
100
AcDbLine
 10
667.3158037859
 20
558.2808066235
 30
0.0
 11
667.3158037859
 21
546.6560236325
 31
0.0
  0
ARC
  5
3A5
330
1F
100
AcDbEntity
  8
0
  6
Continuous
 62
     7
370
    25
100
AcDbCircle
 10
663.0253674878
 20
546.4875356373
 30
0.0
 40
4.293743335730912
100
AcDbArc
 50
312.401881703
 51
2.2488838863
  0
LINE
  5
3A6
330
1F
100
AcDbEntity
  8
0
  6
Continuous
 62
     7
370
    25
100
AcDbLine
 10
509.7579837697
 20
633.6736278502
 30
0.0
 11
510.4179838778
 21
634.2452047104
 31
0.0
  0
ARC
  5
3A7
330
1F
100
AcDbEntity
  8
0
  6
Continuous
 62
     7
370
    25
100
AcDbCircle
 10
509.171247658
 20
630.316889495
 30
0.0
 40
4.12140893787471
100
AcDbArc
 50
33.1159158396
 51
72.3920329455
  0
LINE
  5
3A8
330
1F
100
AcDbEntity
  8
0
  6
Continuous
 62
     7
370
    25
100
AcDbLine
 10
496.4143534649
 20
638.2877046047
 30
0.0
 11
495.7543533567
 21
637.7161277445
 31
0.0
  0
LINE
  5
3A9
330
1F
100
AcDbEntity
  8
0
  6
Continuous
 62
     7
370
    25
100
AcDbLine
 10
496.4143534649
 20
638.2877046047
 30
0.0
 11
510.4179838778
 21
634.2452047104
 31
0.0
  0
ARC
  5
3AA
330
1F
100
AcDbEntity
  8
0
  6
Continuous
 62
     7
370
    25
100
AcDbCircle
 10
495.6647425701
 20
636.1404258398
 30
0.0
 40
2.274362017703961
100
AcDbArc
 50
70.7560034143
 51
128.3367667788
  0
LINE
  5
3AB
330
1F
100
AcDbEntity
  8
0
  6
Continuous
 62
     8
370
    25
100
AcDbLine
 10
636.7877729859
 20
591.3176175609
 30
0.0
 11
636.8523840204
 21
597.7848424623
 31
0.0
  0
LINE
  5
3AC
330
1F
100
AcDbEntity
  8
0
  6
Continuous
 62
     8
370
    25
100
AcDbLine
 10
606.7145373099
 20
599.7783882837
 30
0.0
 11
606.6812863269
 21
601.693242684
 31
0.0
  0
LINE
  5
3AD
330
1F
100
AcDbEntity
  8
0
  6
Continuous
 62
     8
370
    25
100
AcDbLine
 10
619.6382715467
 20
596.0476272972
 30
0.0
 11
619.7050803441
 21
602.734842659
 31
0.0
  0
LINE
  5
3AE
330
1F
100
AcDbEntity
  8
0
  6
Continuous
 62
     8
370
    25
100
AcDbLine
 10
608.0611449728
 20
599.3896564902
 30
0.0
 11
608.0012863896
 21
602.8363962712
 31
0.0
  0
LINE
  5
3AF
330
1F
100
AcDbEntity
  8
0
  6
Continuous
 62
     8
370
    25
100
AcDbLine
 10
602.4931656333
 20
601.2176179543
 30
0.0
 11
602.5577766678
 21
607.6848428557
 31
0.0
  0
LINE
  5
3B0
330
1F
100
AcDbEntity
  8
0
  6
Continuous
 62
     8
370
    25
100
AcDbLine
 10
572.4199342159
 20
609.6783874477
 30
0.0
 11
572.3866789743
 21
611.5932430773
 31
0.0
  0
LINE
  5
3B1
330
1F
100
AcDbEntity
  8
0
  6
Continuous
 62
     8
370
    25
100
AcDbLine
 10
585.3436641941
 20
605.9476276906
 30
0.0
 11
585.4104729915
 21
612.6348430524
 31
0.0
  0
LINE
  5
3B2
330
1F
100
AcDbEntity
  8
0
  6
Continuous
 62
     8
370
    25
100
AcDbLine
 10
573.7665376202
 20
609.2896568836
 30
0.0
 11
573.706679037
 21
612.7363966646
 31
0.0
  0
LINE
  5
3B3
330
1F
100
AcDbEntity
  8
0
  6
Continuous
 62
     8
370
    25
100
AcDbLine
 10
568.1985582807
 20
611.1176183477
 30
0.0
 11
568.2631693152
 21
617.5848432491
 31
0.0
  0
LINE
  5
3B4
330
1F
100
AcDbEntity
  8
0
  6
Continuous
 62
     8
370
    25
100
AcDbLine
 10
538.1253268633
 20
619.5783878411
 30
0.0
 11
538.0920705571
 21
621.4932437781
 31
0.0
  0
LINE
  5
3B5
330
1F
100
AcDbEntity
  8
0
  6
Continuous
 62
     8
370
    25
100
AcDbLine
 10
551.0490589708
 20
615.8476274693
 30
0.0
 11
551.1158677682
 21
622.5348428311
 31
0.0
  0
LINE
  5
3B6
330
1F
100
AcDbEntity
  8
0
  6
Continuous
 62
     8
370
    25
100
AcDbLine
 10
539.4719323968
 20
619.1896566623
 30
0.0
 11
539.4120706198
 21
622.6363973654
 31
0.0
  0
SPLINE
  5
3B7
330
1F
100
AcDbEntity
  8
0
  6
Continuous
 62
     7
370
    25
100
AcDbSpline
210
0.0
220
0.0
230
1.0
 70
     8
 71
     3
 72
    16
 73
    12
 74
     0
 42
0.000000001
 43
0.00000001
 40
0.0
 40
0.0
 40
0.0
 40
0.0
 40
0.0705562688947514
 40
0.1923901386267917
 40
0.3138613952292557
 40
0.4342744061534521
 40
0.5533187799208871
 40
0.6708141560211152
 40
0.7867562372292473
 40
0.9013195794852337
 40
1.0
 40
1.0
 40
1.0
 40
1.0
 10
549.9404742538179
 20
687.8951138098134
 30
0.0
 10
550.1333308671335
 20
687.8430603282361
 30
0.0
 10
550.6592049128009
 20
687.7011228832217
 30
0.0
 10
551.5250918901141
 20
687.5559816376591
 30
0.0
 10
552.5261520794968
 20
687.4925828827417
 30
0.0
 10
553.5079795073327
 20
687.543307728644
 30
0.0
 10
554.4561407430194
 20
687.7054547583572
 30
0.0
 10
555.3592036245574
 20
687.9753103064784
 30
0.0
 10
556.2037904475465
 20
688.3504136529533
 30
0.0
 10
556.9561604043955
 20
688.7933086556193
 30
0.0
 10
557.3891101413993
 20
689.1530702866464
 30
0.0
 10
557.5894614274307
 20
689.319553135071
 30
0.0
  0
LINE
  5
3B8
330
1F
100
AcDbEntity
  8
0
  6
Continuous
 62
     7
370
    25
100
AcDbLine
 10
557.5858234345
 20
689.3078549449
 30
0.0
 11
571.4458232476
 21
701.3109668796
 31
0.0
  0
LINE
  5
3B9
330
1F
100
AcDbEntity
  8
0
  6
Continuous
 62
     7
370
    25
100
AcDbLine
 10
469.2523540786
 20
711.1877677616
 30
0.0
 11
549.9404742538
 21
687.8951138098
 31
0.0
  0
SPLINE
  5
3BA
330
1F
100
AcDbEntity
  8
0
  6
Continuous
 62
     7
370
    25
100
AcDbSpline
210
0.0
220
0.0
230
1.0
 70
     8
 71
     3
 72
    15
 73
    11
 74
     0
 42
0.000000001
 43
0.00000001
 40
0.0
 40
0.0
 40
0.0
 40
0.0
 40
0.1007451587217906
 40
0.2267576217540964
 40
0.3447841959412831
 40
0.465747568277129
 40
0.5959481636342849
 40
0.7413220778102491
 40
0.8957177942344413
 40
1.0
 40
1.0
 40
1.0
 40
1.0
 10
573.0078174711416
 20
703.2426957213736
 30
0.0
 10
573.0512230391107
 20
703.323800404352
 30
0.0
 10
573.1489204718059
 20
703.506351161715
 30
0.0
 10
573.1700984085495
 20
703.8269566741427
 30
0.0
 10
573.0862537554667
 20
704.1423440508479
 30
0.0
 10
572.9084871624262
 20
704.4268241134123
 30
0.0
 10
572.6445201619221
 20
704.683566127298
 30
0.0
 10
572.2838634441888
 20
704.9159421966244
 30
0.0
 10
571.8923808488447
 20
705.0979927531445
 30
0.0
 10
571.603302943154
 20
705.1804856599501
 30
0.0
 10
571.4867654304496
 20
705.2137414639587
 30
0.0
  0
SPLINE
  5
3BB
330
1F
100
AcDbEntity
  8
0
  6
Continuous
 62
     7
370
    25
100
AcDbSpline
210
0.0
220
0.0
230
1.0
 70
     8
 71
     3
 72
    11
 73
     7
 74
     0
 42
0.000000001
 43
0.00000001
 40
0.0
 40
0.0
 40
0.0
 40
0.0
 40
0.0466375267120189
 40
0.3889021655982802
 40
0.7304052924325208
 40
1.0
 40
1.0
 40
1.0
 40
1.0
 10
571.4460287975683
 20
701.3199546933728
 30
0.0
 10
571.4780443667639
 20
701.3448829394804
 30
0.0
 10
571.7450165900118
 20
701.5527552170058
 30
0.0
 10
572.1753904229095
 20
702.0258013425935
 30
0.0
 10
572.6899782523476
 20
702.6795195263783
 30
0.0
 10
572.9563685612034
 20
703.1445051578437
 30
0.0
 10
573.0738905247447
 20
703.3496403396116
 30
0.0
  0
LINE
  5
3BC
330
1F
100
AcDbEntity
  8
0
  6
Continuous
 62
     7
370
    25
100
AcDbLine
 10
535.3101590861
 20
674.5097488463
 30
0.0
 11
535.3101590861
 21
692.1185227641
 31
0.0
  0
LINE
  5
3BD
330
1F
100
AcDbEntity
  8
0
  6
Continuous
 62
     7
370
    25
100
AcDbLine
 10
516.8301592136
 20
697.4532383275
 30
0.0
 11
516.8301592136
 21
674.5097486448
 31
0.0
  0
LINE
  5
3BE
330
1F
100
AcDbEntity
  8
0
  6
Continuous
 62
     7
370
    25
100
AcDbLine
 10
571.4928409015
 20
705.2196887339
 30
0.0
 11
553.6416537753
 21
710.3728825803
 31
0.0
  0
LINE
  5
3BF
330
1F
100
AcDbEntity
  8
0
  6
Continuous
 62
     7
370
    25
100
AcDbLine
 10
543.0836383773
 20
713.4207190963
 30
0.0
 11
502.1997448757
 21
725.2228825557
 31
0.0
  0
LINE
  5
3C0
330
1F
100
AcDbEntity
  8
0
  6
Continuous
 62
     7
370
    25
100
AcDbLine
 10
491.6417294777
 20
728.2707190717
 30
0.0
 11
485.076389317
 21
730.1659695263
 31
0.0
  0
SPLINE
  5
3C1
330
1F
100
AcDbEntity
  8
0
  6
Continuous
 62
     7
370
    25
100
AcDbSpline
210
0.0
220
0.0
230
1.0
 70
     8
 71
     3
 72
     9
 73
     5
 74
     0
 42
0.000000001
 43
0.00000001
 40
0.0
 40
0.0
 40
0.0
 40
0.0
 40
0.3947965358076164
 40
1.0
 40
1.0
 40
1.0
 40
1.0
 10
519.5289698219453
 20
671.2557563325471
 30
0.0
 10
519.601002347304
 20
671.2156546593236
 30
0.0
 10
519.7834571533253
 20
671.1140791144892
 30
0.0
 10
519.9898946901046
 20
671.0332849797057
 30
0.0
 10
520.1148314025028
 20
670.9843880894483
 30
0.0
  0
SPLINE
  5
3C2
330
1F
100
AcDbEntity
  8
0
  6
Continuous
 62
     7
370
    25
100
AcDbSpline
210
0.0
220
0.0
230
1.0
 70
     8
 71
     3
 72
     9
 73
     5
 74
     0
 42
0.000000001
 43
0.00000001
 40
0.0
 40
0.0
 40
0.0
 40
0.0
 40
0.6562907285000235
 40
1.0
 40
1.0
 40
1.0
 40
1.0
 10
532.1171854330549
 20
671.0241154219713
 30
0.0
 10
532.2323952123323
 20
671.0696541772332
 30
0.0
 10
532.4079420763582
 20
671.1390422598078
 30
0.0
 10
532.5625668726497
 20
671.2264256913512
 30
0.0
 10
532.6157128487388
 20
671.2564601869482
 30
0.0
  0
SPLINE
  5
3C3
330
1F
100
AcDbEntity
  8
0
  6
Continuous
 62
     7
370
    25
100
AcDbSpline
210
0.0
220
0.0
230
1.0
 70
     8
 71
     3
 72
    11
 73
     7
 74
     0
 42
0.000000001
 43
0.00000001
 40
0.0
 40
0.0
 40
0.0
 40
0.0
 40
0.2177311781686018
 40
0.5605416332060043
 40
0.8839528286341506
 40
1.0
 40
1.0
 40
1.0
 40
1.0
 10
467.7819535077772
 20
717.6710607796058
 30
0.0
 10
467.7269140297856
 20
717.6195468415692
 30
0.0
 10
467.5852167352423
 20
717.48692593168
 30
0.0
 10
467.4309437201025
 20
717.239672055857
 30
0.0
 10
467.3403694027828
 20
716.9920608589638
 30
0.0
 10
467.3540887500807
 20
716.8496034613786
 30
0.0
 10
467.3577115994043
 20
716.811984930753
 30
0.0
  0
LINE
  5
3C4
330
1F
100
AcDbEntity
  8
0
  6
Continuous
 62
     7
370
    25
100
AcDbLine
 10
467.3445578289
 20
716.8107126141
 30
0.0
 11
467.3445578289
 21
713.7241979949
 31
0.0
  0
ARC
  5
3C5
330
1F
100
AcDbEntity
  8
0
  6
Continuous
 62
     7
370
    25
100
AcDbCircle
 10
469.9845574668
 20
713.7241981158
 30
0.0
 40
2.640000000000027
100
AcDbArc
 50
180.0
 51
253.897886248
  0
LINE
  5
3C6
330
1F
100
AcDbEntity
  8
0
  6
Continuous
 62
     7
370
    25
100
AcDbLine
 10
481.6419533209
 20
729.6741727142
 30
0.0
 11
467.7819535078
 21
717.6710607796
 31
0.0
  0
SPLINE
  5
3C7
330
1F
100
AcDbEntity
  8
0
  6
Continuous
 62
     7
370
    25
100
AcDbSpline
210
0.0
220
0.0
230
1.0
 70
     8
 71
     3
 72
    15
 73
    11
 74
     0
 42
0.000000001
 43
0.00000001
 40
0.0
 40
0.0
 40
0.0
 40
0.0
 40
0.0743196445693979
 40
0.2147059287297901
 40
0.3544718024025899
 40
0.4941873851625721
 40
0.6344742059951854
 40
0.7761436542933392
 40
0.9202200552966276
 40
1.0
 40
1.0
 40
1.0
 40
1.0
 10
485.0763893170385
 20
730.1659695262624
 30
0.0
 10
484.9902159197765
 20
730.1888598598142
 30
0.0
 10
484.7412650616533
 20
730.2549889479261
 30
0.0
 10
484.296160306861
 20
730.3205608305612
 30
0.0
 10
483.7522472672695
 20
730.3411427196421
 30
0.0
 10
483.2117994441544
 20
730.3005600472571
 30
0.0
 10
482.6962190334284
 20
730.2008422054967
 30
0.0
 10
482.2259697973992
 20
730.0419695291846
 30
0.0
 10
481.87638313345
 20
729.8610298414183
 30
0.0
 10
481.7035493753788
 20
729.723269122485
 30
0.0
 10
481.6419533209167
 20
729.6741727142322
 30
0.0
  0
LINE
  5
3C8
330
1F
100
AcDbEntity
  8
0
  6
Continuous
 62
     7
370
    25
100
AcDbLine
 10
491.6397440477
 20
726.5254429583
 30
0.0
 11
491.6397440477
 21
717.3802147923
 31
0.0
  0
LINE
  5
3C9
330
1F
100
AcDbEntity
  8
0
  6
Continuous
 62
     7
370
    25
100
AcDbLine
 10
502.1997446271
 20
717.3802147698
 30
0.0
 11
502.1997446271
 21
726.5254429358
 31
0.0
  0
LINE
  5
3CA
330
1F
100
AcDbEntity
  8
0
  6
Continuous
 62
     7
370
    25
100
AcDbLine
 10
500.7512003351
 20
744.7698084898
 30
0.0
 11
500.0328019836
 21
745.1486337397
 31
0.0
  0
LINE
  5
3CB
330
1F
100
AcDbEntity
  8
0
  6
Continuous
 62
     7
370
    25
100
AcDbLine
 10
493.8066861215
 20
745.1486338344
 30
0.0
 11
493.0882883381
 21
744.7698086511
 31
0.0
  0
LINE
  5
3CC
330
1F
100
AcDbEntity
  8
0
  6
Continuous
 62
     7
370
    25
100
AcDbLine
 10
543.0816529473
 20
711.6754429829
 30
0.0
 11
543.0816529473
 21
702.5302148169
 31
0.0
  0
LINE
  5
3CD
330
1F
100
AcDbEntity
  8
0
  6
Continuous
 62
     7
370
    25
100
AcDbLine
 10
553.6416535267
 20
702.5302147944
 30
0.0
 11
553.6416535267
 21
711.6754429604
 31
0.0
  0
LINE
  5
3CE
330
1F
100
AcDbEntity
  8
0
  6
Continuous
 62
     7
370
    25
100
AcDbLine
 10
552.1931092347
 20
729.9198085144
 30
0.0
 11
551.4747108832
 21
730.2986337643
 31
0.0
  0
LINE
  5
3CF
330
1F
100
AcDbEntity
  8
0
  6
Continuous
 62
     7
370
    25
100
AcDbLine
 10
545.2485950211
 20
730.298633859
 30
0.0
 11
544.5301972377
 21
729.9198086757
 31
0.0
  0
LWPOLYLINE
  5
3D0
330
1F
100
AcDbEntity
  8
0
  6
Continuous
 62
     7
370
    25
100
AcDbPolyline
 90
        3
 70
   128
 43
0.0
 10
496.4975846801
 20
742.1933321094
 10
496.7582149963
 20
742.2062128634
 10
497.2929593773
 20
742.1966389985
  0
LWPOLYLINE
  5
3D1
330
1F
100
AcDbEntity
  8
0
  6
Continuous
 62
     7
370
    25
100
AcDbPolyline
 90
        3
 70
   128
 43
0.0
 10
497.0645237543
 20
739.2401756436
 10
496.4611580737
 20
739.256219572
 10
496.0070956187
 20
739.3102603743
  0
ARC
  5
3D2
330
1F
100
AcDbEntity
  8
0
  6
Continuous
 62
     7
370
    25
100
AcDbCircle
 10
496.9172983858
 20
745.657535231
 30
0.0
 40
7.771560492139447
100
AcDbArc
 50
262.3388420401
 51
271.0854796577
  0
LWPOLYLINE
  5
3D3
330
1F
100
AcDbEntity
  8
0
  6
Continuous
 62
     7
370
    25
100
AcDbPolyline
 90
        3
 70
   128
 43
0.0
 10
547.9394935797
 20
727.3433321339
 10
548.2001260252
 20
727.3562122733
 10
548.7348682769
 20
727.346639023
  0
LWPOLYLINE
  5
3D4
330
1F
100
AcDbEntity
  8
0
  6
Continuous
 62
     7
370
    25
100
AcDbPolyline
 90
        3
 70
   128
 43
0.0
 10
548.506432654
 20
724.3901756682
 10
547.9030669733
 20
724.4062195966
 10
547.4490045183
 20
724.4602603989
  0
ARC
  5
3D5
330
1F
100
AcDbEntity
  8
0
  6
Continuous
 62
     7
370
    25
100
AcDbCircle
 10
548.3592072854
 20
730.8075352556
 30
0.0
 40
7.771560492179289
100
AcDbArc
 50
262.3388420401
 51
271.0854796576
  0
SPLINE
  5
3D6
330
1F
100
AcDbEntity
  8
0
  6
Continuous
 62
     7
370
    25
100
AcDbSpline
210
0.0
220
0.0
230
1.0
 70
     8
 71
     3
 72
    12
 73
     8
 74
     0
 42
0.000000001
 43
0.00000001
 40
0.0
 40
0.0
 40
0.0
 40
0.0
 40
0.1874403331787544
 40
0.3738004694223573
 40
0.5646929075592009
 40
0.7705022627950101
 40
1.0
 40
1.0
 40
1.0
 40
1.0
 10
558.9354649928014
 20
690.9858207798551
 30
0.0
 10
558.7749117551969
 20
690.8749363557414
 30
0.0
 10
558.4547305297045
 20
690.6538065216101
 30
0.0
 10
557.7259264390412
 20
690.4570860336573
 30
0.0
 10
556.8923518432176
 20
690.3866084378286
 30
0.0
 10
555.9617052362745
 20
690.4561529446288
 30
0.0
 10
555.3850353824043
 20
690.6297540010484
 30
0.0
 10
555.0810099509889
 20
690.7212780086202
 30
0.0
  0
ARC
  5
3D7
330
1F
100
AcDbEntity
  8
0
  6
Continuous
 62
     7
370
    25
100
AcDbCircle
 10
555.8317283095
 20
690.7276409298
 30
0.0
 40
0.7507453233757647
100
AcDbArc
 50
137.4108967738
 51
180.4856146033
  0
SPLINE
  5
3D8
330
1F
100
AcDbEntity
  8
0
  6
Continuous
 62
     7
370
    25
100
AcDbSpline
210
0.0
220
0.0
230
1.0
 70
     8
 71
     3
 72
    12
 73
     8
 74
     0
 42
0.000000001
 43
0.00000001
 40
0.0
 40
0.0
 40
0.0
 40
0.0
 40
0.2341607063366178
 40
0.4414356383365307
 40
0.6315758880691499
 40
0.8156762427502419
 40
1.0
 40
1.0
 40
1.0
 40
1.0
 10
555.2790102293128
 20
691.2356972892525
 30
0.0
 10
555.547242917157
 20
691.171809092728
 30
0.0
 10
556.0529104547794
 20
691.0513681901697
 30
0.0
 10
556.8643173991311
 20
691.0204707693073
 30
0.0
 10
557.5863507770313
 20
691.100286070446
 30
0.0
 10
558.2145809158858
 20
691.2800103541194
 30
0.0
 10
558.488545464879
 20
691.4700922652227
 30
0.0
 10
558.6256108017785
 20
691.5651908510782
 30
0.0
  0
ARC
  5
3D9
330
1F
100
AcDbEntity
  8
0
  6
Continuous
 62
     7
370
    25
100
AcDbCircle
 10
558.5133001456
 20
691.1325838016
 30
0.0
 40
0.4469480313502884
100
AcDbArc
 50
340.8303059272
 51
75.4465251585
  0
ARC
  5
3DA
330
1F
100
AcDbEntity
  8
0
  6
Continuous
 62
     7
370
    25
100
AcDbCircle
 10
551.1546326456
 20
694.2512937281
 30
0.0
 40
5.279910010954585
100
AcDbArc
 50
250.0448172592
 51
318.0428240261
  0
ARC
  5
3DB
330
1F
100
AcDbEntity
  8
0
  6
Continuous
 62
     7
370
    25
100
AcDbCircle
 10
483.8695959994
 20
726.6708444732
 30
0.0
 40
3.627446577175879
100
AcDbArc
 50
72.3978174643
 51
122.8636133869
  0
SPLINE
  5
3DC
330
1F
100
AcDbEntity
  8
0
  6
Continuous
 62
     7
370
    25
100
AcDbSpline
210
0.0
220
0.0
230
1.0
 70
     8
 71
     3
 72
    13
 73
     9
 74
     0
 42
0.000000001
 43
0.00000001
 40
0.0
 40
0.0
 40
0.0
 40
0.0
 40
0.0565127509233994
 40
0.2550045883674028
 40
0.4760989302941661
 40
0.6963166677652116
 40
0.8480724802760052
 40
0.9999999999999999
 40
0.9999999999999999
 40
0.9999999999999999
 40
0.9999999999999999
 10
572.485610614918
 20
703.5683027857045
 30
0.0
 10
572.5191939178796
 20
703.5997116566667
 30
0.0
 10
572.6707331051931
 20
703.7414390735755
 30
0.0
 10
572.8076191485675
 20
704.0419492326376
 30
0.0
 10
572.6902477863894
 20
704.4500124489375
 30
0.0
 10
572.3224703942509
 20
704.7830730848117
 30
0.0
 10
571.8656406177041
 20
705.0252270501584
 30
0.0
 10
571.5439474483413
 20
705.129836049312
 30
0.0
 10
571.3830099185342
 20
705.182170122655
 30
0.0
  0
LINE
  5
3DD
330
1F
100
AcDbEntity
  8
0
  6
Continuous
 62
     7
370
    25
100
AcDbLine
 10
558.6256108018
 20
691.5651908511
 30
0.0
 11
572.4856106149
 21
703.5683027857
 31
0.0
  0
LINE
  5
3DE
330
1F
100
AcDbEntity
  8
0
  6
Continuous
 62
     7
370
    25
100
AcDbLine
 10
468.8625586448
 20
716.1819780816
 30
0.0
 11
555.2790102293
 21
691.2356972893
 31
0.0
  0
LWPOLYLINE
  5
3DF
330
1F
100
AcDbEntity
  8
0
  6
Continuous
 62
     7
370
    25
100
AcDbPolyline
 90
        9
 70
   128
 43
0.0
 10
468.0411944902
 20
717.714659422
 10
467.8596468012
 20
717.5143139782
 10
467.7597535924
 20
717.3001093149
 10
467.745363644
 20
717.0802762874
 10
467.8170181916
 20
716.8632645322
 10
467.9719766382
 20
716.6574106835
 10
468.2042729559
 20
716.4706282488
 10
468.5049849317
 20
716.3100949533
 10
468.8625586448
 20
716.1819780816
  0
LINE
  5
3E0
330
1F
100
AcDbEntity
  8
0
  6
Continuous
 62
     7
370
    25
100
AcDbLine
 10
481.9011943033
 20
729.7177713567
 30
0.0
 11
468.0411944902
 21
717.714659422
 31
0.0
  0
LINE
  5
3E1
330
1F
100
AcDbEntity
  8
0
  6
Continuous
 62
     7
370
    25
100
AcDbLine
 10
555.081009951
 20
690.7212780086
 30
0.0
 11
468.6645583665
 21
715.667558801
 31
0.0
  0
ARC
  5
3E2
330
1F
100
AcDbEntity
  8
0
  6
Continuous
 62
     7
370
    25
100
AcDbCircle
 10
469.415276725
 20
715.6739217221
 30
0.0
 40
0.7507453233761461
100
AcDbArc
 50
137.4108967738
 51
180.4856146033
  0
LINE
  5
3E3
330
1F
100
AcDbEntity
  8
0
  6
Continuous
 62
     7
370
    25
100
AcDbLine
 10
468.6645583665
 20
712.5810441818
 30
0.0
 11
549.3526785418
 21
689.28839023
 31
0.0
  0
LINE
  5
3E4
330
1F
100
AcDbEntity
  8
0
  6
Continuous
 62
     7
370
    25
100
AcDbLine
 10
468.6645583665
 20
715.667558801
 30
0.0
 11
468.6645583665
 21
712.5810441818
 31
0.0
  0
LINE
  5
3E5
330
1F
100
AcDbEntity
  8
0
  6
Continuous
 62
     7
370
    25
100
AcDbLine
 10
572.7954648059
 20
702.9889327145
 30
0.0
 11
558.9354649928
 21
690.9858207799
 31
0.0
  0
ARC
  5
3E6
330
1F
100
AcDbEntity
  8
0
  6
Continuous
 62
     7
370
    25
100
AcDbCircle
 10
572.3732999588
 20
703.1356957362
 30
0.0
 40
0.446948031350523
100
AcDbArc
 50
340.8303059273
 51
75.4465251585
  0
LINE
  5
3E7
330
1F
100
AcDbEntity
  8
0
  6
Continuous
 62
     7
370
    25
100
AcDbLine
 10
571.4887797577
 20
705.2207374089
 30
0.0
 11
571.4928409015
 21
705.2196887339
 31
0.0
  0
LWPOLYLINE
  5
3E8
330
1F
100
AcDbEntity
  8
0
  6
Continuous
 62
     7
370
    25
100
AcDbPolyline
 90
       29
 70
   128
 43
0.0
 10
535.3101590861
 20
674.5097488463
 10
535.29452719
 20
674.2411195153
 10
535.1697826009
 20
673.7074941634
 10
534.9219821916
 20
673.1847178504
 10
534.5544757699
 20
672.6798603066
 10
534.0722338605
 20
672.1997487501
 10
533.4817772084
 20
671.7508761017
 10
532.7910915027
 20
671.3393123812
 10
532.0095165722
 20
670.9706234999
 10
531.1476226451
 20
670.6497948324
 10
530.2170638414
 20
670.3811658043
 10
529.230425375
 20
670.1683688675
 10
528.2010501329
 20
670.0142813492
 10
527.1428578734
 20
669.9209875046
 10
526.0701594638
 20
669.8897485675
 10
524.9974608783
 20
669.9209872902
 10
523.9392687986
 20
670.014281248
 10
522.9098930484
 20
670.1683687678
 10
521.9232550354
 20
670.3811658998
 10
520.9926964872
 20
670.6497950139
 10
520.1308017703
 20
670.9706233166
 10
519.3492268812
 20
671.3393122163
 10
518.6585409333
 20
671.7508758586
 10
518.0680845524
 20
672.1997486196
 10
517.5858425742
 20
672.6798601824
 10
517.2183362564
 20
673.1847177557
 10
516.9705357797
 20
673.7074941466
 10
516.8457919188
 20
674.2411195262
 10
516.8301592136
 20
674.5097486448
  0
SPLINE
  5
3E9
330
1F
100
AcDbEntity
  8
0
  6
Continuous
 62
     7
370
    25
100
AcDbSpline
210
0.0
220
0.0
230
1.0
 70
    11
 71
     3
 72
    26
 73
    22
 74
     0
 42
0.000000001
 43
0.00000001
 40
0.0
 40
0.0
 40
0.0
 40
0.0
 40
0.0520261565982201
 40
0.103994006018355
 40
0.157456068057294
 40
0.2120011719703926
 40
0.2649735776949065
 40
0.3162723255800674
 40
0.3681857601262681
 40
0.4220984365574597
 40
0.4765023175776016
 40
0.5288712621436314
 40
0.5799001097679944
 40
0.6323124636167803
 40
0.6866903775015083
 40
0.7406307714253553
 40
0.7924967815334388
 40
0.8438242044745142
 40
0.8968048987155225
 40
0.9513399382511911
 40
0.9999999999999999
 40
0.9999999999999999
 40
0.9999999999999999
 40
0.9999999999999999
 10
524.0635828603156
 20
682.1639744833726
 30
0.0
 10
524.0335374106141
 20
682.4302741260851
 30
0.0
 10
523.9734801839925
 20
682.9625749620046
 30
0.0
 10
523.5153545301314
 20
683.7240029646289
 30
0.0
 10
522.853501893139
 20
684.3819159298605
 30
0.0
 10
522.0448671574917
 20
684.8813339633987
 30
0.0
 10
521.220920304726
 20
685.1663662654191
 30
0.0
 10
520.484062272441
 20
685.2165374574195
 30
0.0
 10
519.8852185539291
 20
685.0289678215081
 30
0.0
 10
519.4606836289938
 20
684.5949040351983
 30
0.0
 10
519.2479391477267
 20
683.9303076566152
 30
0.0
 10
519.2593132561374
 20
683.1134493528215
 30
0.0
 10
519.4799628568553
 20
682.2473443422789
 30
0.0
 10
519.9023350435892
 20
681.415121753665
 30
0.0
 10
520.5213333330033
 20
680.7169635790019
 30
0.0
 10
521.2881180904591
 20
680.270165015887
 30
0.0
 10
522.1046400390447
 20
680.1367546971588
 30
0.0
 10
522.8822925000488
 20
680.3074833372779
 30
0.0
 10
523.5359965830024
 20
680.7547282847502
 30
0.0
 10
523.9813435190396
 20
681.4054642218016
 30
0.0
 10
524.0372303060478
 20
681.9209194865724
 30
0.0
 10
524.0635828603156
 20
682.1639744833726
 30
0.0
  0
ARC
  5
3EA
330
1F
100
AcDbEntity
  8
0
  6
Continuous
 62
     7
370
    25
100
AcDbCircle
 10
497.5520143529
 20
746.1484939829
 30
0.0
 40
4.633740163242491
100
AcDbArc
 50
265.1747362972
 51
319.4680176364
  0
SPLINE
  5
3EB
330
1F
100
AcDbEntity
  8
0
  6
Continuous
 62
     7
370
    25
100
AcDbSpline
210
0.0
220
0.0
230
1.0
 70
     8
 71
     3
 72
     9
 73
     5
 74
     0
 42
0.000000001
 43
0.00000001
 40
0.0
 40
0.0
 40
0.0
 40
0.0
 40
0.9377807546078949
 40
1.0
 40
1.0
 40
1.0
 40
1.0
 10
502.0687317206712
 20
742.3688821992296
 30
0.0
 10
501.7578894381488
 20
742.6091880476587
 30
0.0
 10
501.42642360139
 20
742.8654375465403
 30
0.0
 10
501.094509111404
 20
743.1212383887186
 30
0.0
 10
501.0738576423023
 20
743.1371541240895
 30
0.0
  0
ARC
  5
3EC
330
1F
100
AcDbEntity
  8
0
  6
Continuous
 62
     7
370
    25
100
AcDbCircle
 10
497.6766554472
 20
745.9449375334
 30
0.0
 40
5.663788991891277
100
AcDbArc
 50
263.7954526716
 51
320.8473085363
  0
SPLINE
  5
3ED
330
1F
100
AcDbEntity
  8
0
  6
Continuous
 62
     7
370
    25
100
AcDbSpline
210
0.0
220
0.0
230
1.0
 70
     8
 71
     3
 72
     9
 73
     5
 74
     0
 42
0.000000001
 43
0.00000001
 40
0.0
 40
0.0
 40
0.0
 40
0.0
 40
0.5214539589411137
 40
1.0
 40
1.0
 40
1.0
 40
1.0
 10
497.0645230049504
 20
740.3143248120556
 30
0.0
 10
497.0814974545614
 20
740.5258936048139
 30
0.0
 10
497.1140496086296
 20
740.9316222202183
 30
0.0
 10
497.1466406715368
 20
741.3371247742698
 30
0.0
 10
497.1622369956649
 20
741.5311764161504
 30
0.0
  0
ARC
  5
3EE
330
1F
100
AcDbEntity
  8
0
  6
Continuous
 62
     7
370
    25
100
AcDbCircle
 10
496.9173223466
 20
734.2964033826
 30
0.0
 40
10.41100844302318
100
AcDbArc
 50
263.5669182383
 51
270.8101287728
  0
LINE
  5
3EF
330
1F
100
AcDbEntity
  8
0
  6
Continuous
 62
     7
370
    25
100
AcDbLine
 10
497.064523005
 20
740.3143248121
 30
0.0
 11
497.064523005
 21
723.8864356224
 31
0.0
  0
LINE
  5
3F0
330
1F
100
AcDbEntity
  8
0
  6
Continuous
 62
     7
370
    25
100
AcDbLine
 10
502.0687317207
 20
742.3688821992
 30
0.0
 11
502.0687317207
 21
725.9409930096
 31
0.0
  0
ARC
  5
3F1
330
1F
100
AcDbEntity
  8
0
  6
Continuous
 62
     7
370
    25
100
AcDbCircle
 10
500.8051657494
 20
726.5302947429
 30
0.0
 40
1.394229355795457
100
AcDbArc
 50
334.9966016352
 51
2.7765529895
  0
LINE
  5
3F2
330
1F
100
AcDbEntity
  8
0
  6
Continuous
 62
     7
370
    25
100
AcDbLine
 10
502.1977583418
 20
743.025721834
 30
0.0
 11
502.1977583418
 21
726.5978326444
 31
0.0
  0
ARC
  5
3F3
330
1F
100
AcDbEntity
  8
0
  6
Continuous
 62
     7
370
    25
100
AcDbCircle
 10
499.7943555761
 20
742.5042584387
 30
0.0
 40
2.459322859493242
100
AcDbArc
 50
12.2416559678
 51
67.1034563466
  0
LINE
  5
3F4
330
1F
100
AcDbEntity
  8
0
  6
Continuous
 62
     7
370
    25
100
AcDbLine
 10
496.7749656698
 20
742.2066437142
 30
0.0
 11
496.7749656698
 21
745.5923394613
 31
0.0
  0
ARC
  5
3F5
330
1F
100
AcDbEntity
  8
0
  6
Continuous
 62
     7
370
    25
100
AcDbCircle
 10
494.3664284796
 20
742.0824648644
 30
0.0
 40
2.975812300728793
100
AcDbArc
 50
115.4364462179
 51
150.7219238505
  0
LINE
  5
3F6
330
1F
100
AcDbEntity
  8
0
  6
Continuous
 62
     7
370
    25
100
AcDbLine
 10
491.7707569541
 20
742.9679991403
 30
0.0
 11
491.7707569541
 21
743.5377820741
 31
0.0
  0
LWPOLYLINE
  5
3F7
330
1F
100
AcDbEntity
  8
0
  6
Continuous
 62
     7
370
    25
100
AcDbPolyline
 90
        3
 70
   128
 43
0.0
 10
491.641729335
 20
726.5978324401
 10
491.6397850015
 20
726.5357606736
 10
491.641730333
 20
726.4530532497
  0
LINE
  5
3F8
330
1F
100
AcDbEntity
  8
0
  6
Continuous
 62
     7
370
    25
100
AcDbLine
 10
491.641730333
 20
726.4530532497
 30
0.0
 11
491.641730333
 21
742.8809424393
 31
0.0
  0
LWPOLYLINE
  5
3F9
330
1F
100
AcDbEntity
  8
0
  6
Continuous
 62
     7
370
    25
100
AcDbPolyline
 90
        9
 70
   128
 43
0.0
 10
491.641730333
 20
742.8809424393
 10
491.7372112025
 20
742.4484173912
 10
491.9734981809
 20
742.0296097823
 10
492.3441699893
 20
741.6358990071
 10
492.8391553815
 20
741.2779818568
 10
493.4450077688
 20
740.9655817327
 10
494.1452630649
 20
740.7071881325
 10
494.9209008152
 20
740.5098191988
 10
495.7508448411
 20
740.3788381583
  0
LINE
  5
3FA
330
1F
100
AcDbEntity
  8
0
  6
Continuous
 62
     7
370
    25
100
AcDbLine
 10
495.7508448411
 20
740.3788381583
 30
0.0
 11
495.7508448411
 21
723.9509489687
 31
0.0
  0
LWPOLYLINE
  5
3FB
330
1F
100
AcDbEntity
  8
0
  6
Continuous
 62
     7
370
    25
100
AcDbPolyline
 90
       12
 70
   128
 43
0.0
 10
496.4036349662
 20
714.75285743
 10
497.2320090438
 20
714.7448355976
 10
498.0526921588
 20
714.801706039
 10
498.845479261
 20
714.9220677215
 10
499.5908482346
 20
715.1029572367
 10
500.2704456599
 20
715.3399203491
 10
500.8675378114
 20
715.6271222803
 10
501.3674208791
 20
715.9574915241
 10
501.7577881053
 20
716.3228927332
 10
502.0290279313
 20
716.7143283723
 10
502.1744600329
 20
717.122160341
 10
502.1997446271
 20
717.3802147698
  0
LWPOLYLINE
  5
3FC
330
1F
100
AcDbEntity
  8
0
  6
Continuous
 62
     7
370
    25
100
AcDbPolyline
 90
       11
 70
   128
 43
0.0
 10
491.6397440477
 20
717.3802147923
 10
491.6489852131
 20
717.2240830014
 10
491.7627273856
 20
716.8137407167
 10
492.0034501057
 20
716.4173475292
 10
492.3652294024
 20
716.0446629655
 10
492.8391553815
 20
715.7048645012
 10
493.4135589112
 20
715.4063185215
 10
494.0742981482
 20
715.1563760616
 10
494.8051006251
 20
714.9611920767
 10
495.5879717655
 20
714.8255727358
 10
496.4036349662
 20
714.75285743
  0
SPLINE
  5
3FD
330
1F
100
AcDbEntity
  8
0
  6
Continuous
 62
     7
370
    25
100
AcDbSpline
210
0.0
220
0.0
230
1.0
 70
     8
 71
     3
 72
     9
 73
     5
 74
     0
 42
0.000000001
 43
0.00000001
 40
0.0
 40
0.0
 40
0.0
 40
0.0
 40
0.5214539589411137
 40
1.0
 40
1.0
 40
1.0
 40
1.0
 10
495.7508448411401
 20
740.3788381582943
 30
0.0
 10
495.767819290751
 20
740.5904069510527
 30
0.0
 10
495.8003714448192
 20
740.996135566457
 30
0.0
 10
495.8329625077264
 20
741.4016381205084
 30
0.0
 10
495.8485588318546
 20
741.595689762389
 30
0.0
  0
LINE
  5
3FE
330
1F
100
AcDbEntity
  8
0
  6
Continuous
 62
     7
370
    25
100
AcDbLine
 10
495.8485588319
 20
741.5956897624
 30
0.0
 11
496.0804323017
 21
742.7760924425
 31
0.0
  0
SPLINE
  5
3FF
330
1F
100
AcDbEntity
  8
0
  6
Continuous
 62
     7
370
    25
100
AcDbSpline
210
0.0
220
0.0
230
1.0
 70
     8
 71
     3
 72
     9
 73
     5
 74
     0
 42
0.000000001
 43
0.00000001
 40
0.0
 40
0.0
 40
0.0
 40
0.0
 40
0.1697077255613895
 40
1.0
 40
1.0
 40
1.0
 40
1.0
 10
496.080432301711
 20
742.7760924425107
 30
0.0
 10
496.0768090574161
 20
742.5908803178262
 30
0.0
 10
496.0554591496089
 20
741.4995208993216
 30
0.0
 10
496.0345893242285
 20
740.4097956613571
 30
0.0
 10
496.0172612694463
 20
739.5050052150144
 30
0.0
  0
LINE
  5
400
330
1F
100
AcDbEntity
  8
0
  6
Continuous
 62
     7
370
    25
100
AcDbLine
 10
495.7508448411
 20
723.9509489687
 30
0.0
 11
495.8812378823
 21
724.6147425071
 31
0.0
  0
SPLINE
  5
401
330
1F
100
AcDbEntity
  8
0
  6
Continuous
 62
     7
370
    25
100
AcDbSpline
210
0.0
220
0.0
230
1.0
 70
     8
 71
     3
 72
     9
 73
     5
 74
     0
 42
0.000000001
 43
0.00000001
 40
0.0
 40
0.0
 40
0.0
 40
0.0
 40
0.4785460162464848
 40
1.0
 40
1.0
 40
1.0
 40
1.0
 10
492.6366023204499
 20
743.5515001357977
 30
0.0
 10
492.4778047026479
 20
743.4446459072745
 30
0.0
 10
492.1459711643651
 20
743.2213565580888
 30
0.0
 10
491.8145508014779
 20
742.9976139261043
 30
0.0
 10
491.6417303329533
 20
742.8809424393206
 30
0.0
  0
ARC
  5
402
330
1F
100
AcDbEntity
  8
0
  6
Continuous
 62
     7
370
    25
100
AcDbCircle
 10
495.6818705303
 20
744.9372886911
 30
0.0
 40
3.345753785008381
100
AcDbArc
 50
204.4685203841
 51
272.8557067049
  0
ARC
  5
403
330
1F
100
AcDbEntity
  8
0
  6
Continuous
 62
     7
370
    25
100
AcDbCircle
 10
497.2547718954
 20
744.9279628842
 30
0.0
 40
2.220760213122396
100
AcDbArc
 50
273.5973615135
 51
311.0454947433
  0
LINE
  5
404
330
1F
100
AcDbEntity
  8
0
  6
Continuous
 62
     7
370
    25
100
AcDbLine
 10
501.0738576423
 20
743.1371541241
 30
0.0
 11
498.7130520475
 21
743.2530912705
 31
0.0
  0
LINE
  5
405
330
1F
100
AcDbEntity
  8
0
  6
Continuous
 62
     7
370
    25
100
AcDbLine
 10
497.1622369957
 20
741.5311764162
 30
0.0
 11
497.394112518
 21
742.7115784151
 31
0.0
  0
LINE
  5
406
330
1F
100
AcDbEntity
  8
0
  6
Continuous
 62
     7
370
    25
100
AcDbLine
 10
494.9974079057
 20
743.435562981
 30
0.0
 11
492.6366023204
 21
743.5515001358
 31
0.0
  0
ARC
  5
407
330
1F
100
AcDbEntity
  8
0
  6
Continuous
 62
     7
370
    25
100
AcDbCircle
 10
496.2921295271
 20
744.3427960572
 30
0.0
 40
1.580941469945358
100
AcDbArc
 50
215.0195709941
 51
262.3046478787
  0
LINE
  5
408
330
1F
100
AcDbEntity
  8
0
  6
Continuous
 62
     7
370
    25
100
AcDbLine
 10
502.1977583418
 20
726.5978326444
 30
0.0
 11
502.0687320364
 21
726.6041687914
 31
0.0
  0
SPLINE
  5
409
330
1F
100
AcDbEntity
  8
0
  6
Continuous
 62
     7
370
    25
100
AcDbSpline
210
0.0
220
0.0
230
1.0
 70
     8
 71
     3
 72
     9
 73
     5
 74
     0
 42
0.000000001
 43
0.00000001
 40
0.0
 40
0.0
 40
0.0
 40
0.0
 40
0.7413803289185776
 40
1.0
 40
1.0
 40
1.0
 40
1.0
 10
498.8420806922711
 20
743.909930199179
 30
0.0
 10
498.8784854059948
 20
743.7443106879746
 30
0.0
 10
498.9275893709957
 20
743.5209172355935
 30
0.0
 10
498.9755938549212
 20
743.2973952616629
 30
0.0
 10
498.9880087587645
 20
743.2395880822854
 30
0.0
  0
LINE
  5
40A
330
1F
100
AcDbEntity
  8
0
  6
Continuous
 62
     7
370
    25
100
AcDbLine
 10
501.2028863543
 20
743.793993111
 30
0.0
 11
498.8420806923
 21
743.9099301992
 31
0.0
  0
SPLINE
  5
40B
330
1F
100
AcDbEntity
  8
0
  6
Continuous
 62
     7
370
    25
100
AcDbSpline
210
0.0
220
0.0
230
1.0
 70
     8
 71
     3
 72
     9
 73
     5
 74
     0
 42
0.000000001
 43
0.00000001
 40
0.0
 40
0.0
 40
0.0
 40
0.0
 40
0.9377806921280664
 40
1.0
 40
1.0
 40
1.0
 40
1.0
 10
502.197758341831
 20
743.0257218340447
 30
0.0
 10
501.8869168174646
 20
743.2660273909961
 30
0.0
 10
501.5554517670795
 20
743.5222765961339
 30
0.0
 10
501.2235378109573
 20
743.7780773642183
 30
0.0
 10
501.2028863543343
 20
743.7939931109618
 30
0.0
  0
ARC
  5
40C
330
1F
100
AcDbEntity
  8
0
  6
Continuous
 62
     7
370
    25
100
AcDbCircle
 10
498.1576181445
 20
742.4082045557
 30
0.0
 40
3.345753785008414
100
AcDbArc
 50
24.4685203841
 51
92.8557067049
  0
ARC
  5
40D
330
1F
100
AcDbEntity
  8
0
  6
Continuous
 62
     7
370
    25
100
AcDbCircle
 10
497.5473594589
 20
743.002697943
 30
0.0
 40
1.580940681619446
100
AcDbArc
 50
35.0195547267
 51
82.3046553987
  0
LINE
  5
40E
330
1F
100
AcDbEntity
  8
0
  6
Continuous
 62
     7
370
    25
100
AcDbLine
 10
497.7590563731
 20
744.5694008042
 30
0.0
 11
497.9909298429
 21
745.7498034844
 31
0.0
  0
SPLINE
  5
40F
330
1F
100
AcDbEntity
  8
0
  6
Continuous
 62
     7
370
    25
100
AcDbSpline
210
0.0
220
0.0
230
1.0
 70
     8
 71
     3
 72
     9
 73
     5
 74
     0
 42
0.000000001
 43
0.00000001
 40
0.0
 40
0.0
 40
0.0
 40
0.0
 40
0.0622197280382845
 40
1.0
 40
1.0
 40
1.0
 40
1.0
 10
496.6772516791194
 20
745.8143168306091
 30
0.0
 10
496.679279653461
 20
745.809741144669
 30
0.0
 10
496.7118734047597
 20
745.73620038703
 30
0.0
 10
496.7444324445988
 20
745.6619603259654
 30
0.0
 10
496.7749656698339
 20
745.5923394613097
 30
0.0
  0
ARC
  5
410
330
1F
100
AcDbEntity
  8
0
  6
Continuous
 62
     7
370
    25
100
AcDbCircle
 10
496.2874743219
 20
741.1969992639
 30
0.0
 40
4.633740163242702
100
AcDbArc
 50
85.1747362972
 51
139.4680176364
  0
SPLINE
  5
411
330
1F
100
AcDbEntity
  8
0
  6
Continuous
 62
     7
370
    25
100
AcDbSpline
210
0.0
220
0.0
230
1.0
 70
     8
 71
     3
 72
     9
 73
     5
 74
     0
 42
0.000000001
 43
0.00000001
 40
0.0
 40
0.0
 40
0.0
 40
0.0
 40
0.4785467352432721
 40
1.0
 40
1.0
 40
1.0
 40
1.0
 10
492.765631032482
 20
744.2083391226698
 30
0.0
 10
492.6068326229135
 20
744.1014852032912
 30
0.0
 10
492.2749979286746
 20
743.8781968355956
 30
0.0
 10
491.9435773150798
 20
743.654453675457
 30
0.0
 10
491.770756954113
 20
743.5377820741357
 30
0.0
  0
ARC
  5
412
330
1F
100
AcDbEntity
  8
0
  6
Continuous
 62
     7
370
    25
100
AcDbCircle
 10
496.5847229488
 20
742.4175077005
 30
0.0
 40
2.220783217650796
100
AcDbArc
 50
93.5974836847
 51
131.0452622003
  0
SPLINE
  5
413
330
1F
100
AcDbEntity
  8
0
  6
Continuous
 62
     7
370
    25
100
AcDbSpline
210
0.0
220
0.0
230
1.0
 70
     8
 71
     3
 72
     9
 73
     5
 74
     0
 42
0.000000001
 43
0.00000001
 40
0.0
 40
0.0
 40
0.0
 40
0.0
 40
0.8332522581576514
 40
1.0
 40
1.0
 40
1.0
 40
1.0
 10
496.5081820568473
 20
742.0035336102654
 30
0.0
 10
496.4909657597485
 20
742.7356622862735
 30
0.0
 10
496.4703041930616
 20
743.6143021805435
 30
0.0
 10
496.4489387895901
 20
744.4881951520844
 30
0.0
 10
496.4453761568076
 20
744.6339148317006
 30
0.0
  0
SPLINE
  5
414
330
1F
100
AcDbEntity
  8
0
  6
Continuous
 62
     7
370
    25
100
AcDbSpline
210
0.0
220
0.0
230
1.0
 70
     8
 71
     3
 72
     9
 73
     5
 74
     0
 42
0.000000001
 43
0.00000001
 40
0.0
 40
0.0
 40
0.0
 40
0.0
 40
0.2528462420929495
 40
0.9999999999999999
 40
0.9999999999999999
 40
0.9999999999999999
 40
0.9999999999999999
 10
494.9793161634774
 20
743.429853046979
 30
0.0
 10
494.9914774813333
 20
743.4857451236954
 30
0.0
 10
495.0395751621816
 20
743.7067967646205
 30
0.0
 10
495.0892899201685
 20
743.927501906466
 30
0.0
 10
495.1264344884218
 20
744.0924025825851
 30
0.0
  0
LINE
  5
415
330
1F
100
AcDbEntity
  8
0
  6
Continuous
 62
     7
370
    25
100
AcDbLine
 10
496.4453761568
 20
744.6339148317
 30
0.0
 11
496.6772516791
 21
745.8143168306
 31
0.0
  0
LINE
  5
416
330
1F
100
AcDbEntity
  8
0
  6
Continuous
 62
     7
370
    25
100
AcDbLine
 10
495.1264344884
 20
744.0924025826
 30
0.0
 11
492.7656310325
 21
744.2083391227
 31
0.0
  0
ARC
  5
417
330
1F
100
AcDbEntity
  8
0
  6
Continuous
 62
     7
370
    25
100
AcDbCircle
 10
548.9939232525
 20
731.2984940075
 30
0.0
 40
4.633740163242046
100
AcDbArc
 50
265.1747362972
 51
319.4680176364
  0
SPLINE
  5
418
330
1F
100
AcDbEntity
  8
0
  6
Continuous
 62
     7
370
    25
100
AcDbSpline
210
0.0
220
0.0
230
1.0
 70
     8
 71
     3
 72
     9
 73
     5
 74
     0
 42
0.000000001
 43
0.00000001
 40
0.0
 40
0.0
 40
0.0
 40
0.0
 40
0.9377807546078949
 40
1.0
 40
1.0
 40
1.0
 40
1.0
 10
553.5106406202954
 20
727.5188822238165
 30
0.0
 10
553.1997983377729
 20
727.7591880722456
 30
0.0
 10
552.868332501014
 20
728.0154375711272
 30
0.0
 10
552.536418011028
 20
728.2712384133055
 30
0.0
 10
552.5157665419264
 20
728.2871541486764
 30
0.0
  0
ARC
  5
419
330
1F
100
AcDbEntity
  8
0
  6
Continuous
 62
     7
370
    25
100
AcDbCircle
 10
549.1185643469
 20
731.094937558
 30
0.0
 40
5.663788991891369
100
AcDbArc
 50
263.7954526716
 51
320.8473085363
  0
SPLINE
  5
41A
330
1F
100
AcDbEntity
  8
0
  6
Continuous
 62
     7
370
    25
100
AcDbSpline
210
0.0
220
0.0
230
1.0
 70
     8
 71
     3
 72
     9
 73
     5
 74
     0
 42
0.000000001
 43
0.00000001
 40
0.0
 40
0.0
 40
0.0
 40
0.0
 40
0.5214539589411137
 40
1.0
 40
1.0
 40
1.0
 40
1.0
 10
548.5064319045745
 20
725.4643248366425
 30
0.0
 10
548.5234063541855
 20
725.6758936294008
 30
0.0
 10
548.5559585082536
 20
726.0816222448052
 30
0.0
 10
548.5885495711609
 20
726.4871247988566
 30
0.0
 10
548.604145895289
 20
726.6811764407372
 30
0.0
  0
ARC
  5
41B
330
1F
100
AcDbEntity
  8
0
  6
Continuous
 62
     7
370
    25
100
AcDbCircle
 10
548.3592312463
 20
719.4464034072
 30
0.0
 40
10.41100844304819
100
AcDbArc
 50
263.5669182383
 51
270.8101287728
  0
LINE
  5
41C
330
1F
100
AcDbEntity
  8
0
  6
Continuous
 62
     7
370
    25
100
AcDbLine
 10
548.5064319046
 20
725.4643248366
 30
0.0
 11
548.5064319046
 21
709.036435647
 31
0.0
  0
LINE
  5
41D
330
1F
100
AcDbEntity
  8
0
  6
Continuous
 62
     7
370
    25
100
AcDbLine
 10
553.5106406203
 20
727.5188822238
 30
0.0
 11
553.5106406203
 21
711.0909930342
 31
0.0
  0
ARC
  5
41E
330
1F
100
AcDbEntity
  8
0
  6
Continuous
 62
     7
370
    25
100
AcDbCircle
 10
552.247074649
 20
711.6802947675
 30
0.0
 40
1.394229355795895
100
AcDbArc
 50
334.9966016352
 51
2.7765529895
  0
LINE
  5
41F
330
1F
100
AcDbEntity
  8
0
  6
Continuous
 62
     7
370
    25
100
AcDbLine
 10
553.6396672415
 20
728.1757218586
 30
0.0
 11
553.6396672415
 21
711.747832669
 31
0.0
  0
ARC
  5
420
330
1F
100
AcDbEntity
  8
0
  6
Continuous
 62
     7
370
    25
100
AcDbCircle
 10
551.2362644757
 20
727.6542584632
 30
0.0
 40
2.459322859494251
100
AcDbArc
 50
12.2416559678
 51
67.1034563466
  0
LINE
  5
421
330
1F
100
AcDbEntity
  8
0
  6
Continuous
 62
     7
370
    25
100
AcDbLine
 10
548.2168745695
 20
727.3566437388
 30
0.0
 11
548.2168745695
 21
730.7423394859
 31
0.0
  0
ARC
  5
422
330
1F
100
AcDbEntity
  8
0
  6
Continuous
 62
     7
370
    25
100
AcDbCircle
 10
545.8083373792
 20
727.232464889
 30
0.0
 40
2.975812300729622
100
AcDbArc
 50
115.4364462179
 51
150.7219238505
  0
LINE
  5
423
330
1F
100
AcDbEntity
  8
0
  6
Continuous
 62
     7
370
    25
100
AcDbLine
 10
543.2126658537
 20
728.1179991648
 30
0.0
 11
543.2126658537
 21
728.6877820987
 31
0.0
  0
LWPOLYLINE
  5
424
330
1F
100
AcDbEntity
  8
0
  6
Continuous
 62
     7
370
    25
100
AcDbPolyline
 90
        3
 70
   128
 43
0.0
 10
543.0836382346
 20
711.7478324647
 10
543.0816939011
 20
711.6857606982
 10
543.0836392326
 20
711.6030532743
  0
LINE
  5
425
330
1F
100
AcDbEntity
  8
0
  6
Continuous
 62
     7
370
    25
100
AcDbLine
 10
543.0836392326
 20
711.6030532743
 30
0.0
 11
543.0836392326
 21
728.0309424639
 31
0.0
  0
LWPOLYLINE
  5
426
330
1F
100
AcDbEntity
  8
0
  6
Continuous
 62
     7
370
    25
100
AcDbPolyline
 90
        9
 70
   128
 43
0.0
 10
543.0836392326
 20
728.0309424639
 10
543.1791201022
 20
727.5984174158
 10
543.4154070806
 20
727.1796098069
 10
543.7860788889
 20
726.7858990317
 10
544.2810642811
 20
726.4279818814
 10
544.8869166684
 20
726.1155817573
 10
545.5871719645
 20
725.8571881571
 10
546.3628097148
 20
725.6598192234
 10
547.1927537408
 20
725.5288381829
  0
LINE
  5
427
330
1F
100
AcDbEntity
  8
0
  6
Continuous
 62
     7
370
    25
100
AcDbLine
 10
547.1927537408
 20
725.5288381829
 30
0.0
 11
547.1927537408
 21
709.1009489933
 31
0.0
  0
LWPOLYLINE
  5
428
330
1F
100
AcDbEntity
  8
0
  6
Continuous
 62
     7
370
    25
100
AcDbPolyline
 90
       12
 70
   128
 43
0.0
 10
547.8455438658
 20
699.9028574546
 10
548.6739179434
 20
699.8948356221
 10
549.4946010584
 20
699.9517060636
 10
550.2873881607
 20
700.0720677461
 10
551.0327571343
 20
700.2529572613
 10
551.7123545595
 20
700.4899203737
 10
552.309446711
 20
700.7771223049
 10
552.8093297787
 20
701.1074915486
 10
553.1996991342
 20
701.4728921431
 10
553.470936831
 20
701.8643283969
 10
553.6163689325
 20
702.2721603656
 10
553.6416535267
 20
702.5302147944
  0
LWPOLYLINE
  5
429
330
1F
100
AcDbEntity
  8
0
  6
Continuous
 62
     7
370
    25
100
AcDbPolyline
 90
       11
 70
   128
 43
0.0
 10
543.0816529473
 20
702.5302148169
 10
543.0908941127
 20
702.374083026
 10
543.2046362852
 20
701.9637407413
 10
543.4453590054
 20
701.5673475537
 10
543.807138302
 20
701.1946629901
 10
544.2810642811
 20
700.8548645258
 10
544.8554678108
 20
700.5563185461
 10
545.5162070478
 20
700.3063760862
 10
546.2470095248
 20
700.1111921013
 10
547.0298806651
 20
699.9755727603
 10
547.8455438658
 20
699.9028574546
  0
SPLINE
  5
42A
330
1F
100
AcDbEntity
  8
0
  6
Continuous
 62
     7
370
    25
100
AcDbSpline
210
0.0
220
0.0
230
1.0
 70
     8
 71
     3
 72
     9
 73
     5
 74
     0
 42
0.000000001
 43
0.00000001
 40
0.0
 40
0.0
 40
0.0
 40
0.0
 40
0.5214539589411137
 40
1.0
 40
1.0
 40
1.0
 40
1.0
 10
547.1927537407641
 20
725.5288381828811
 30
0.0
 10
547.2097281903751
 20
725.7404069756394
 30
0.0
 10
547.2422803444433
 20
726.1461355910438
 30
0.0
 10
547.2748714073506
 20
726.5516381450954
 30
0.0
 10
547.2904677314787
 20
726.7456897869758
 30
0.0
  0
LINE
  5
42B
330
1F
100
AcDbEntity
  8
0
  6
Continuous
 62
     7
370
    25
100
AcDbLine
 10
547.2904677315
 20
726.745689787
 30
0.0
 11
547.5223412013
 21
727.9260924671
 31
0.0
  0
SPLINE
  5
42C
330
1F
100
AcDbEntity
  8
0
  6
Continuous
 62
     7
370
    25
100
AcDbSpline
210
0.0
220
0.0
230
1.0
 70
     8
 71
     3
 72
     9
 73
     5
 74
     0
 42
0.000000001
 43
0.00000001
 40
0.0
 40
0.0
 40
0.0
 40
0.0
 40
0.1697077255613895
 40
1.0
 40
1.0
 40
1.0
 40
1.0
 10
547.522341201335
 20
727.9260924670974
 30
0.0
 10
547.5187179570403
 20
727.7408803424131
 30
0.0
 10
547.497368049233
 20
726.6495209239084
 30
0.0
 10
547.4764982238527
 20
725.559795685944
 30
0.0
 10
547.4591701690704
 20
724.6550052396013
 30
0.0
  0
LINE
  5
42D
330
1F
100
AcDbEntity
  8
0
  6
Continuous
 62
     7
370
    25
100
AcDbLine
 10
547.1927537408
 20
709.1009489933
 30
0.0
 11
547.3231467819
 21
709.7647425317
 31
0.0
  0
SPLINE
  5
42E
330
1F
100
AcDbEntity
  8
0
  6
Continuous
 62
     7
370
    25
100
AcDbSpline
210
0.0
220
0.0
230
1.0
 70
     8
 71
     3
 72
     9
 73
     5
 74
     0
 42
0.000000001
 43
0.00000001
 40
0.0
 40
0.0
 40
0.0
 40
0.0
 40
0.4785460162464848
 40
1.0
 40
1.0
 40
1.0
 40
1.0
 10
544.0785112200739
 20
728.7015001603846
 30
0.0
 10
543.9197136022718
 20
728.5946459318615
 30
0.0
 10
543.5878800639891
 20
728.3713565826756
 30
0.0
 10
543.2564597011019
 20
728.1476139506913
 30
0.0
 10
543.0836392325773
 20
728.0309424639074
 30
0.0
  0
ARC
  5
42F
330
1F
100
AcDbEntity
  8
0
  6
Continuous
 62
     7
370
    25
100
AcDbCircle
 10
547.1237794299
 20
730.0872887156
 30
0.0
 40
3.345753785009264
100
AcDbArc
 50
204.4685203841
 51
272.8557067049
  0
ARC
  5
430
330
1F
100
AcDbEntity
  8
0
  6
Continuous
 62
     7
370
    25
100
AcDbCircle
 10
548.6966746265
 20
730.0779855685
 30
0.0
 40
2.220783215179627
100
AcDbArc
 50
273.5974836645
 51
311.0452618952
  0
LINE
  5
431
330
1F
100
AcDbEntity
  8
0
  6
Continuous
 62
     7
370
    25
100
AcDbLine
 10
552.5157665419
 20
728.2871541487
 30
0.0
 11
550.1549630764
 21
728.4030906804
 31
0.0
  0
LINE
  5
432
330
1F
100
AcDbEntity
  8
0
  6
Continuous
 62
     7
370
    25
100
AcDbLine
 10
548.6041458953
 20
726.6811764407
 30
0.0
 11
548.8360214176
 21
727.8615784396
 31
0.0
  0
LINE
  5
433
330
1F
100
AcDbEntity
  8
0
  6
Continuous
 62
     7
370
    25
100
AcDbLine
 10
546.4393168053
 20
728.5855630056
 30
0.0
 11
544.0785112201
 21
728.7015001604
 31
0.0
  0
ARC
  5
434
330
1F
100
AcDbEntity
  8
0
  6
Continuous
 62
     7
370
    25
100
AcDbCircle
 10
547.7340384267
 20
729.4927960817
 30
0.0
 40
1.580941469945991
100
AcDbArc
 50
215.0195709941
 51
262.3046478787
  0
LINE
  5
435
330
1F
100
AcDbEntity
  8
0
  6
Continuous
 62
     7
370
    25
100
AcDbLine
 10
553.6396672415
 20
711.747832669
 30
0.0
 11
553.510640936
 21
711.754168816
 31
0.0
  0
SPLINE
  5
436
330
1F
100
AcDbEntity
  8
0
  6
Continuous
 62
     7
370
    25
100
AcDbSpline
210
0.0
220
0.0
230
1.0
 70
     8
 71
     3
 72
     9
 73
     5
 74
     0
 42
0.000000001
 43
0.00000001
 40
0.0
 40
0.0
 40
0.0
 40
0.0
 40
0.7413803289185776
 40
1.0
 40
1.0
 40
1.0
 40
1.0
 10
550.2839895918952
 20
729.0599302237658
 30
0.0
 10
550.3203943056188
 20
728.8943107125614
 30
0.0
 10
550.3694982706197
 20
728.6709172601803
 30
0.0
 10
550.4175027545452
 20
728.4473952862497
 30
0.0
 10
550.4299176583885
 20
728.3895881068723
 30
0.0
  0
LINE
  5
437
330
1F
100
AcDbEntity
  8
0
  6
Continuous
 62
     7
370
    25
100
AcDbLine
 10
552.644795254
 20
728.9439931355
 30
0.0
 11
550.2839895919
 21
729.0599302238
 31
0.0
  0
SPLINE
  5
438
330
1F
100
AcDbEntity
  8
0
  6
Continuous
 62
     7
370
    25
100
AcDbSpline
210
0.0
220
0.0
230
1.0
 70
     8
 71
     3
 72
     9
 73
     5
 74
     0
 42
0.000000001
 43
0.00000001
 40
0.0
 40
0.0
 40
0.0
 40
0.0
 40
0.9377806921280664
 40
1.0
 40
1.0
 40
1.0
 40
1.0
 10
553.6396672414551
 20
728.1757218586315
 30
0.0
 10
553.3288257170886
 20
728.416027415583
 30
0.0
 10
552.9973606667036
 20
728.6722766207207
 30
0.0
 10
552.6654467105814
 20
728.9280773888053
 30
0.0
 10
552.6447952539584
 20
728.9439931355486
 30
0.0
  0
ARC
  5
439
330
1F
100
AcDbEntity
  8
0
  6
Continuous
 62
     7
370
    25
100
AcDbCircle
 10
549.5995270441
 20
727.5582045803
 30
0.0
 40
3.345753785008617
100
AcDbArc
 50
24.4685203841
 51
92.8557067049
  0
ARC
  5
43A
330
1F
100
AcDbEntity
  8
0
  6
Continuous
 62
     7
370
    25
100
AcDbCircle
 10
548.9892683585
 20
728.1526979676
 30
0.0
 40
1.580940681619269
100
AcDbArc
 50
35.0195547267
 51
82.3046553987
  0
LINE
  5
43B
330
1F
100
AcDbEntity
  8
0
  6
Continuous
 62
     7
370
    25
100
AcDbLine
 10
549.2009652727
 20
729.7194008288
 30
0.0
 11
549.4328387426
 21
730.899803509
 31
0.0
  0
ARC
  5
43C
330
1F
100
AcDbEntity
  8
0
  6
Continuous
 62
     7
370
    25
100
AcDbCircle
 10
548.0266256799
 20
727.5675303847
 30
0.0
 40
2.220760215599666
100
AcDbArc
 50
93.5973615338
 51
131.0454950483
  0
SPLINE
  5
43D
330
1F
100
AcDbEntity
  8
0
  6
Continuous
 62
     7
370
    25
100
AcDbSpline
210
0.0
220
0.0
230
1.0
 70
     8
 71
     3
 72
     9
 73
     5
 74
     0
 42
0.000000001
 43
0.00000001
 40
0.0
 40
0.0
 40
0.0
 40
0.0
 40
0.8332522581576514
 40
1.0
 40
1.0
 40
1.0
 40
1.0
 10
547.9500909564714
 20
727.1535336348522
 30
0.0
 10
547.9328746593725
 20
727.8856623108602
 30
0.0
 10
547.9122130926856
 20
728.7643022051304
 30
0.0
 10
547.8908476892141
 20
729.6381951766712
 30
0.0
 10
547.8872850564318
 20
729.7839148562875
 30
0.0
  0
SPLINE
  5
43E
330
1F
100
AcDbEntity
  8
0
  6
Continuous
 62
     7
370
    25
100
AcDbSpline
210
0.0
220
0.0
230
1.0
 70
     8
 71
     3
 72
     9
 73
     5
 74
     0
 42
0.000000001
 43
0.00000001
 40
0.0
 40
0.0
 40
0.0
 40
0.0
 40
0.245416052792975
 40
1.0
 40
1.0
 40
1.0
 40
1.0
 10
546.42265128699
 20
728.586381320245
 30
0.0
 10
546.4343394272652
 20
728.6400968588857
 30
0.0
 10
546.4819652453081
 20
728.8589722667058
 30
0.0
 10
546.5311964446272
 20
729.0775025492857
 30
0.0
 10
546.568345517335
 20
729.2424019924991
 30
0.0
  0
ARC
  5
43F
330
1F
100
AcDbEntity
  8
0
  6
Continuous
 62
     7
370
    25
100
AcDbCircle
 10
547.7293832215
 20
726.3469992884
 30
0.0
 40
4.633740163242043
100
AcDbArc
 50
85.1747362972
 51
139.4680176364
  0
LINE
  5
440
330
1F
100
AcDbEntity
  8
0
  6
Continuous
 62
     7
370
    25
100
AcDbLine
 10
547.8872850564
 20
729.7839148563
 30
0.0
 11
548.1191605787
 21
730.9643168552
 31
0.0
  0
LINE
  5
441
330
1F
100
AcDbEntity
  8
0
  6
Continuous
 62
     7
370
    25
100
AcDbLine
 10
546.5683455173
 20
729.2424019925
 30
0.0
 11
544.2075399321
 21
729.3583391473
 31
0.0
  0
SPLINE
  5
442
330
1F
100
AcDbEntity
  8
0
  6
Continuous
 62
     7
370
    25
100
AcDbSpline
210
0.0
220
0.0
230
1.0
 70
     8
 71
     3
 72
     9
 73
     5
 74
     0
 42
0.000000001
 43
0.00000001
 40
0.0
 40
0.0
 40
0.0
 40
0.0
 40
0.0622197280382845
 40
1.0
 40
1.0
 40
1.0
 40
1.0
 10
548.1191605787434
 20
730.9643168551959
 30
0.0
 10
548.121188553085
 20
730.959741169256
 30
0.0
 10
548.1537823043838
 20
730.8862004116169
 30
0.0
 10
548.1863413442229
 20
730.8119603505522
 30
0.0
 10
548.2168745694579
 20
730.7423394858967
 30
0.0
  0
SPLINE
  5
443
330
1F
100
AcDbEntity
  8
0
  6
Continuous
 62
     7
370
    25
100
AcDbSpline
210
0.0
220
0.0
230
1.0
 70
     8
 71
     3
 72
     9
 73
     5
 74
     0
 42
0.000000001
 43
0.00000001
 40
0.0
 40
0.0
 40
0.0
 40
0.0
 40
0.4785454101687384
 40
1.0
 40
1.0
 40
1.0
 40
1.0
 10
544.207539932106
 20
729.3583391472566
 30
0.0
 10
544.0487423565137
 20
729.2514847928835
 30
0.0
 10
543.7169084861684
 20
729.0281948979174
 30
0.0
 10
543.3854870715554
 20
728.8044532223722
 30
0.0
 10
543.2126658537371
 20
728.6877820987227
 30
0.0
  0
LWPOLYLINE
  5
444
330
1F
100
AcDbEntity
  8
0
  6
Continuous
 62
     7
370
    25
100
AcDbPolyline
 90
       27
 70
   128
 43
0.0
 10
523.5874175771
 20
683.0648793968
 10
523.3646034128
 20
683.5569149227
 10
523.0459052184
 20
684.0108783923
 10
522.6498440851
 20
684.4003869127
 10
522.1994378973
 20
684.7028048299
 10
521.720862808
 20
684.9005542387
 10
521.2419313289
 20
684.9821451989
 10
520.7904777969
 20
684.9428345107
 10
520.3927389166
 20
684.7849068998
 10
520.0718295882
 20
684.5175411642
 10
519.8463999912
 20
684.1562737289
 10
519.729551377
 20
683.7221043228
 10
519.7280744486
 20
683.2402615351
 10
519.8420551762
 20
682.7387483844
 10
520.0648692074
 20
682.246712897
 10
520.3835675349
 20
681.7927483243
 10
520.7796285352
 20
681.4032409069
 10
521.2300347229
 20
681.1008240544
 10
521.7086098122
 20
680.9030725162
 10
522.1875410252
 20
680.8214816329
 10
522.6389945572
 20
680.8607923211
 10
523.0367338367
 20
681.0187198167
 10
523.3576427659
 20
681.2860867323
 10
523.5830727621
 20
681.647351923
 10
523.6999212433
 20
682.0815234968
 10
523.7013979055
 20
682.5633663614
 10
523.5874175771
 20
683.0648793968
  0
LINE
  5
445
330
1F
100
AcDbEntity
  8
0
  6
Continuous
 62
     7
370
    25
100
AcDbLine
 10
520.0869215921
 20
683.6413873965
 30
0.0
 11
520.6672922844
 21
681.9292878418
 31
0.0
  0
LINE
  5
446
330
1F
100
AcDbEntity
  8
0
  6
Continuous
 62
     7
370
    25
100
AcDbLine
 10
520.6672922844
 20
681.9292878418
 30
0.0
 11
522.2951068693
 21
681.1897143935
 31
0.0
  0
LINE
  5
447
330
1F
100
AcDbEntity
  8
0
  6
Continuous
 62
     7
370
    25
100
AcDbLine
 10
522.2951068693
 20
681.1897143935
 30
0.0
 11
523.342550895
 21
682.1622383322
 31
0.0
  0
LINE
  5
448
330
1F
100
AcDbEntity
  8
0
  6
Continuous
 62
     7
370
    25
100
AcDbLine
 10
523.342550895
 20
682.1622383322
 30
0.0
 11
522.7621800697
 21
683.87433899
 31
0.0
  0
LINE
  5
449
330
1F
100
AcDbEntity
  8
0
  6
Continuous
 62
     7
370
    25
100
AcDbLine
 10
522.7621800697
 20
683.87433899
 30
0.0
 11
521.1343654848
 21
684.6139135029
 31
0.0
  0
LINE
  5
44A
330
1F
100
AcDbEntity
  8
0
  6
Continuous
 62
     7
370
    25
100
AcDbLine
 10
521.1343654848
 20
684.6139135029
 30
0.0
 11
520.0869215921
 21
683.6413873965
 31
0.0
  0
LINE
  5
44B
330
1F
100
AcDbEntity
  8
0
  6
Continuous
 62
     7
370
    25
100
AcDbLine
 10
521.1839068019
 20
684.5914044557
 30
0.0
 11
520.0869215921
 21
683.6413873965
 31
0.0
  0
LINE
  5
44C
330
1F
100
AcDbEntity
  8
0
  6
Continuous
 62
     7
370
    25
100
AcDbLine
 10
522.6472923016
 20
683.6440181562
 30
0.0
 11
520.6672922844
 21
681.9292878418
 31
0.0
  0
LINE
  5
44D
330
1F
100
AcDbEntity
  8
0
  6
Continuous
 62
     7
370
    25
100
AcDbLine
 10
522.6472923016
 20
683.6440181562
 30
0.0
 11
522.8753833773
 21
683.5403896942
 31
0.0
  0
LINE
  5
44E
330
1F
100
AcDbEntity
  8
0
  6
Continuous
 62
     7
370
    25
100
AcDbLine
 10
522.5340891639
 20
683.9779702421
 30
0.0
 11
522.6472923016
 21
683.6440181562
 31
0.0
  0
LWPOLYLINE
  5
44F
330
1F
100
AcDbEntity
  8
0
  6
Continuous
 62
     8
370
    25
100
AcDbPolyline
 90
        7
 70
   128
 43
0.0
 10
549.940627922
 20
687.8950696271
 10
549.9393260448
 20
687.8954470436
 10
549.7392979606
 20
688.0065492381
 10
549.5751384988
 20
688.2108420448
 10
549.4531578913
 20
688.5004760381
 10
549.3780417896
 20
688.8643190601
 10
549.3526785418
 20
689.28839023
  0
ARC
  5
450
330
1F
100
AcDbEntity
  8
0
  6
Continuous
 62
     8
370
    25
100
AcDbCircle
 10
553.6046848084
 20
693.891727597
 30
0.0
 40
6.071368198731927
100
AcDbArc
 50
311.0601789232
 51
331.404382159
  0
LINE
  5
451
330
1F
100
AcDbEntity
  8
0
  6
Continuous
 62
     8
370
    25
100
AcDbLine
 10
571.3830099185
 20
705.1821701227
 30
0.0
 11
553.641653668
 21
710.3036585262
 31
0.0
  0
LINE
  5
452
330
1F
100
AcDbEntity
  8
0
  6
Continuous
 62
     8
370
    25
100
AcDbLine
 10
543.08363827
 20
713.3514950422
 30
0.0
 11
502.1997447683
 21
725.1536585016
 31
0.0
  0
LINE
  5
453
330
1F
100
AcDbEntity
  8
0
  6
Continuous
 62
     8
370
    25
100
AcDbLine
 10
491.6417314997
 20
728.201494403
 30
0.0
 11
484.9665583341
 21
730.128450915
 31
0.0
  0
ARC
  5
454
330
1F
100
AcDbEntity
  8
0
  6
Continuous
 62
     8
370
    25
100
AcDbCircle
 10
567.4651134369
 20
705.8945418675
 30
0.0
 40
6.070849221335076
100
AcDbArc
 50
310.9734237081
 51
331.4049117482
  0
LWPOLYLINE
  5
455
330
1F
100
AcDbEntity
  8
0
  6
Continuous
 62
     8
370
    25
100
AcDbPolyline
 90
        7
 70
   128
 43
0.0
 10
469.2523540786
 20
711.1877677616
 10
469.2512058696
 20
711.1881009954
 10
469.0511777854
 20
711.2992031899
 10
468.8870183235
 20
711.5034959966
 10
468.765037716
 20
711.7931299899
 10
468.6899216144
 20
712.1569730119
 10
468.6645583665
 20
712.5810441818
  0
ARC
  5
456
330
1F
100
AcDbEntity
  8
0
  6
Continuous
 62
     8
370
    25
100
AcDbCircle
 10
571.473786241
 20
705.0975375204
 30
0.0
 40
0.1241088960433597
100
AcDbArc
 50
83.0611844742
 51
137.005972039
  0
SPLINE
  5
457
330
1F
100
AcDbEntity
  8
0
  6
Continuous
 62
     8
370
    25
100
AcDbSpline
210
0.0
220
0.0
230
1.0
 70
     8
 71
     3
 72
     9
 73
     5
 74
     0
 42
0.000000001
 43
0.00000001
 40
0.0
 40
0.0
 40
0.0
 40
0.0
 40
0.5487717795446149
 40
1.0
 40
1.0
 40
1.0
 40
1.0
 10
572.9825476153638
 20
703.2532084776919
 30
0.0
 10
572.9643195982881
 20
703.2012025575989
 30
0.0
 10
572.9311035734207
 20
703.1064347105055
 30
0.0
 10
572.8376387650825
 20
703.0254674343956
 30
0.0
 10
572.7954648059409
 20
702.9889327144814
 30
0.0
  0
ARC
  5
458
330
1F
100
AcDbEntity
  8
0
  6
Continuous
 62
     8
370
    25
100
AcDbCircle
 10
485.0561229401
 20
730.0457793258
 30
0.0
 40
0.1218868750893309
100
AcDbArc
 50
80.4288633364
 51
137.2917954161
  0
LWPOLYLINE
  5
459
330
1F
100
AcDbEntity
  8
0
  6
Continuous
 62
     8
370
    25
100
AcDbPolyline
 90
        7
 70
   128
 43
0.0
 10
468.6645583665
 20
715.667558801
 10
468.243882333
 20
715.8182844675
 10
467.8901041913
 20
716.0071480232
 10
467.6168120349
 20
716.2268917464
 10
467.4345148213
 20
716.4690714381
 10
467.350210377
 20
716.7243805714
 10
467.344557952
 20
716.8114798325
  0
ARC
  5
45A
330
1F
100
AcDbEntity
  8
0
  6
Continuous
 62
     8
370
    25
100
AcDbCircle
 10
467.9505311972
 20
717.4611806168
 30
0.0
 40
0.2692050099243708
100
AcDbArc
 50
70.3190876314
 51
128.745160528
  0
LWPOLYLINE
  5
45B
330
1F
100
AcDbEntity
  8
0
  6
Continuous
 62
     8
370
    25
100
AcDbPolyline
 90
        7
 70
   128
 43
0.0
 10
467.3445578289
 20
713.7241979949
 10
467.350210377
 20
713.6378659522
 10
467.4345148213
 20
713.3825568189
 10
467.6168120349
 20
713.1403771272
 10
467.8901041913
 20
712.920633404
 10
468.243882333
 20
712.7317698484
 10
468.6645583665
 20
712.5810441818
  0
ARC
  5
45C
330
1F
100
AcDbEntity
  8
0
  6
Continuous
 62
     8
370
    25
100
AcDbCircle
 10
481.8105309042
 20
729.4643300792
 30
0.0
 40
0.2691697105360045
100
AcDbArc
 50
70.3163760839
 51
128.776737629
  0
LINE
  5
45D
330
1F
100
AcDbEntity
  8
0
  6
CENTERX2
 62
     7
370
    18
100
AcDbLine
 10
526.0701593856
 20
669.8897479772
 30
0.0
 11
526.0701593856
 21
626.9185008038
 31
0.0
  0
LINE
  5
45E
330
1F
100
AcDbEntity
  8
0
  6
CENTERX2
 62
     7
370
    18
100
AcDbLine
 10
526.0701593856
 20
669.8897479772
 30
0.0
 11
526.0701593856
 21
691.8711221418
 31
0.0
  0
ENDSEC
  0
SECTION
  2
OBJECTS
  0
DICTIONARY
  5
C
330
0
100
AcDbDictionary
281
     1
  3
ACAD_GROUP
350
D
  3
ACAD_LAYOUT
350
1A
  3
ACAD_MLINESTYLE
350
17
  3
ACAD_PLOTSETTINGS
350
19
  3
ACAD_PLOTSTYLENAME
350
E
  3
ACAD_SCALELIST
350
47
  0
DICTIONARY
  5
D
102
{ACAD_REACTORS
330
C
102
}
330
C
100
AcDbDictionary
281
     1
  0
DICTIONARY
  5
1A
102
{ACAD_REACTORS
330
C
102
}
330
C
100
AcDbDictionary
281
     1
  3
Layout1
350
1E
  3
Layout2
350
26
  3
Model
350
22
  0
DICTIONARY
  5
17
102
{ACAD_REACTORS
330
C
102
}
330
C
100
AcDbDictionary
281
     1
  3
Standard
350
18
  0
DICTIONARY
  5
19
102
{ACAD_REACTORS
330
C
102
}
330
C
100
AcDbDictionary
281
     1
  0
ACDBDICTIONARYWDFLT
  5
E
102
{ACAD_REACTORS
330
C
102
}
330
C
100
AcDbDictionary
281
     1
  3
Normal
350
F
100
AcDbDictionaryWithDefault
340
F
  0
DICTIONARY
  5
47
102
{ACAD_REACTORS
330
C
102
}
330
C
100
AcDbDictionary
281
     1
  3
A0
350
48
  3
A1
350
49
  3
A2
350
4A
  3
A3
350
4B
  3
A4
350
4C
  3
A5
350
4D
  3
A6
350
4E
  3
A7
350
4F
  3
A8
350
50
  3
A9
350
51
  3
B0
350
52
  3
B1
350
53
  3
B2
350
54
  3
B3
350
55
  3
B4
350
56
  3
B5
350
57
  3
B6
350
58
  3
B7
350
59
  3
B8
350
5A
  3
B9
350
5B
  3
C0
350
5C
  3
C1
350
5D
  3
C2
350
5E
  3
C3
350
5F
  3
C4
350
60
  3
C5
350
61
  3
C6
350
62
  3
C7
350
63
  3
C8
350
64
  3
C9
350
65
  3
D0
350
66
  3
D1
350
67
  3
D2
350
68
  0
LAYOUT
  5
1E
102
{ACAD_REACTORS
330
1A
102
}
330
1A
100
AcDbPlotSettings
  1

  2
none_device
  4

  6

 40
0.0
 41
0.0
 42
0.0
 43
0.0
 44
0.0
 45
0.0
 46
0.0
 47
0.0
 48
0.0
 49
0.0
140
0.0
141
0.0
142
1.0
143
1.0
 70
   688
 72
     1
 73
     0
 74
     5
  7

 75
    16
147
1.0
148
0.0
149
0.0
100
AcDbLayout
  1
Layout1
 70
     1
 71
     1
 10
0.0
 20
0.0
 11
420.0
 21
297.0
 12
0.0
 22
0.0
 32
0.0
 14
1.0000000000E+20
 24
1.0000000000E+20
 34
1.0000000000E+20
 15
-1.0000000000E+20
 25
-1.0000000000E+20
 35
-1.0000000000E+20
146
0.0
 13
0.0
 23
0.0
 33
0.0
 16
1.0
 26
0.0
 36
0.0
 17
0.0
 27
1.0
 37
0.0
 76
     0
330
1B
  0
LAYOUT
  5
26
102
{ACAD_REACTORS
330
1A
102
}
330
1A
100
AcDbPlotSettings
  1

  2
none_device
  4

  6

 40
0.0
 41
0.0
 42
0.0
 43
0.0
 44
0.0
 45
0.0
 46
0.0
 47
0.0
 48
0.0
 49
0.0
140
0.0
141
0.0
142
1.0
143
1.0
 70
   688
 72
     1
 73
     0
 74
     5
  7

 75
    16
147
1.0
148
0.0
149
0.0
100
AcDbLayout
  1
Layout2
 70
     1
 71
     2
 10
0.0
 20
0.0
 11
0.0
 21
0.0
 12
0.0
 22
0.0
 32
0.0
 14
0.0
 24
0.0
 34
0.0
 15
0.0
 25
0.0
 35
0.0
146
0.0
 13
0.0
 23
0.0
 33
0.0
 16
1.0
 26
0.0
 36
0.0
 17
0.0
 27
1.0
 37
0.0
 76
     0
330
23
  0
LAYOUT
  5
22
102
{ACAD_REACTORS
330
1A
102
}
330
1A
100
AcDbPlotSettings
  1

  2
none_device
  4
Letter_(8.50_x_11.00_Inches)
  6

 40
6.35
 41
6.35
 42
6.35000508
 43
6.35000508
 44
215.9
 45
279.4
 46
0.0
 47
0.0
 48
0.0
 49
0.0
140
0.0
141
0.0
142
1.0
143
1.0
 70
  1712
 72
     1
 73
     0
 74
     0
  7

 75
     0
147
1.0
148
0.0
149
0.0
100
AcDbLayout
  1
Model
 70
     1
 71
     0
 10
0.0
 20
0.0
 11
693.0
 21
980.1
 12
0.0
 22
0.0
 32
0.0
 14
0.0
 24
0.0
 34
0.0
 15
693.0
 25
980.1
 35
0.0
146
0.0
 13
0.0
 23
0.0
 33
0.0
 16
1.0
 26
0.0
 36
0.0
 17
0.0
 27
1.0
 37
0.0
 76
     0
330
1F
331
29
  0
MLINESTYLE
  5
18
102
{ACAD_REACTORS
330
17
102
}
330
17
100
AcDbMlineStyle
  2
Standard
 70
     0
  3

 62
   256
 51
90.0
 52
90.0
 71
     2
 49
0.5
 62
   256
  6
BYLAYER
 49
-0.5
 62
   256
  6
BYLAYER
  0
ACDBPLACEHOLDER
  5
F
102
{ACAD_REACTORS
330
E
102
}
330
E
  0
SCALE
  5
48
102
{ACAD_REACTORS
330
47
102
}
330
47
100
AcDbScale
 70
     0
300
1:1
140
1.0
141
1.0
290
     1
  0
SCALE
  5
49
102
{ACAD_REACTORS
330
47
102
}
330
47
100
AcDbScale
 70
     0
300
1:2
140
1.0
141
2.0
290
     0
  0
SCALE
  5
4A
102
{ACAD_REACTORS
330
47
102
}
330
47
100
AcDbScale
 70
     0
300
1:4
140
1.0
141
4.0
290
     0
  0
SCALE
  5
4B
102
{ACAD_REACTORS
330
47
102
}
330
47
100
AcDbScale
 70
     0
300
1:5
140
1.0
141
5.0
290
     0
  0
SCALE
  5
4C
102
{ACAD_REACTORS
330
47
102
}
330
47
100
AcDbScale
 70
     0
300
1:8
140
1.0
141
8.0
290
     0
  0
SCALE
  5
4D
102
{ACAD_REACTORS
330
47
102
}
330
47
100
AcDbScale
 70
     0
300
1:10
140
1.0
141
10.0
290
     0
  0
SCALE
  5
4E
102
{ACAD_REACTORS
330
47
102
}
330
47
100
AcDbScale
 70
     0
300
1:16
140
1.0
141
16.0
290
     0
  0
SCALE
  5
4F
102
{ACAD_REACTORS
330
47
102
}
330
47
100
AcDbScale
 70
     0
300
1:20
140
1.0
141
20.0
290
     0
  0
SCALE
  5
50
102
{ACAD_REACTORS
330
47
102
}
330
47
100
AcDbScale
 70
     0
300
1:30
140
1.0
141
30.0
290
     0
  0
SCALE
  5
51
102
{ACAD_REACTORS
330
47
102
}
330
47
100
AcDbScale
 70
     0
300
1:40
140
1.0
141
40.0
290
     0
  0
SCALE
  5
52
102
{ACAD_REACTORS
330
47
102
}
330
47
100
AcDbScale
 70
     0
300
1:50
140
1.0
141
50.0
290
     0
  0
SCALE
  5
53
102
{ACAD_REACTORS
330
47
102
}
330
47
100
AcDbScale
 70
     0
300
1:100
140
1.0
141
100.0
290
     0
  0
SCALE
  5
54
102
{ACAD_REACTORS
330
47
102
}
330
47
100
AcDbScale
 70
     0
300
2:1
140
2.0
141
1.0
290
     0
  0
SCALE
  5
55
102
{ACAD_REACTORS
330
47
102
}
330
47
100
AcDbScale
 70
     0
300
4:1
140
4.0
141
1.0
290
     0
  0
SCALE
  5
56
102
{ACAD_REACTORS
330
47
102
}
330
47
100
AcDbScale
 70
     0
300
8:1
140
8.0
141
1.0
290
     0
  0
SCALE
  5
57
102
{ACAD_REACTORS
330
47
102
}
330
47
100
AcDbScale
 70
     0
300
10:1
140
10.0
141
1.0
290
     0
  0
SCALE
  5
58
102
{ACAD_REACTORS
330
47
102
}
330
47
100
AcDbScale
 70
     0
300
100:1
140
100.0
141
1.0
290
     0
  0
SCALE
  5
59
102
{ACAD_REACTORS
330
47
102
}
330
47
100
AcDbScale
 70
     0
300
1/128" = 1'-0"
140
0.0078125
141
12.0
290
     0
  0
SCALE
  5
5A
102
{ACAD_REACTORS
330
47
102
}
330
47
100
AcDbScale
 70
     0
300
1/64" = 1'-0"
140
0.015625
141
12.0
290
     0
  0
SCALE
  5
5B
102
{ACAD_REACTORS
330
47
102
}
330
47
100
AcDbScale
 70
     0
300
1/32" = 1'-0"
140
0.03125
141
12.0
290
     0
  0
SCALE
  5
5C
102
{ACAD_REACTORS
330
47
102
}
330
47
100
AcDbScale
 70
     0
300
1/16" = 1'-0"
140
0.0625
141
12.0
290
     0
  0
SCALE
  5
5D
102
{ACAD_REACTORS
330
47
102
}
330
47
100
AcDbScale
 70
     0
300
3/32" = 1'-0"
140
0.09375
141
12.0
290
     0
  0
SCALE
  5
5E
102
{ACAD_REACTORS
330
47
102
}
330
47
100
AcDbScale
 70
     0
300
1/8" = 1'-0"
140
0.125
141
12.0
290
     0
  0
SCALE
  5
5F
102
{ACAD_REACTORS
330
47
102
}
330
47
100
AcDbScale
 70
     0
300
3/16" = 1'-0"
140
0.1875
141
12.0
290
     0
  0
SCALE
  5
60
102
{ACAD_REACTORS
330
47
102
}
330
47
100
AcDbScale
 70
     0
300
1/4" = 1'-0"
140
0.25
141
12.0
290
     0
  0
SCALE
  5
61
102
{ACAD_REACTORS
330
47
102
}
330
47
100
AcDbScale
 70
     0
300
3/8" = 1'-0"
140
0.375
141
12.0
290
     0
  0
SCALE
  5
62
102
{ACAD_REACTORS
330
47
102
}
330
47
100
AcDbScale
 70
     0
300
1/2" = 1'-0"
140
0.5
141
12.0
290
     0
  0
SCALE
  5
63
102
{ACAD_REACTORS
330
47
102
}
330
47
100
AcDbScale
 70
     0
300
3/4" = 1'-0"
140
0.75
141
12.0
290
     0
  0
SCALE
  5
64
102
{ACAD_REACTORS
330
47
102
}
330
47
100
AcDbScale
 70
     0
300
1" = 1'-0"
140
1.0
141
12.0
290
     0
  0
SCALE
  5
65
102
{ACAD_REACTORS
330
47
102
}
330
47
100
AcDbScale
 70
     0
300
1-1/2" = 1'-0"
140
1.5
141
12.0
290
     0
  0
SCALE
  5
66
102
{ACAD_REACTORS
330
47
102
}
330
47
100
AcDbScale
 70
     0
300
3" = 1'-0"
140
3.0
141
12.0
290
     0
  0
SCALE
  5
67
102
{ACAD_REACTORS
330
47
102
}
330
47
100
AcDbScale
 70
     0
300
6" = 1'-0"
140
6.0
141
12.0
290
     0
  0
SCALE
  5
68
102
{ACAD_REACTORS
330
47
102
}
330
47
100
AcDbScale
 70
     0
300
1'-0" = 1'-0"
140
12.0
141
12.0
290
     0
  0
ENDSEC
  0
EOF
