  0
SECTION
  2
HEADER
  9
$ACADVER
  1
AC1015
  9
$ACADMAINTVER
 70
     6
  9
$DWGCODEPAGE
  3
ANSI_1252
  9
$INSBASE
 10
0.0
 20
0.0
 30
0.0
  9
$EXTMIN
 10
0.0
 20
0.0
 30
0.0
  9
$EXTMAX
 10
693.0
 20
980.1
 30
0.0
  9
$LIMMIN
 10
0.0
 20
0.0
  9
$LIMMAX
 10
693.0
 20
980.1
  9
$ORTHOMODE
 70
     0
  9
$REGENMODE
 70
     1
  9
$FILLMODE
 70
     1
  9
$QTEXTMODE
 70
     0
  9
$MIRRTEXT
 70
     1
  9
$LTSCALE
 40
3.3
  9
$ATTMODE
 70
     1
  9
$TEXTSIZE
 40
9.24
  9
$TRACEWID
 40
1.0
  9
$TEXTSTYLE
  7
Standard
  9
$CLAYER
  8
0
  9
$CELTYPE
  6
ByLayer
  9
$CECOLOR
 62
   256
  9
$CELTSCALE
 40
1.0
  9
$DISPSILH
 70
     0
  9
$DIMSCALE
 40
1.0
  9
$DIMASZ
 40
10.56
  9
$DIMEXO
 40
0.33
  9
$DIMDLI
 40
3.75
  9
$DIMRND
 40
0.0
  9
$DIMDLE
 40
0.0
  9
$DIMEXE
 40
3.3
  9
$DIMTP
 40
0.0
  9
$DIMTM
 40
0.0
  9
$DIMTXT
 40
10.56
  9
$DIMCEN
 40
2.5
  9
$DIMTSZ
 40
0.0
  9
$DIMTOL
 70
     0
  9
$DIMLIM
 70
     0
  9
$DIMTIH
 70
     1
  9
$DIMTOH
 70
     1
  9
$DIMSE1
 70
     0
  9
$DIMSE2
 70
     0
  9
$DIMTAD
 70
     1
  9
$DIMZIN
 70
     0
  9
$DIMBLK
  1

  9
$DIMASO
 70
     1
  9
$DIMSHO
 70
     1
  9
$DIMPOST
  1

  9
$DIMAPOST
  1

  9
$DIMALT
 70
     0
  9
$DIMALTD
 70
     3
  9
$DIMALTF
 40
0.0393700787
  9
$DIMLFAC
 40
1.0
  9
$DIMTOFL
 70
     1
  9
$DIMTVP
 40
0.0
  9
$DIMTIX
 70
     0
  9
$DIMSOXD
 70
     0
  9
$DIMSAH
 70
     0
  9
$DIMBLK1
  1

  9
$DIMBLK2
  1

  9
$DIMSTYLE
  2
ISO-25
  9
$DIMCLRD
 70
     0
  9
$DIMCLRE
 70
     0
  9
$DIMCLRT
 70
     0
  9
$DIMTFAC
 40
1.0
  9
$DIMGAP
 40
6.6
  9
$DIMJUST
 70
     0
  9
$DIMSD1
 70
     0
  9
$DIMSD2
 70
     0
  9
$DIMTOLJ
 70
     0
  9
$DIMTZIN
 70
     0
  9
$DIMALTZ
 70
     0
  9
$DIMALTTZ
 70
     0
  9
$DIMUPT
 70
     0
  9
$DIMDEC
 70
     2
  9
$DIMTDEC
 70
     2
  9
$DIMALTU
 70
     2
  9
$DIMALTTD
 70
     3
  9
$DIMTXSTY
  7
Standard
  9
$DIMAUNIT
 70
     0
  9
$DIMADEC
 70
     2
  9
$DIMALTRND
 40
0.0
  9
$DIMAZIN
 70
     0
  9
$DIMDSEP
 70
    44
  9
$DIMATFIT
 70
     3
  9
$DIMFRAC
 70
     0
  9
$DIMLDRBLK
  1

  9
$DIMLUNIT
 70
     2
  9
$DIMLWD
 70
    -2
  9
$DIMLWE
 70
    -2
  9
$DIMTMOVE
 70
     0
  9
$LUNITS
 70
     2
  9
$LUPREC
 70
     2
  9
$SKETCHINC
 40
1.0
  9
$FILLETRAD
 40
10.0
  9
$AUNITS
 70
     0
  9
$AUPREC
 70
     2
  9
$MENU
  1
.
  9
$ELEVATION
 40
0.0
  9
$PELEVATION
 40
0.0
  9
$THICKNESS
 40
0.0
  9
$LIMCHECK
 70
     0
  9
$CHAMFERA
 40
0.0
  9
$CHAMFERB
 40
0.0
  9
$CHAMFERC
 40
0.0
  9
$CHAMFERD
 40
0.0
  9
$SKPOLY
 70
     0
  9
$TDCREATE
 40
2458358.612440243
  9
$TDUCREATE
 40
2458358.52910691
  9
$TDUPDATE
 40
2458358.612444537
  9
$TDUUPDATE
 40
2458358.529111204
  9
$TDINDWG
 40
0.0000000116
  9
$TDUSRTIMER
 40
0.0000000116
  9
$USRTIMER
 70
     1
  9
$ANGBASE
 50
0.0
  9
$ANGDIR
 70
     0
  9
$PDMODE
 70
     0
  9
$PDSIZE
 40
-1.0
  9
$PLINEWID
 40
0.0
  9
$SPLFRAME
 70
     0
  9
$SPLINETYPE
 70
     6
  9
$SPLINESEGS
 70
     8
  9
$HANDSEED
  5
409
  9
$SURFTAB1
 70
     6
  9
$SURFTAB2
 70
     6
  9
$SURFTYPE
 70
     6
  9
$SURFU
 70
     6
  9
$SURFV
 70
     6
  9
$UCSBASE
  2

  9
$UCSNAME
  2

  9
$UCSORG
 10
0.0
 20
0.0
 30
0.0
  9
$UCSXDIR
 10
1.0
 20
0.0
 30
0.0
  9
$UCSYDIR
 10
0.0
 20
1.0
 30
0.0
  9
$UCSORTHOREF
  2

  9
$UCSORTHOVIEW
 70
     0
  9
$UCSORGTOP
 10
0.0
 20
0.0
 30
0.0
  9
$UCSORGBOTTOM
 10
0.0
 20
0.0
 30
0.0
  9
$UCSORGLEFT
 10
0.0
 20
0.0
 30
0.0
  9
$UCSORGRIGHT
 10
0.0
 20
0.0
 30
0.0
  9
$UCSORGFRONT
 10
0.0
 20
0.0
 30
0.0
  9
$UCSORGBACK
 10
0.0
 20
0.0
 30
0.0
  9
$PUCSBASE
  2

  9
$PUCSNAME
  2

  9
$PUCSORG
 10
0.0
 20
0.0
 30
0.0
  9
$PUCSXDIR
 10
1.0
 20
0.0
 30
0.0
  9
$PUCSYDIR
 10
0.0
 20
1.0
 30
0.0
  9
$PUCSORTHOREF
  2

  9
$PUCSORTHOVIEW
 70
     0
  9
$PUCSORGTOP
 10
0.0
 20
0.0
 30
0.0
  9
$PUCSORGBOTTOM
 10
0.0
 20
0.0
 30
0.0
  9
$PUCSORGLEFT
 10
0.0
 20
0.0
 30
0.0
  9
$PUCSORGRIGHT
 10
0.0
 20
0.0
 30
0.0
  9
$PUCSORGFRONT
 10
0.0
 20
0.0
 30
0.0
  9
$PUCSORGBACK
 10
0.0
 20
0.0
 30
0.0
  9
$USERI1
 70
     0
  9
$USERI2
 70
     0
  9
$USERI3
 70
     0
  9
$USERI4
 70
     0
  9
$USERI5
 70
     0
  9
$USERR1
 40
0.0
  9
$USERR2
 40
0.0
  9
$USERR3
 40
0.0
  9
$USERR4
 40
0.0
  9
$USERR5
 40
0.0
  9
$WORLDVIEW
 70
     1
  9
$SHADEDGE
 70
     3
  9
$SHADEDIF
 70
    70
  9
$TILEMODE
 70
     1
  9
$MAXACTVP
 70
    64
  9
$PINSBASE
 10
0.0
 20
0.0
 30
0.0
  9
$PLIMCHECK
 70
     0
  9
$PEXTMIN
 10
1.0000000000E+20
 20
1.0000000000E+20
 30
1.0000000000E+20
  9
$PEXTMAX
 10
-1.0000000000E+20
 20
-1.0000000000E+20
 30
-1.0000000000E+20
  9
$PLIMMIN
 10
0.0
 20
0.0
  9
$PLIMMAX
 10
420.0
 20
297.0
  9
$UNITMODE
 70
     0
  9
$VISRETAIN
 70
     1
  9
$PLINEGEN
 70
     0
  9
$PSLTSCALE
 70
     1
  9
$TREEDEPTH
 70
  3020
  9
$CMLSTYLE
  2
Standard
  9
$CMLJUST
 70
     0
  9
$CMLSCALE
 40
20.0
  9
$PROXYGRAPHICS
 70
     1
  9
$MEASUREMENT
 70
     1
  9
$CELWEIGHT
370
    -1
  9
$ENDCAPS
280
     0
  9
$JOINSTYLE
280
     0
  9
$LWDISPLAY
290
     1
  9
$INSUNITS
 70
     4
  9
$HYPERLINKBASE
  1

  9
$STYLESHEET
  1

  9
$XEDIT
290
     1
  9
$CEPSNTYPE
380
     0
  9
$PSTYLEMODE
290
     1
  9
$FINGERPRINTGUID
  2
{B95EEF31-F23B-4775-A7BF-5E332574AD6F}
  9
$VERSIONGUID
  2
{FAEB1C32-E019-11D5-929B-00C0DF256EC4}
  9
$EXTNAMES
290
     1
  9
$PSVPSCALE
 40
0.0
  9
$OLESTARTUP
290
     0
  0
ENDSEC
  0
SECTION
  2
CLASSES
  0
CLASS
  1
ACDBDICTIONARYWDFLT
  2
AcDbDictionaryWithDefault
  3
ObjectDBX Classes
 90
        0
280
     0
281
     0
  0
CLASS
  1
VISUALSTYLE
  2
AcDbVisualStyle
  3
ObjectDBX Classes
 90
     4095
280
     0
281
     0
  0
CLASS
  1
MATERIAL
  2
AcDbMaterial
  3
ObjectDBX Classes
 90
     1153
280
     0
281
     0
  0
CLASS
  1
SCALE
  2
AcDbScale
  3
ObjectDBX Classes
 90
     1153
280
     0
281
     0
  0
CLASS
  1
TABLESTYLE
  2
AcDbTableStyle
  3
ObjectDBX Classes
 90
     4095
280
     0
281
     0
  0
CLASS
  1
MLEADERSTYLE
  2
AcDbMLeaderStyle
  3
ACDB_MLEADERSTYLE_CLASS
 90
     4095
280
     0
281
     0
  0
CLASS
  1
SUN
  2
AcDbSun
  3
SCENEOE
 90
     1153
280
     0
281
     0
  0
CLASS
  1
ACDBPLACEHOLDER
  2
AcDbPlaceHolder
  3
ObjectDBX Classes
 90
        0
280
     0
281
     0
  0
CLASS
  1
LAYOUT
  2
AcDbLayout
  3
ObjectDBX Classes
 90
        0
280
     0
281
     0
  0
ENDSEC
  0
SECTION
  2
TABLES
  0
TABLE
  2
VPORT
  5
8
330
0
100
AcDbSymbolTable
 70
     1
  0
VPORT
  5
29
330
8
100
AcDbSymbolTableRecord
100
AcDbViewportTableRecord
  2
*Active
 70
     0
 10
0.0
 20
0.0
 11
1.0
 21
1.0
 12
346.5
 22
490.05
 13
0.0
 23
0.0
 14
10.0
 24
10.0
 15
10.0
 25
10.0
 16
0.0
 26
0.0
 36
1.0
 17
0.0
 27
0.0
 37
0.0
 40
980.1
 41
0.7070707071
 42
50.0
 43
0.0
 44
0.0
 50
0.0
 51
0.0
 71
     0
 72
  2000
 73
     1
 74
     3
 75
     0
 76
     0
 77
     0
 78
     0
281
     0
 65
     1
110
0.0
120
0.0
130
0.0
111
1.0
121
0.0
131
0.0
112
0.0
122
1.0
132
0.0
 79
     0
146
0.0
  0
ENDTAB
  0
TABLE
  2
LTYPE
  5
5
330
0
100
AcDbSymbolTable
 70
     6
  0
LTYPE
  5
14
330
5
100
AcDbSymbolTableRecord
100
AcDbLinetypeTableRecord
  2
ByBlock
 70
     0
  3

 72
    65
 73
     0
 40
0.0
  0
LTYPE
  5
15
330
5
100
AcDbSymbolTableRecord
100
AcDbLinetypeTableRecord
  2
ByLayer
 70
     0
  3

 72
    65
 73
     0
 40
0.0
  0
LTYPE
  5
16
330
5
100
AcDbSymbolTableRecord
100
AcDbLinetypeTableRecord
  2
Continuous
 70
     0
  3
Solid line
 72
    65
 73
     0
 40
0.0
  0
LTYPE
  5
6E
330
5
100
AcDbSymbolTableRecord
100
AcDbLinetypeTableRecord
  2
HIDDEN
 70
     0
  3
Hidden __ __ __ __ __ __ __ __ __ __ __ __ __ __
 72
    65
 73
     2
 40
1.905
 49
1.27
 74
     0
 49
-0.635
 74
     0
  0
LTYPE
  5
6F
330
5
100
AcDbSymbolTableRecord
100
AcDbLinetypeTableRecord
  2
PHANTOM
 70
     0
  3
Phantom ______  __  __  ______  __  __  ______
 72
    65
 73
     6
 40
12.7
 49
6.35
 74
     0
 49
-1.27
 74
     0
 49
1.27
 74
     0
 49
-1.27
 74
     0
 49
1.27
 74
     0
 49
-1.27
 74
     0
  0
LTYPE
  5
70
330
5
100
AcDbSymbolTableRecord
100
AcDbLinetypeTableRecord
  2
CENTER
 70
     0
  3
Center ____ _ ____ _ ____ _ ____ _ ____ _ ____
 72
    65
 73
     4
 40
10.16
 49
6.35
 74
     0
 49
-1.27
 74
     0
 49
1.27
 74
     0
 49
-1.27
 74
     0
  0
LTYPE
  5
71
330
5
100
AcDbSymbolTableRecord
100
AcDbLinetypeTableRecord
  2
CENTERX2
 70
     0
  3
Center (2x) ________  __  ________  __  _____
 72
    65
 73
     4
 40
20.32
 49
12.7
 74
     0
 49
-2.54
 74
     0
 49
2.54
 74
     0
 49
-2.54
 74
     0
  0
LTYPE
  5
72
330
5
100
AcDbSymbolTableRecord
100
AcDbLinetypeTableRecord
  2
DOT2
 70
     0
  3
Dot (.5x) ........................................
 72
    65
 73
     2
 40
0.635
 49
0.0
 74
     0
 49
-0.635
 74
     0
  0
ENDTAB
  0
TABLE
  2
LAYER
  5
2
330
0
100
AcDbSymbolTable
 70
     2
  0
LAYER
  5
10
330
2
100
AcDbSymbolTableRecord
100
AcDbLayerTableRecord
  2
0
 70
     0
 62
     7
  6
Continuous
370
    -3
390
F
  0
LAYER
  5
73
330
2
100
AcDbSymbolTableRecord
100
AcDbLayerTableRecord
  2
FORMAT
 70
     0
 62
     7
  6
Continuous
370
    -3
390
F
  0
ENDTAB
  0
TABLE
  2
STYLE
  5
3
330
0
100
AcDbSymbolTable
 70
     4
  0
STYLE
  5
11
330
3
100
AcDbSymbolTableRecord
100
AcDbTextStyleTableRecord
  2
Standard
 70
     0
 40
0.0
 41
1.0
 50
0.0
 71
     0
 42
9.24
  3
txt
  4

  0
STYLE
  5
10B
330
3
100
AcDbSymbolTableRecord
100
AcDbTextStyleTableRecord
  2
SLDTEXTSTYLE0
 70
     0
 40
0.0
 41
0.75
 50
0.0
 71
     0
 42
9.24
  3
TXT
  4

  0
STYLE
  5
185
330
3
100
AcDbSymbolTableRecord
100
AcDbTextStyleTableRecord
  2
SLDTEXTSTYLE1
 70
     0
 40
0.0
 41
0.7
 50
0.0
 71
     0
 42
9.24
  3
TXT
  4

  0
STYLE
  5
2BE
330
3
100
AcDbSymbolTableRecord
100
AcDbTextStyleTableRecord
  2
SLDTEXTSTYLE2
 70
     0
 40
0.0
 41
0.6944444444
 50
0.0
 71
     0
 42
9.24
  3
TXT
  4

  0
ENDTAB
  0
TABLE
  2
VIEW
  5
6
330
0
100
AcDbSymbolTable
 70
     0
  0
ENDTAB
  0
TABLE
  2
UCS
  5
7
330
0
100
AcDbSymbolTable
 70
     0
  0
ENDTAB
  0
TABLE
  2
APPID
  5
9
330
0
100
AcDbSymbolTable
 70
     1
  0
APPID
  5
12
330
9
100
AcDbSymbolTableRecord
100
AcDbRegAppTableRecord
  2
ACAD
 70
     0
  0
ENDTAB
  0
TABLE
  2
DIMSTYLE
  5
A
330
0
100
AcDbSymbolTable
 70
     6
100
AcDbDimStyleTable
  0
DIMSTYLE
105
27
330
A
100
AcDbSymbolTableRecord
100
AcDbDimStyleTableRecord
  2
ISO-25
 70
     0
 41
2.5
 42
0.625
 43
3.75
 44
1.25
 73
     0
 74
     0
 77
     1
 78
     8
140
2.5
141
2.5
143
0.0393700787
147
0.625
171
     3
172
     1
178
     0
271
     2
272
     2
274
     3
278
    44
283
     0
284
     8
340
11
  0
DIMSTYLE
105
10C
102
{ACAD_REACTORS
330
10A
330
143
330
150
330
168
330
172
330
192
330
1A2
330
287
330
29D
330
2B3
102
}
330
A
100
AcDbSymbolTableRecord
100
AcDbDimStyleTableRecord
  2
SLDDIMSTYLE0
 70
     0
 41
10.56
 44
0.0
 45
0.000000001
 73
     0
 74
     0
 77
     1
 78
    12
 79
     3
140
10.56
147
2.64
172
     1
173
     1
178
     0
271
     2
272
     2
276
     2
284
    12
289
     0
340
10B
  0
DIMSTYLE
105
119
102
{ACAD_REACTORS
330
118
330
123
330
12C
330
293
330
2A9
102
}
330
A
100
AcDbSymbolTableRecord
100
AcDbDimStyleTableRecord
  2
SLDDIMSTYLE1
 70
     0
 41
10.56
 44
0.0
 45
0.000000001
 73
     0
 74
     0
 77
     1
 78
    12
 79
     3
140
10.56
147
2.64
173
     1
178
     0
271
     2
272
     2
276
     2
284
    12
340
10B
  0
DIMSTYLE
105
137
102
{ACAD_REACTORS
330
136
102
}
330
A
100
AcDbSymbolTableRecord
100
AcDbDimStyleTableRecord
  2
SLDDIMSTYLE2
 70
     0
 41
10.56
 44
0.0
 45
0.000000001
 73
     0
 74
     0
 77
     1
 78
    12
 79
     3
140
10.56
147
2.64
172
     1
173
     1
178
     0
271
     0
272
     0
276
     2
284
    12
289
     0
340
10B
  0
DIMSTYLE
105
15E
102
{ACAD_REACTORS
330
15D
330
188
102
}
330
A
100
AcDbSymbolTableRecord
100
AcDbDimStyleTableRecord
  2
SLDDIMSTYLE3
 70
     0
 41
10.56
 44
0.0
 45
0.000000001
 73
     0
 74
     0
 77
     1
 78
    12
 79
     3
140
10.56
147
2.64
173
     1
178
     0
271
     0
272
     0
276
     2
284
    12
340
10B
  0
DIMSTYLE
105
2C7
330
A
100
AcDbSymbolTableRecord
100
AcDbDimStyleTableRecord
  2
SLDDIMSTYLE4
 70
     0
 41
10.56
 44
0.0
 45
0.000000001
146
10.56
147
0.0
173
     1
178
     0
271
     0
272
     0
276
     2
340
11
  0
ENDTAB
  0
TABLE
  2
BLOCK_RECORD
  5
1
330
0
100
AcDbSymbolTable
 70
    20
  0
BLOCK_RECORD
  5
1F
330
1
100
AcDbSymbolTableRecord
100
AcDbBlockTableRecord
  2
*Model_Space
340
22
  0
BLOCK_RECORD
  5
1B
330
1
100
AcDbSymbolTableRecord
100
AcDbBlockTableRecord
  2
*Paper_Space
340
1E
  0
BLOCK_RECORD
  5
23
330
1
100
AcDbSymbolTableRecord
100
AcDbBlockTableRecord
  2
*Paper_Space0
340
26
  0
BLOCK_RECORD
  5
10D
330
1
100
AcDbSymbolTableRecord
100
AcDbBlockTableRecord
  2
_D
340
0
  0
BLOCK_RECORD
  5
11A
330
1
100
AcDbSymbolTableRecord
100
AcDbBlockTableRecord
  2
_D_1
340
0
  0
BLOCK_RECORD
  5
124
330
1
100
AcDbSymbolTableRecord
100
AcDbBlockTableRecord
  2
_D_2
340
0
  0
BLOCK_RECORD
  5
12D
330
1
100
AcDbSymbolTableRecord
100
AcDbBlockTableRecord
  2
_D_3
340
0
  0
BLOCK_RECORD
  5
138
330
1
100
AcDbSymbolTableRecord
100
AcDbBlockTableRecord
  2
_D_4
340
0
  0
BLOCK_RECORD
  5
144
330
1
100
AcDbSymbolTableRecord
100
AcDbBlockTableRecord
  2
_D_5
340
0
  0
BLOCK_RECORD
  5
151
330
1
100
AcDbSymbolTableRecord
100
AcDbBlockTableRecord
  2
_D_6
340
0
  0
BLOCK_RECORD
  5
15F
330
1
100
AcDbSymbolTableRecord
100
AcDbBlockTableRecord
  2
_D_7
340
0
  0
BLOCK_RECORD
  5
169
330
1
100
AcDbSymbolTableRecord
100
AcDbBlockTableRecord
  2
_D_8
340
0
  0
BLOCK_RECORD
  5
173
330
1
100
AcDbSymbolTableRecord
100
AcDbBlockTableRecord
  2
_D_9
340
0
  0
BLOCK_RECORD
  5
189
330
1
100
AcDbSymbolTableRecord
100
AcDbBlockTableRecord
  2
_D_10
340
0
  0
BLOCK_RECORD
  5
193
330
1
100
AcDbSymbolTableRecord
100
AcDbBlockTableRecord
  2
_D_11
340
0
  0
BLOCK_RECORD
  5
1A3
330
1
100
AcDbSymbolTableRecord
100
AcDbBlockTableRecord
  2
_D_12
340
0
  0
BLOCK_RECORD
  5
288
330
1
100
AcDbSymbolTableRecord
100
AcDbBlockTableRecord
  2
_D_13
340
0
  0
BLOCK_RECORD
  5
294
330
1
100
AcDbSymbolTableRecord
100
AcDbBlockTableRecord
  2
_D_14
340
0
  0
BLOCK_RECORD
  5
29E
330
1
100
AcDbSymbolTableRecord
100
AcDbBlockTableRecord
  2
_D_15
340
0
  0
BLOCK_RECORD
  5
2AA
330
1
100
AcDbSymbolTableRecord
100
AcDbBlockTableRecord
  2
_D_16
340
0
  0
BLOCK_RECORD
  5
2B4
330
1
100
AcDbSymbolTableRecord
100
AcDbBlockTableRecord
  2
_D_17
340
0
  0
BLOCK_RECORD
  5
2C1
330
1
100
AcDbSymbolTableRecord
100
AcDbBlockTableRecord
  2
SW_NOTE_0
340
0
102
{BLKREFS
331
2C6
102
}
  0
ENDTAB
  0
ENDSEC
  0
SECTION
  2
BLOCKS
  0
BLOCK
  5
20
330
1F
100
AcDbEntity
  8
0
100
AcDbBlockBegin
  2
*Model_Space
 70
     0
 10
0.0
 20
0.0
 30
0.0
  3
*Model_Space
  1

  0
ENDBLK
  5
21
330
1F
100
AcDbEntity
  8
0
100
AcDbBlockEnd
  0
BLOCK
  5
1C
330
1B
100
AcDbEntity
 67
     1
  8
0
100
AcDbBlockBegin
  2
*Paper_Space
 70
     0
 10
0.0
 20
0.0
 30
0.0
  3
*Paper_Space
  1

  0
ENDBLK
  5
1D
330
1B
100
AcDbEntity
 67
     1
  8
0
100
AcDbBlockEnd
  0
BLOCK
  5
24
330
23
100
AcDbEntity
  8
0
100
AcDbBlockBegin
  2
*Paper_Space0
 70
     0
 10
0.0
 20
0.0
 30
0.0
  3
*Paper_Space0
  1

  0
ENDBLK
  5
25
330
23
100
AcDbEntity
  8
0
100
AcDbBlockEnd
  0
BLOCK
  5
10E
330
10D
100
AcDbEntity
  8
0
100
AcDbBlockBegin
  2
_D
 70
     0
 10
0.0
 20
0.0
 30
0.0
  3
_D
  1

  0
SOLID
  5
110
330
10D
100
AcDbEntity
  8
0
  6
Continuous
 62
     7
370
    18
100
AcDbTrace
 10
98.6837990648
 20
663.255650517
 30
0.0
 11
109.2437990648
 21
661.6310351323
 31
0.0
 12
109.2437990648
 22
664.8802659016
 32
0.0
 13
109.2437990648
 23
664.8802659016
 33
0.0
  0
SOLID
  5
111
330
10D
100
AcDbEntity
  8
0
  6
Continuous
 62
     7
370
    18
100
AcDbTrace
 10
95.6849416873
 20
663.255650517
 30
0.0
 11
85.1249416873
 21
664.8802659016
 31
0.0
 12
85.1249416873
 22
661.6310351323
 32
0.0
 13
85.1249416873
 23
661.6310351323
 33
0.0
  0
LINE
  5
112
330
10D
100
AcDbEntity
  8
0
  6
Continuous
 62
     7
370
    18
100
AcDbLine
 10
98.6837990648
 20
644.3157060141
 30
0.0
 11
98.6837990648
 21
666.555650517
 31
0.0
  0
LINE
  5
113
330
10D
100
AcDbEntity
  8
0
  6
Continuous
 62
     7
370
    18
100
AcDbLine
 10
95.6849416873
 20
646.8696111766
 30
0.0
 11
95.6849416873
 21
666.555650517
 31
0.0
  0
LINE
  5
114
330
10D
100
AcDbEntity
  8
0
  6
Continuous
 62
     7
370
    18
100
AcDbLine
 10
98.6837990648
 20
663.255650517
 30
0.0
 11
118.9914913725
 21
663.255650517
 31
0.0
  0
LINE
  5
115
330
10D
100
AcDbEntity
  8
0
  6
Continuous
 62
     7
370
    18
100
AcDbLine
 10
98.6837990648
 20
663.255650517
 30
0.0
 11
95.6849416873
 21
663.255650517
 31
0.0
  0
LINE
  5
116
330
10D
100
AcDbEntity
  8
0
  6
Continuous
 62
     7
370
    18
100
AcDbLine
 10
95.6849416873
 20
663.255650517
 30
0.0
 11
64.9697128961
 21
663.255650517
 31
0.0
  0
MTEXT
  5
117
330
10D
100
AcDbEntity
  8
0
  6
Continuous
 62
     7
370
    18
100
AcDbMText
 10
64.9697128961
 20
676.8682052727
 30
0.0
 40
10.56
 41
0.0
 71
     1
 72
     1
  1
3
  7
SLDTEXTSTYLE0
 73
     1
 44
1.0
  0
ENDBLK
  5
10F
330
10D
100
AcDbEntity
  8
0
100
AcDbBlockEnd
  0
BLOCK
  5
11B
330
11A
100
AcDbEntity
  8
0
100
AcDbBlockBegin
  2
_D_1
 70
     0
 10
0.0
 20
0.0
 30
0.0
  3
_D_1
  1

  0
SOLID
  5
11D
330
11A
100
AcDbEntity
  8
0
  6
Continuous
 62
     7
370
    18
100
AcDbTrace
 10
130.3849416873
 20
417.2694391251
 30
0.0
 11
140.9449416873
 21
415.6448237404
 31
0.0
 12
140.9449416873
 22
418.8940545097
 32
0.0
 13
140.9449416873
 23
418.8940545097
 33
0.0
  0
SOLID
  5
11E
330
11A
100
AcDbEntity
  8
0
  6
Continuous
 62
     7
370
    18
100
AcDbTrace
 10
179.3849416873
 20
417.2694391251
 30
0.0
 11
168.8249416873
 21
418.8940545097
 31
0.0
 12
168.8249416873
 22
415.6448237404
 32
0.0
 13
168.8249416873
 23
415.6448237404
 33
0.0
  0
LINE
  5
11F
330
11A
100
AcDbEntity
  8
0
  6
Continuous
 62
     7
370
    18
100
AcDbLine
 10
130.3849416873
 20
506.5351360299
 30
0.0
 11
130.3849416873
 21
413.9694391251
 31
0.0
  0
LINE
  5
120
330
11A
100
AcDbEntity
  8
0
  6
Continuous
 62
     7
370
    18
100
AcDbLine
 10
179.3849416873
 20
512.1359966489
 30
0.0
 11
179.3849416873
 21
413.9694391251
 31
0.0
  0
LINE
  5
121
330
11A
100
AcDbEntity
  8
0
  6
Continuous
 62
     7
370
    18
100
AcDbLine
 10
130.3849416873
 20
417.2694391251
 30
0.0
 11
179.3849416873
 21
417.2694391251
 31
0.0
  0
MTEXT
  5
122
330
11A
100
AcDbEntity
  8
0
  6
Continuous
 62
     7
370
    18
100
AcDbMText
 10
148.1040696987
 20
430.8819938808
 30
0.0
 40
10.56
 41
0.0
 71
     1
 72
     1
  1
49
  7
SLDTEXTSTYLE0
 73
     1
 44
1.0
  0
ENDBLK
  5
11C
330
11A
100
AcDbEntity
  8
0
100
AcDbBlockEnd
  0
BLOCK
  5
125
330
124
100
AcDbEntity
  8
0
100
AcDbBlockBegin
  2
_D_2
 70
     0
 10
0.0
 20
0.0
 30
0.0
  3
_D_2
  1

  0
SOLID
  5
127
330
124
100
AcDbEntity
  8
0
  6
Continuous
 62
     7
370
    18
100
AcDbTrace
 10
95.6849416873
 20
680.8131656007
 30
0.0
 11
106.2449416873
 21
679.1885502161
 31
0.0
 12
106.2449416873
 22
682.4377809853
 32
0.0
 13
106.2449416873
 23
682.4377809853
 33
0.0
  0
SOLID
  5
128
330
124
100
AcDbEntity
  8
0
  6
Continuous
 62
     7
370
    18
100
AcDbTrace
 10
155.6837990648
 20
680.8131656007
 30
0.0
 11
145.1237990648
 21
682.4377809853
 31
0.0
 12
145.1237990648
 22
679.1885502161
 32
0.0
 13
145.1237990648
 23
679.1885502161
 33
0.0
  0
LINE
  5
129
330
124
100
AcDbEntity
  8
0
  6
Continuous
 62
     7
370
    18
100
AcDbLine
 10
95.6849416873
 20
646.8696111766
 30
0.0
 11
95.6849416873
 21
684.1131656007
 31
0.0
  0
LINE
  5
12A
330
124
100
AcDbEntity
  8
0
  6
Continuous
 62
     7
370
    18
100
AcDbLine
 10
95.6849416873
 20
680.8131656007
 30
0.0
 11
155.6837990648
 21
680.8131656007
 31
0.0
  0
MTEXT
  5
12B
330
124
100
AcDbEntity
  8
0
  6
Continuous
 62
     7
370
    18
100
AcDbMText
 10
124.0413834522
 20
694.4257203564
 30
0.0
 40
10.56
 41
0.0
 71
     1
 72
     1
  1
60
  7
SLDTEXTSTYLE0
 73
     1
 44
1.0
  0
ENDBLK
  5
126
330
124
100
AcDbEntity
  8
0
100
AcDbBlockEnd
  0
BLOCK
  5
12E
330
12D
100
AcDbEntity
  8
0
100
AcDbBlockBegin
  2
_D_3
 70
     0
 10
0.0
 20
0.0
 30
0.0
  3
_D_3
  1

  0
SOLID
  5
130
330
12D
100
AcDbEntity
  8
0
  6
Continuous
 62
     7
370
    18
100
AcDbTrace
 10
32.6849416873
 20
539.8694391251
 30
0.0
 11
31.0603263027
 21
529.3094391251
 31
0.0
 12
34.3095570719
 22
529.3094391251
 32
0.0
 13
34.3095570719
 23
529.3094391251
 33
0.0
  0
SOLID
  5
131
330
12D
100
AcDbEntity
  8
0
  6
Continuous
 62
     7
370
    18
100
AcDbTrace
 10
32.6849416873
 20
506.8651360299
 30
0.0
 11
34.3095570719
 21
517.4251360299
 31
0.0
 12
31.0603263027
 22
517.4251360299
 32
0.0
 13
31.0603263027
 23
517.4251360299
 33
0.0
  0
LINE
  5
132
330
12D
100
AcDbEntity
  8
0
  6
Continuous
 62
     7
370
    18
100
AcDbLine
 10
108.0549416873
 20
539.8694391251
 30
0.0
 11
29.3849416873
 21
539.8694391251
 31
0.0
  0
LINE
  5
133
330
12D
100
AcDbEntity
  8
0
  6
Continuous
 62
     7
370
    18
100
AcDbLine
 10
130.0549416873
 20
506.8651360299
 30
0.0
 11
29.3849416873
 21
506.8651360299
 31
0.0
  0
LINE
  5
134
330
12D
100
AcDbEntity
  8
0
  6
Continuous
 62
     7
370
    18
100
AcDbLine
 10
32.6849416873
 20
539.8694391251
 30
0.0
 11
32.6849416873
 21
506.8651360299
 31
0.0
  0
MTEXT
  5
135
330
12D
100
AcDbEntity
  8
0
  6
Continuous
 62
     7
370
    18
100
AcDbMText
 10
19.0723869316
 20
520.9102203698
 30
0.0
 40
10.56
 41
0.0
 71
     1
 72
     1
  1
33
  7
SLDTEXTSTYLE0
 11
-7.044195017643634E-15
 21
1.0
 31
0.0
 73
     1
 44
1.0
  0
ENDBLK
  5
12F
330
12D
100
AcDbEntity
  8
0
100
AcDbBlockEnd
  0
BLOCK
  5
139
330
138
100
AcDbEntity
  8
0
100
AcDbBlockBegin
  2
_D_4
 70
     0
 10
0.0
 20
0.0
 30
0.0
  3
_D_4
  1

  0
SOLID
  5
13B
330
138
100
AcDbEntity
  8
0
  6
Continuous
 62
     7
370
    18
100
AcDbTrace
 10
398.2849416873
 20
539.8694391251
 30
0.0
 11
399.9095570719
 21
550.4294391251
 31
0.0
 12
396.6603263027
 22
550.4294391251
 32
0.0
 13
396.6603263027
 23
550.4294391251
 33
0.0
  0
SOLID
  5
13C
330
138
100
AcDbEntity
  8
0
  6
Continuous
 62
     7
370
    18
100
AcDbTrace
 10
398.2849416873
 20
512.4659966489
 30
0.0
 11
396.6603263027
 21
501.9059966489
 31
0.0
 12
399.9095570719
 22
501.9059966489
 32
0.0
 13
399.9095570719
 23
501.9059966489
 33
0.0
  0
LINE
  5
13D
330
138
100
AcDbEntity
  8
0
  6
Continuous
 62
     7
370
    18
100
AcDbLine
 10
326.0149416873
 20
539.8694391251
 30
0.0
 11
401.5849416873
 21
539.8694391251
 31
0.0
  0
LINE
  5
13E
330
138
100
AcDbEntity
  8
0
  6
Continuous
 62
     7
370
    18
100
AcDbLine
 10
179.7149416873
 20
512.4659966489
 30
0.0
 11
401.5849416873
 21
512.4659966489
 31
0.0
  0
LINE
  5
13F
330
138
100
AcDbEntity
  8
0
  6
Continuous
 62
     7
370
    18
100
AcDbLine
 10
398.2849416873
 20
539.8694391251
 30
0.0
 11
398.2849416873
 21
560.1771314328
 31
0.0
  0
LINE
  5
140
330
138
100
AcDbEntity
  8
0
  6
Continuous
 62
     7
370
    18
100
AcDbLine
 10
398.2849416873
 20
539.8694391251
 30
0.0
 11
398.2849416873
 21
512.4659966489
 31
0.0
  0
LINE
  5
141
330
138
100
AcDbEntity
  8
0
  6
Continuous
 62
     7
370
    18
100
AcDbLine
 10
398.2849416873
 20
512.4659966489
 30
0.0
 11
398.2849416873
 21
492.1583043413
 31
0.0
  0
MTEXT
  5
142
330
138
100
AcDbEntity
  8
0
  6
Continuous
 62
     7
370
    18
100
AcDbMText
 10
384.6723869316
 20
520.9102203698
 30
0.0
 40
10.56
 41
0.0
 71
     1
 72
     1
  1
27
  7
SLDTEXTSTYLE0
 11
-7.044195017643634E-15
 21
1.0
 31
0.0
 73
     1
 44
1.0
  0
ENDBLK
  5
13A
330
138
100
AcDbEntity
  8
0
100
AcDbBlockEnd
  0
BLOCK
  5
145
330
144
100
AcDbEntity
  8
0
100
AcDbBlockBegin
  2
_D_5
 70
     0
 10
0.0
 20
0.0
 30
0.0
  3
_D_5
  1

  0
SOLID
  5
147
330
144
100
AcDbEntity
  8
0
  6
Continuous
 62
     7
370
    18
100
AcDbTrace
 10
135.3849416873
 20
437.0694391251
 30
0.0
 11
145.9449416873
 21
435.4448237404
 31
0.0
 12
145.9449416873
 22
438.6940545097
 32
0.0
 13
145.9449416873
 23
438.6940545097
 33
0.0
  0
SOLID
  5
148
330
144
100
AcDbEntity
  8
0
  6
Continuous
 62
     7
370
    18
100
AcDbTrace
 10
125.3849416873
 20
437.0694391251
 30
0.0
 11
114.8249416873
 21
438.6940545097
 31
0.0
 12
114.8249416873
 22
435.4448237404
 32
0.0
 13
114.8249416873
 23
435.4448237404
 33
0.0
  0
LINE
  5
149
330
144
100
AcDbEntity
  8
0
  6
Continuous
 62
     7
370
    18
100
AcDbLine
 10
135.3849416873
 20
509.5394391251
 30
0.0
 11
135.3849416873
 21
433.7694391251
 31
0.0
  0
LINE
  5
14A
330
144
100
AcDbEntity
  8
0
  6
Continuous
 62
     7
370
    18
100
AcDbLine
 10
125.3849416873
 20
509.5394391251
 30
0.0
 11
125.3849416873
 21
433.7694391251
 31
0.0
  0
LINE
  5
14B
330
144
100
AcDbEntity
  8
0
  6
Continuous
 62
     7
370
    18
100
AcDbLine
 10
135.3849416873
 20
437.0694391251
 30
0.0
 11
224.6118590276
 21
437.0694391251
 31
0.0
  0
LINE
  5
14C
330
144
100
AcDbEntity
  8
0
  6
Continuous
 62
     7
370
    18
100
AcDbLine
 10
135.3849416873
 20
437.0694391251
 30
0.0
 11
125.3849416873
 21
437.0694391251
 31
0.0
  0
LINE
  5
14D
330
144
100
AcDbEntity
  8
0
  6
Continuous
 62
     7
370
    18
100
AcDbLine
 10
125.3849416873
 20
437.0694391251
 30
0.0
 11
105.0772493796
 21
437.0694391251
 31
0.0
  0
MTEXT
  5
14E
330
144
100
AcDbEntity
  8
0
  6
Continuous
 62
     7
370
    18
100
AcDbMText
 10
193.0807251524
 20
450.6819952254
 30
0.0
 40
10.56
 41
0.0
 71
     1
 72
     1
  1
%%c
  7
SLDTEXTSTYLE0
 73
     1
 44
1.0
  0
MTEXT
  5
14F
330
144
100
AcDbEntity
  8
0
  6
Continuous
 62
     7
370
    18
100
AcDbMText
 10
209.0065250214
 20
450.8433286133
 30
0.0
 40
10.56
 41
0.0
 71
     1
 72
     1
  1
10
  7
SLDTEXTSTYLE0
 73
     1
 44
1.0
  0
ENDBLK
  5
146
330
144
100
AcDbEntity
  8
0
100
AcDbBlockEnd
  0
BLOCK
  5
152
330
151
100
AcDbEntity
  8
0
100
AcDbBlockBegin
  2
_D_6
 70
     0
 10
0.0
 20
0.0
 30
0.0
  3
_D_6
  1

  0
SOLID
  5
154
330
151
100
AcDbEntity
  8
0
  6
Continuous
 62
     7
370
    18
100
AcDbTrace
 10
183.3849416873
 20
456.8694391251
 30
0.0
 11
193.9449416873
 21
455.2448237404
 31
0.0
 12
193.9449416873
 22
458.4940545097
 32
0.0
 13
193.9449416873
 23
458.4940545097
 33
0.0
  0
SOLID
  5
155
330
151
100
AcDbEntity
  8
0
  6
Continuous
 62
     7
370
    18
100
AcDbTrace
 10
175.3849416873
 20
456.8694391251
 30
0.0
 11
164.8249416873
 21
458.4940545097
 31
0.0
 12
164.8249416873
 22
455.2448237404
 32
0.0
 13
164.8249416873
 23
455.2448237404
 33
0.0
  0
LINE
  5
156
330
151
100
AcDbEntity
  8
0
  6
Continuous
 62
     7
370
    18
100
AcDbLine
 10
183.3849416873
 20
514.5394391251
 30
0.0
 11
183.3849416873
 21
453.5694391251
 31
0.0
  0
LINE
  5
157
330
151
100
AcDbEntity
  8
0
  6
Continuous
 62
     7
370
    18
100
AcDbLine
 10
175.3849416873
 20
517.1687638484
 30
0.0
 11
175.3849416873
 21
453.5694391251
 31
0.0
  0
LINE
  5
158
330
151
100
AcDbEntity
  8
0
  6
Continuous
 62
     7
370
    18
100
AcDbLine
 10
183.3849416873
 20
456.8694391251
 30
0.0
 11
222.6611915085
 21
456.8694391251
 31
0.0
  0
LINE
  5
159
330
151
100
AcDbEntity
  8
0
  6
Continuous
 62
     7
370
    18
100
AcDbLine
 10
183.3849416873
 20
456.8694391251
 30
0.0
 11
175.3849416873
 21
456.8694391251
 31
0.0
  0
LINE
  5
15A
330
151
100
AcDbEntity
  8
0
  6
Continuous
 62
     7
370
    18
100
AcDbLine
 10
175.3849416873
 20
456.8694391251
 30
0.0
 11
155.0772493796
 21
456.8694391251
 31
0.0
  0
MTEXT
  5
15B
330
151
100
AcDbEntity
  8
0
  6
Continuous
 62
     7
370
    18
100
AcDbMText
 10
195.0313926715
 20
470.4819952254
 30
0.0
 40
10.56
 41
0.0
 71
     1
 72
     1
  1
%%c
  7
SLDTEXTSTYLE0
 73
     1
 44
1.0
  0
MTEXT
  5
15C
330
151
100
AcDbEntity
  8
0
  6
Continuous
 62
     7
370
    18
100
AcDbMText
 10
214.9171925405
 20
470.6433286133
 30
0.0
 40
10.56
 41
0.0
 71
     1
 72
     1
  1
8
  7
SLDTEXTSTYLE0
 73
     1
 44
1.0
  0
ENDBLK
  5
153
330
151
100
AcDbEntity
  8
0
100
AcDbBlockEnd
  0
BLOCK
  5
160
330
15F
100
AcDbEntity
  8
0
100
AcDbBlockBegin
  2
_D_7
 70
     0
 10
0.0
 20
0.0
 30
0.0
  3
_D_7
  1

  0
SOLID
  5
162
330
15F
100
AcDbEntity
  8
0
  6
Continuous
 62
     7
370
    18
100
AcDbTrace
 10
123.3837990648
 20
621.8046279048
 30
0.0
 11
133.9437990648
 21
620.1800125202
 31
0.0
 12
133.9437990648
 22
623.4292432895
 32
0.0
 13
133.9437990648
 23
623.4292432895
 33
0.0
  0
SOLID
  5
163
330
15F
100
AcDbEntity
  8
0
  6
Continuous
 62
     7
370
    18
100
AcDbTrace
 10
277.1837990648
 20
621.8046279048
 30
0.0
 11
266.6237990648
 21
623.4292432895
 31
0.0
 12
266.6237990648
 22
620.1800125202
 32
0.0
 13
266.6237990648
 23
620.1800125202
 33
0.0
  0
LINE
  5
164
330
15F
100
AcDbEntity
  8
0
  6
Continuous
 62
     7
370
    18
100
AcDbLine
 10
123.3837990648
 20
594.1994391251
 30
0.0
 11
123.3837990648
 21
625.1046279048
 31
0.0
  0
LINE
  5
165
330
15F
100
AcDbEntity
  8
0
  6
Continuous
 62
     7
370
    18
100
AcDbLine
 10
277.1837990648
 20
594.1994391251
 30
0.0
 11
277.1837990648
 21
625.1046279048
 31
0.0
  0
LINE
  5
166
330
15F
100
AcDbEntity
  8
0
  6
Continuous
 62
     7
370
    18
100
AcDbLine
 10
123.3837990648
 20
621.8046279048
 30
0.0
 11
277.1837990648
 21
621.8046279048
 31
0.0
  0
MTEXT
  5
167
330
15F
100
AcDbEntity
  8
0
  6
Continuous
 62
     7
370
    18
100
AcDbMText
 10
190.764511791
 20
635.4171826606
 30
0.0
 40
10.56
 41
0.0
 71
     1
 72
     1
  1
154
  7
SLDTEXTSTYLE0
 73
     1
 44
1.0
  0
ENDBLK
  5
161
330
15F
100
AcDbEntity
  8
0
100
AcDbBlockEnd
  0
BLOCK
  5
16A
330
169
100
AcDbEntity
  8
0
100
AcDbBlockBegin
  2
_D_8
 70
     0
 10
0.0
 20
0.0
 30
0.0
  3
_D_8
  1

  0
SOLID
  5
16C
330
169
100
AcDbEntity
  8
0
  6
Continuous
 62
     7
370
    18
100
AcDbTrace
 10
262.6819232046
 20
549.8694391251
 30
0.0
 11
261.0573078199
 21
539.3094391251
 31
0.0
 12
264.3065385892
 22
539.3094391251
 32
0.0
 13
264.3065385892
 23
539.3094391251
 33
0.0
  0
SOLID
  5
16D
330
169
100
AcDbEntity
  8
0
  6
Continuous
 62
     7
370
    18
100
AcDbTrace
 10
262.6819232046
 20
594.8694391251
 30
0.0
 11
264.3065385892
 21
605.4294391251
 31
0.0
 12
261.0573078199
 22
605.4294391251
 32
0.0
 13
261.0573078199
 23
605.4294391251
 33
0.0
  0
LINE
  5
16E
330
169
100
AcDbEntity
  8
0
  6
Continuous
 62
     7
370
    18
100
AcDbLine
 10
262.6819232046
 20
549.8694391251
 30
0.0
 11
262.6819232046
 21
529.5617468174
 31
0.0
  0
LINE
  5
16F
330
169
100
AcDbEntity
  8
0
  6
Continuous
 62
     7
370
    18
100
AcDbLine
 10
262.6819232046
 20
549.8694391251
 30
0.0
 11
262.6819232046
 21
594.8694391251
 31
0.0
  0
LINE
  5
170
330
169
100
AcDbEntity
  8
0
  6
Continuous
 62
     7
370
    18
100
AcDbLine
 10
262.6819232046
 20
594.8694391251
 30
0.0
 11
262.6819232046
 21
615.1771314328
 31
0.0
  0
MTEXT
  5
171
330
169
100
AcDbEntity
  8
0
  6
Continuous
 62
     7
370
    18
100
AcDbMText
 10
249.0693684488
 20
566.4908029011
 30
0.0
 40
10.56
 41
0.0
 71
     1
 72
     1
  1
45
  7
SLDTEXTSTYLE0
 11
6.123233995736766E-17
 21
1.0
 31
0.0
 73
     1
 44
1.0
  0
ENDBLK
  5
16B
330
169
100
AcDbEntity
  8
0
100
AcDbBlockEnd
  0
BLOCK
  5
174
330
173
100
AcDbEntity
  8
0
100
AcDbBlockBegin
  2
_D_9
 70
     0
 10
0.0
 20
0.0
 30
0.0
  3
_D_9
  1

  0
ARC
  5
176
330
173
100
AcDbEntity
  8
0
  6
Continuous
 62
     7
370
    18
100
AcDbCircle
 10
346.9039401681
 20
586.2316517924
 30
0.0
 40
10.52700005820952
100
AcDbArc
 50
180.0
 51
0.0
  0
ARC
  5
177
330
173
100
AcDbEntity
  8
0
  6
Continuous
 62
     7
370
    18
100
AcDbCircle
 10
346.9039401681
 20
622.531654669
 30
0.0
 40
10.52700005820952
100
AcDbArc
 50
0.0
 51
180.0
  0
ARC
  5
178
330
173
100
AcDbEntity
  8
0
  6
Continuous
 62
     7
370
    18
100
AcDbCircle
 10
376.3795408689
 20
579.8369852659
 30
0.0
 40
10.52700005820952
100
AcDbArc
 50
180.0
 51
0.0
  0
ARC
  5
179
330
173
100
AcDbEntity
  8
0
  6
Continuous
 62
     7
370
    18
100
AcDbCircle
 10
376.3795408689
 20
628.9263211955
 30
0.0
 40
10.52700005820952
100
AcDbArc
 50
0.0
 51
180.0
  0
SOLID
  5
17A
330
173
100
AcDbEntity
  8
0
  6
Continuous
 62
     7
370
    18
100
AcDbTrace
 10
361.7220162924
 20
546.8694391251
 30
0.0
 11
363.346631677
 21
557.4294391251
 31
0.0
 12
360.0974009078
 22
557.4294391251
 32
0.0
 13
360.0974009078
 23
557.4294391251
 33
0.0
  0
SOLID
  5
17B
330
173
100
AcDbEntity
  8
0
  6
Continuous
 62
     7
370
    18
100
AcDbTrace
 10
361.7220162924
 20
539.8694391251
 30
0.0
 11
360.0974009078
 21
529.3094391251
 31
0.0
 12
363.346631677
 22
529.3094391251
 32
0.0
 13
363.346631677
 23
529.3094391251
 33
0.0
  0
LINE
  5
17C
330
173
100
AcDbEntity
  8
0
  6
Continuous
 62
     7
370
    18
100
AcDbLine
 10
336.3769401099
 20
586.2316517924
 30
0.0
 11
336.3769401099
 21
622.531654669
 31
0.0
  0
LINE
  5
17D
330
173
100
AcDbEntity
  8
0
  6
Continuous
 62
     7
370
    18
100
AcDbLine
 10
357.4309402263
 20
622.531654669
 30
0.0
 11
357.4309402263
 21
586.2316517924
 31
0.0
  0
LINE
  5
17E
330
173
100
AcDbEntity
  8
0
  6
Continuous
 62
     7
370
    18
100
AcDbLine
 10
365.8525408107
 20
579.8369852659
 30
0.0
 11
365.8525408107
 21
628.9263211955
 31
0.0
  0
LINE
  5
17F
330
173
100
AcDbEntity
  8
0
  6
Continuous
 62
     7
370
    18
100
AcDbLine
 10
386.9065409271
 20
628.9263211955
 30
0.0
 11
386.9065409271
 21
579.8369852659
 31
0.0
  0
LINE
  5
180
330
173
100
AcDbEntity
  8
0
  6
Continuous
 62
     7
370
    18
100
AcDbLine
 10
315.6425197473
 20
546.8694391251
 30
0.0
 11
365.0220162924
 21
546.8694391251
 31
0.0
  0
LINE
  5
181
330
173
100
AcDbEntity
  8
0
  6
Continuous
 62
     7
370
    18
100
AcDbLine
 10
326.0149416873
 20
539.8694391251
 30
0.0
 11
365.0220162924
 21
539.8694391251
 31
0.0
  0
LINE
  5
182
330
173
100
AcDbEntity
  8
0
  6
Continuous
 62
     7
370
    18
100
AcDbLine
 10
361.7220162924
 20
546.8694391251
 30
0.0
 11
361.7220162924
 21
618.3993209452
 31
0.0
  0
LINE
  5
183
330
173
100
AcDbEntity
  8
0
  6
Continuous
 62
     7
370
    18
100
AcDbLine
 10
361.7220162924
 20
546.8694391251
 30
0.0
 11
361.7220162924
 21
539.8694391251
 31
0.0
  0
LINE
  5
184
330
173
100
AcDbEntity
  8
0
  6
Continuous
 62
     7
370
    18
100
AcDbLine
 10
361.7220162924
 20
539.8694391251
 30
0.0
 11
361.7220162924
 21
519.5617468174
 31
0.0
  0
MTEXT
  5
186
330
173
100
AcDbEntity
  8
0
  6
Continuous
 62
     7
370
    18
100
AcDbMText
 10
341.6733854647
 20
586.2316517924
 30
0.0
 40
10.56
 41
0.0
 71
     1
 72
     1
  1
7 min
  7
SLDTEXTSTYLE1
 11
-7.044195017643634E-15
 21
1.0
 31
0.0
 73
     1
 44
1.0
  0
MTEXT
  5
187
330
173
100
AcDbEntity
  8
0
  6
Continuous
 62
     7
370
    18
100
AcDbMText
 10
371.1489861656
 20
579.8369852659
 30
0.0
 40
10.56
 41
0.0
 71
     1
 72
     1
  1
11 max
  7
SLDTEXTSTYLE0
 11
-7.044195017643634E-15
 21
1.0
 31
0.0
 73
     1
 44
1.0
  0
ENDBLK
  5
175
330
173
100
AcDbEntity
  8
0
100
AcDbBlockEnd
  0
BLOCK
  5
18A
330
189
100
AcDbEntity
  8
0
100
AcDbBlockBegin
  2
_D_10
 70
     0
 10
0.0
 20
0.0
 30
0.0
  3
_D_10
  1

  0
SOLID
  5
18C
330
189
100
AcDbEntity
  8
0
  6
Continuous
 62
     7
370
    18
100
AcDbTrace
 10
95.6849416873
 20
392.135868321
 30
0.0
 11
106.2449416873
 21
390.5112529364
 31
0.0
 12
106.2449416873
 22
393.7604837057
 32
0.0
 13
106.2449416873
 23
393.7604837057
 33
0.0
  0
SOLID
  5
18D
330
189
100
AcDbEntity
  8
0
  6
Continuous
 62
     7
370
    18
100
AcDbTrace
 10
179.3849416873
 20
392.135868321
 30
0.0
 11
168.8249416873
 21
393.7604837057
 31
0.0
 12
168.8249416873
 22
390.5112529364
 32
0.0
 13
168.8249416873
 23
390.5112529364
 33
0.0
  0
LINE
  5
18E
330
189
100
AcDbEntity
  8
0
  6
Continuous
 62
     7
370
    18
100
AcDbLine
 10
95.6849416873
 20
539.5394391251
 30
0.0
 11
95.6849416873
 21
388.835868321
 31
0.0
  0
LINE
  5
18F
330
189
100
AcDbEntity
  8
0
  6
Continuous
 62
     7
370
    18
100
AcDbLine
 10
179.3849416873
 20
512.1359966489
 30
0.0
 11
179.3849416873
 21
388.835868321
 31
0.0
  0
LINE
  5
190
330
189
100
AcDbEntity
  8
0
  6
Continuous
 62
     7
370
    18
100
AcDbLine
 10
95.6849416873
 20
392.135868321
 30
0.0
 11
179.3849416873
 21
392.135868321
 31
0.0
  0
MTEXT
  5
191
330
189
100
AcDbEntity
  8
0
  6
Continuous
 62
     7
370
    18
100
AcDbMText
 10
130.9227423367
 20
405.7484230768
 30
0.0
 40
10.56
 41
0.0
 71
     1
 72
     1
  1
84
  7
SLDTEXTSTYLE0
 73
     1
 44
1.0
  0
ENDBLK
  5
18B
330
189
100
AcDbEntity
  8
0
100
AcDbBlockEnd
  0
BLOCK
  5
194
330
193
100
AcDbEntity
  8
0
100
AcDbBlockBegin
  2
_D_11
 70
     0
 10
0.0
 20
0.0
 30
0.0
  3
_D_11
  1

  0
ARC
  5
196
330
193
100
AcDbEntity
  8
0
  6
Continuous
 62
     7
370
    18
100
AcDbCircle
 10
33.5956300872
 20
588.1806379188
 30
0.0
 40
10.52700005820952
100
AcDbArc
 50
180.0
 51
0.0
  0
ARC
  5
197
330
193
100
AcDbEntity
  8
0
  6
Continuous
 62
     7
370
    18
100
AcDbCircle
 10
33.5956300872
 20
603.7859719251
 30
0.0
 40
10.52700005820952
100
AcDbArc
 50
0.0
 51
180.0
  0
SOLID
  5
198
330
193
100
AcDbEntity
  8
0
  6
Continuous
 62
     7
370
    18
100
AcDbTrace
 10
48.3334312059
 20
550.8694391251
 30
0.0
 11
49.9580465905
 21
561.4294391251
 31
0.0
 12
46.7088158213
 22
561.4294391251
 32
0.0
 13
46.7088158213
 23
561.4294391251
 33
0.0
  0
SOLID
  5
199
330
193
100
AcDbEntity
  8
0
  6
Continuous
 62
     7
370
    18
100
AcDbTrace
 10
48.3334312059
 20
539.8694391251
 30
0.0
 11
46.7088158213
 21
529.3094391251
 31
0.0
 12
49.9580465905
 22
529.3094391251
 32
0.0
 13
49.9580465905
 23
529.3094391251
 33
0.0
  0
LINE
  5
19A
330
193
100
AcDbEntity
  8
0
  6
Continuous
 62
     7
370
    18
100
AcDbLine
 10
23.068630029
 20
588.1806379188
 30
0.0
 11
23.068630029
 21
603.7859719251
 31
0.0
  0
LINE
  5
19B
330
193
100
AcDbEntity
  8
0
  6
Continuous
 62
     7
370
    18
100
AcDbLine
 10
44.1226301454
 20
603.7859719251
 30
0.0
 11
44.1226301454
 21
588.1806379188
 31
0.0
  0
LINE
  5
19C
330
193
100
AcDbEntity
  8
0
  6
Continuous
 62
     7
370
    18
100
AcDbLine
 10
98.3537990648
 20
550.8694391251
 30
0.0
 11
45.0334312059
 21
550.8694391251
 31
0.0
  0
LINE
  5
19D
330
193
100
AcDbEntity
  8
0
  6
Continuous
 62
     7
370
    18
100
AcDbLine
 10
95.3549416873
 20
539.8694391251
 30
0.0
 11
45.0334312059
 21
539.8694391251
 31
0.0
  0
LINE
  5
19E
330
193
100
AcDbEntity
  8
0
  6
Continuous
 62
     7
370
    18
100
AcDbLine
 10
48.3334312059
 20
550.8694391251
 30
0.0
 11
48.3334312059
 21
603.7859719251
 31
0.0
  0
LINE
  5
19F
330
193
100
AcDbEntity
  8
0
  6
Continuous
 62
     7
370
    18
100
AcDbLine
 10
48.3334312059
 20
550.8694391251
 30
0.0
 11
48.3334312059
 21
539.8694391251
 31
0.0
  0
LINE
  5
1A0
330
193
100
AcDbEntity
  8
0
  6
Continuous
 62
     7
370
    18
100
AcDbLine
 10
48.3334312059
 20
539.8694391251
 30
0.0
 11
48.3334312059
 21
519.5617468174
 31
0.0
  0
MTEXT
  5
1A1
330
193
100
AcDbEntity
  8
0
  6
Continuous
 62
     7
370
    18
100
AcDbMText
 10
28.3650753838
 20
588.1806379188
 30
0.0
 40
10.56
 41
0.0
 71
     1
 72
     1
  1
11
  7
SLDTEXTSTYLE0
 11
-7.044195017643634E-15
 21
1.0
 31
0.0
 73
     1
 44
1.0
  0
ENDBLK
  5
195
330
193
100
AcDbEntity
  8
0
100
AcDbBlockEnd
  0
BLOCK
  5
1A4
330
1A3
100
AcDbEntity
  8
0
100
AcDbBlockBegin
  2
_D_12
 70
     0
 10
0.0
 20
0.0
 30
0.0
  3
_D_12
  1

  0
SOLID
  5
1A6
330
1A3
100
AcDbEntity
  8
0
  6
Continuous
 62
     7
370
    18
100
AcDbTrace
 10
108.3849416873
 20
521.9799250366
 30
0.0
 11
118.9449416873
 21
520.355309652
 31
0.0
 12
118.9449416873
 22
523.6045404212
 32
0.0
 13
118.9449416873
 23
523.6045404212
 33
0.0
  0
SOLID
  5
1A7
330
1A3
100
AcDbEntity
  8
0
  6
Continuous
 62
     7
370
    18
100
AcDbTrace
 10
95.6849416873
 20
521.9799250366
 30
0.0
 11
85.1249416873
 21
523.6045404212
 31
0.0
 12
85.1249416873
 22
520.355309652
 32
0.0
 13
85.1249416873
 23
520.355309652
 33
0.0
  0
LINE
  5
1A8
330
1A3
100
AcDbEntity
  8
0
  6
Continuous
 62
     7
370
    18
100
AcDbLine
 10
108.3849416873
 20
539.5394391251
 30
0.0
 11
108.3849416873
 21
518.6799250366
 31
0.0
  0
LINE
  5
1A9
330
1A3
100
AcDbEntity
  8
0
  6
Continuous
 62
     7
370
    18
100
AcDbLine
 10
95.6849416873
 20
539.5394391251
 30
0.0
 11
95.6849416873
 21
518.6799250366
 31
0.0
  0
LINE
  5
1AA
330
1A3
100
AcDbEntity
  8
0
  6
Continuous
 62
     7
370
    18
100
AcDbLine
 10
108.3849416873
 20
521.9799250366
 30
0.0
 11
128.692633995
 21
521.9799250366
 31
0.0
  0
LINE
  5
1AB
330
1A3
100
AcDbEntity
  8
0
  6
Continuous
 62
     7
370
    18
100
AcDbLine
 10
108.3849416873
 20
521.9799250366
 30
0.0
 11
95.6849416873
 21
521.9799250366
 31
0.0
  0
LINE
  5
1AC
330
1A3
100
AcDbEntity
  8
0
  6
Continuous
 62
     7
370
    18
100
AcDbLine
 10
95.6849416873
 20
521.9799250366
 30
0.0
 11
66.2700992551
 21
521.9799250366
 31
0.0
  0
MTEXT
  5
1AD
330
1A3
100
AcDbEntity
  8
0
  6
Continuous
 62
     7
370
    18
100
AcDbMText
 10
66.2700992551
 20
535.5924797923
 30
0.0
 40
10.56
 41
0.0
 71
     1
 72
     1
  1
12,7
  7
SLDTEXTSTYLE0
 73
     1
 44
1.0
  0
ENDBLK
  5
1A5
330
1A3
100
AcDbEntity
  8
0
100
AcDbBlockEnd
  0
BLOCK
  5
289
330
288
100
AcDbEntity
  8
0
100
AcDbBlockBegin
  2
_D_13
 70
     0
 10
0.0
 20
0.0
 30
0.0
  3
_D_13
  1

  0
SOLID
  5
28B
330
288
100
AcDbEntity
  8
0
  6
Continuous
 62
     7
370
    18
100
AcDbTrace
 10
50.5544869047
 20
760.1574828561
 30
0.0
 11
52.1791022893
 21
770.7174828561
 31
0.0
 12
48.9298715201
 22
770.7174828561
 32
0.0
 13
48.9298715201
 23
770.7174828561
 33
0.0
  0
SOLID
  5
28C
330
288
100
AcDbEntity
  8
0
  6
Continuous
 62
     7
370
    18
100
AcDbTrace
 10
50.5544869047
 20
732.1574828561
 30
0.0
 11
48.9298715201
 21
721.5974828561
 31
0.0
 12
52.1791022893
 22
721.5974828561
 32
0.0
 13
52.1791022893
 23
721.5974828561
 33
0.0
  0
LINE
  5
28D
330
288
100
AcDbEntity
  8
0
  6
Continuous
 62
     7
370
    18
100
AcDbLine
 10
110.0549416873
 20
760.1574828561
 30
0.0
 11
47.2544869047
 21
760.1574828561
 31
0.0
  0
LINE
  5
28E
330
288
100
AcDbEntity
  8
0
  6
Continuous
 62
     7
370
    18
100
AcDbLine
 10
110.0549416873
 20
732.1574828561
 30
0.0
 11
47.2544869047
 21
732.1574828561
 31
0.0
  0
LINE
  5
28F
330
288
100
AcDbEntity
  8
0
  6
Continuous
 62
     7
370
    18
100
AcDbLine
 10
50.5544869047
 20
760.1574828561
 30
0.0
 11
50.5544869047
 21
780.4651751638
 31
0.0
  0
LINE
  5
290
330
288
100
AcDbEntity
  8
0
  6
Continuous
 62
     7
370
    18
100
AcDbLine
 10
50.5544869047
 20
760.1574828561
 30
0.0
 11
50.5544869047
 21
732.1574828561
 31
0.0
  0
LINE
  5
291
330
288
100
AcDbEntity
  8
0
  6
Continuous
 62
     7
370
    18
100
AcDbLine
 10
50.5544869047
 20
732.1574828561
 30
0.0
 11
50.5544869047
 21
711.8497905484
 31
0.0
  0
MTEXT
  5
292
330
288
100
AcDbEntity
  8
0
  6
Continuous
 62
     7
370
    18
100
AcDbMText
 10
36.9419321489
 20
737.9694072656
 30
0.0
 40
10.56
 41
0.0
 71
     1
 72
     1
  1
28
  7
SLDTEXTSTYLE0
 11
-7.044195017643634E-15
 21
1.0
 31
0.0
 73
     1
 44
1.0
  0
ENDBLK
  5
28A
330
288
100
AcDbEntity
  8
0
100
AcDbBlockEnd
  0
BLOCK
  5
295
330
294
100
AcDbEntity
  8
0
100
AcDbBlockBegin
  2
_D_14
 70
     0
 10
0.0
 20
0.0
 30
0.0
  3
_D_14
  1

  0
SOLID
  5
297
330
294
100
AcDbEntity
  8
0
  6
Continuous
 62
     7
370
    18
100
AcDbTrace
 10
108.3849416873
 20
833.8024097292
 30
0.0
 11
118.9449416873
 21
832.1777943446
 31
0.0
 12
118.9449416873
 22
835.4270251138
 32
0.0
 13
118.9449416873
 23
835.4270251138
 33
0.0
  0
SOLID
  5
298
330
294
100
AcDbEntity
  8
0
  6
Continuous
 62
     7
370
    18
100
AcDbTrace
 10
192.3849416873
 20
833.8024097292
 30
0.0
 11
181.8249416873
 21
835.4270251138
 31
0.0
 12
181.8249416873
 22
832.1777943446
 32
0.0
 13
181.8249416873
 23
832.1777943446
 33
0.0
  0
LINE
  5
299
330
294
100
AcDbEntity
  8
0
  6
Continuous
 62
     7
370
    18
100
AcDbLine
 10
108.3849416873
 20
758.4874828561
 30
0.0
 11
108.3849416873
 21
837.1024097292
 31
0.0
  0
LINE
  5
29A
330
294
100
AcDbEntity
  8
0
  6
Continuous
 62
     7
370
    18
100
AcDbLine
 10
192.3849416873
 20
758.4874828561
 30
0.0
 11
192.3849416873
 21
837.1024097292
 31
0.0
  0
LINE
  5
29B
330
294
100
AcDbEntity
  8
0
  6
Continuous
 62
     7
370
    18
100
AcDbLine
 10
108.3849416873
 20
833.8024097292
 30
0.0
 11
192.3849416873
 21
833.8024097292
 31
0.0
  0
MTEXT
  5
29C
330
294
100
AcDbEntity
  8
0
  6
Continuous
 62
     7
370
    18
100
AcDbMText
 10
147.9122701085
 20
847.414964485
 30
0.0
 40
10.56
 41
0.0
 71
     1
 72
     1
  1
84
  7
SLDTEXTSTYLE0
 73
     1
 44
1.0
  0
ENDBLK
  5
296
330
294
100
AcDbEntity
  8
0
100
AcDbBlockEnd
  0
BLOCK
  5
29F
330
29E
100
AcDbEntity
  8
0
100
AcDbBlockBegin
  2
_D_15
 70
     0
 10
0.0
 20
0.0
 30
0.0
  3
_D_15
  1

  0
SOLID
  5
2A1
330
29E
100
AcDbEntity
  8
0
  6
Continuous
 62
     7
370
    18
100
AcDbTrace
 10
108.3849416873
 20
809.8024097292
 30
0.0
 11
97.8249416873
 21
811.4270251138
 31
0.0
 12
97.8249416873
 22
808.1777943446
 32
0.0
 13
97.8249416873
 23
808.1777943446
 33
0.0
  0
SOLID
  5
2A2
330
29E
100
AcDbEntity
  8
0
  6
Continuous
 62
     7
370
    18
100
AcDbTrace
 10
130.3849416873
 20
809.8024097292
 30
0.0
 11
140.9449416873
 21
808.1777943446
 31
0.0
 12
140.9449416873
 22
811.4270251138
 32
0.0
 13
140.9449416873
 23
811.4270251138
 33
0.0
  0
LINE
  5
2A3
330
29E
100
AcDbEntity
  8
0
  6
Continuous
 62
     7
370
    18
100
AcDbLine
 10
108.3849416873
 20
758.4874828561
 30
0.0
 11
108.3849416873
 21
813.1024097292
 31
0.0
  0
LINE
  5
2A4
330
29E
100
AcDbEntity
  8
0
  6
Continuous
 62
     7
370
    18
100
AcDbLine
 10
130.3849416873
 20
746.4874828561
 30
0.0
 11
130.3849416873
 21
813.1024097292
 31
0.0
  0
LINE
  5
2A5
330
29E
100
AcDbEntity
  8
0
  6
Continuous
 62
     7
370
    18
100
AcDbLine
 10
108.3849416873
 20
809.8024097292
 30
0.0
 11
61.7802227904
 21
809.8024097292
 31
0.0
  0
LINE
  5
2A6
330
29E
100
AcDbEntity
  8
0
  6
Continuous
 62
     7
370
    18
100
AcDbLine
 10
108.3849416873
 20
809.8024097292
 30
0.0
 11
130.3849416873
 21
809.8024097292
 31
0.0
  0
LINE
  5
2A7
330
29E
100
AcDbEntity
  8
0
  6
Continuous
 62
     7
370
    18
100
AcDbLine
 10
130.3849416873
 20
809.8024097292
 30
0.0
 11
150.692633995
 21
809.8024097292
 31
0.0
  0
MTEXT
  5
2A8
330
29E
100
AcDbEntity
  8
0
  6
Continuous
 62
     7
370
    18
100
AcDbMText
 10
61.7802227904
 20
823.414964485
 30
0.0
 40
10.56
 41
0.0
 71
     1
 72
     1
  1
22
  7
SLDTEXTSTYLE0
 73
     1
 44
1.0
  0
ENDBLK
  5
2A0
330
29E
100
AcDbEntity
  8
0
100
AcDbBlockEnd
  0
BLOCK
  5
2AB
330
2AA
100
AcDbEntity
  8
0
100
AcDbBlockBegin
  2
_D_16
 70
     0
 10
0.0
 20
0.0
 30
0.0
  3
_D_16
  1

  0
SOLID
  5
2AD
330
2AA
100
AcDbEntity
  8
0
  6
Continuous
 62
     7
370
    18
100
AcDbTrace
 10
130.3849416873
 20
809.8024097292
 30
0.0
 11
140.9449416873
 21
808.1777943446
 31
0.0
 12
140.9449416873
 22
811.4270251138
 32
0.0
 13
140.9449416873
 23
811.4270251138
 33
0.0
  0
SOLID
  5
2AE
330
2AA
100
AcDbEntity
  8
0
  6
Continuous
 62
     7
370
    18
100
AcDbTrace
 10
179.3849416873
 20
809.8024097292
 30
0.0
 11
168.8249416873
 21
811.4270251138
 31
0.0
 12
168.8249416873
 22
808.1777943446
 32
0.0
 13
168.8249416873
 23
808.1777943446
 33
0.0
  0
LINE
  5
2AF
330
2AA
100
AcDbEntity
  8
0
  6
Continuous
 62
     7
370
    18
100
AcDbLine
 10
130.3849416873
 20
746.4874828561
 30
0.0
 11
130.3849416873
 21
813.1024097292
 31
0.0
  0
LINE
  5
2B0
330
2AA
100
AcDbEntity
  8
0
  6
Continuous
 62
     7
370
    18
100
AcDbLine
 10
179.3849416873
 20
746.4874828561
 30
0.0
 11
179.3849416873
 21
813.1024097292
 31
0.0
  0
LINE
  5
2B1
330
2AA
100
AcDbEntity
  8
0
  6
Continuous
 62
     7
370
    18
100
AcDbLine
 10
130.3849416873
 20
809.8024097292
 30
0.0
 11
179.3849416873
 21
809.8024097292
 31
0.0
  0
MTEXT
  5
2B2
330
2AA
100
AcDbEntity
  8
0
  6
Continuous
 62
     7
370
    18
100
AcDbMText
 10
147.9122701085
 20
823.414964485
 30
0.0
 40
10.56
 41
0.0
 71
     1
 72
     1
  1
49
  7
SLDTEXTSTYLE0
 73
     1
 44
1.0
  0
ENDBLK
  5
2AC
330
2AA
100
AcDbEntity
  8
0
100
AcDbBlockEnd
  0
BLOCK
  5
2B5
330
2B4
100
AcDbEntity
  8
0
100
AcDbBlockBegin
  2
_D_17
 70
     0
 10
0.0
 20
0.0
 30
0.0
  3
_D_17
  1

  0
SOLID
  5
2B7
330
2B4
100
AcDbEntity
  8
0
  6
Continuous
 62
     7
370
    18
100
AcDbTrace
 10
364.2485055345
 20
741.1574828561
 30
0.0
 11
362.6238901499
 21
730.5974828561
 31
0.0
 12
365.8731209192
 22
730.5974828561
 32
0.0
 13
365.8731209192
 23
730.5974828561
 33
0.0
  0
SOLID
  5
2B8
330
2B4
100
AcDbEntity
  8
0
  6
Continuous
 62
     7
370
    18
100
AcDbTrace
 10
364.2485055345
 20
751.1574828561
 30
0.0
 11
365.8731209192
 21
761.7174828561
 31
0.0
 12
362.6238901499
 22
761.7174828561
 32
0.0
 13
362.6238901499
 23
761.7174828561
 33
0.0
  0
LINE
  5
2B9
330
2B4
100
AcDbEntity
  8
0
  6
Continuous
 62
     7
370
    18
100
AcDbLine
 10
324.5785055345
 20
741.1574828561
 30
0.0
 11
367.5485055345
 21
741.1574828561
 31
0.0
  0
LINE
  5
2BA
330
2B4
100
AcDbEntity
  8
0
  6
Continuous
 62
     7
370
    18
100
AcDbLine
 10
324.5785055345
 20
751.1574828561
 30
0.0
 11
367.5485055345
 21
751.1574828561
 31
0.0
  0
LINE
  5
2BB
330
2B4
100
AcDbEntity
  8
0
  6
Continuous
 62
     7
370
    18
100
AcDbLine
 10
364.2485055345
 20
741.1574828561
 30
0.0
 11
364.2485055345
 21
720.8497905484
 31
0.0
  0
LINE
  5
2BC
330
2B4
100
AcDbEntity
  8
0
  6
Continuous
 62
     7
370
    18
100
AcDbLine
 10
364.2485055345
 20
741.1574828561
 30
0.0
 11
364.2485055345
 21
751.1574828561
 31
0.0
  0
LINE
  5
2BD
330
2B4
100
AcDbEntity
  8
0
  6
Continuous
 62
     7
370
    18
100
AcDbLine
 10
364.2485055345
 20
751.1574828561
 30
0.0
 11
364.2485055345
 21
825.3965490681
 31
0.0
  0
MTEXT
  5
2BF
330
2B4
100
AcDbEntity
  8
0
  6
Continuous
 62
     7
370
    18
100
AcDbMText
 10
350.6359507788
 20
770.000549331
 30
0.0
 40
10.56
 41
0.0
 71
     1
 72
     1
  1
8 - 13.52
  7
SLDTEXTSTYLE2
 11
6.123233995736766E-17
 21
1.0
 31
0.0
 73
     1
 44
1.0
  0
ENDBLK
  5
2B6
330
2B4
100
AcDbEntity
  8
0
100
AcDbBlockEnd
  0
BLOCK
  5
2C2
330
2C1
100
AcDbEntity
  8
0
100
AcDbBlockBegin
  2
SW_NOTE_0
 70
     0
 10
0.0
 20
0.0
 30
0.0
  3
SW_NOTE_0
  1

  0
LINE
  5
2C4
330
2C1
100
AcDbEntity
  8
0
  6
Continuous
 62
     0
370
     0
100
AcDbLine
 10
82.4381933882
 20
0.0
 30
0.0
 11
0.0
 21
0.0
 31
0.0
  0
MTEXT
  5
2C5
330
2C1
100
AcDbEntity
  8
0
  6
Continuous
 62
     0
370
     0
100
AcDbMText
 10
1.5970044207
 20
12.1308246372
 30
0.0
 40
9.24
 41
0.0
 71
     1
 72
     1
  1
GRANI DI REG
  7
SLDTEXTSTYLE0
 73
     1
 44
1.0
  0
ENDBLK
  5
2C3
330
2C1
100
AcDbEntity
  8
0
100
AcDbBlockEnd
  0
ENDSEC
  0
SECTION
  2
ENTITIES
  0
LINE
  5
74
330
1F
100
AcDbEntity
  8
0
  6
Continuous
 62
     7
370
    25
100
AcDbLine
 10
183.3849416873
 20
517.4987638484
 30
0.0
 11
183.3849416873
 21
539.8694391251
 31
0.0
  0
LINE
  5
75
330
1F
100
AcDbEntity
  8
0
  6
Continuous
 62
     7
370
    25
100
AcDbLine
 10
175.3849416873
 20
539.8694391251
 30
0.0
 11
175.3849416873
 21
517.4987638484
 31
0.0
  0
LINE
  5
76
330
1F
100
AcDbEntity
  8
0
  6
Continuous
 62
     7
370
    25
100
AcDbLine
 10
175.3849416873
 20
517.4987638484
 30
0.0
 11
176.1349416873
 21
516.8694391251
 31
0.0
  0
LINE
  5
77
330
1F
100
AcDbEntity
  8
0
  6
Continuous
 62
     7
370
    25
100
AcDbLine
 10
182.6349416873
 20
516.8694391251
 30
0.0
 11
183.3849416873
 21
517.4987638484
 31
0.0
  0
LINE
  5
78
330
1F
100
AcDbEntity
  8
0
  6
Continuous
 62
     7
370
    25
100
AcDbLine
 10
135.3849416873
 20
510.869439125
 30
0.0
 11
135.3849416873
 21
539.8694391251
 31
0.0
  0
LINE
  5
79
330
1F
100
AcDbEntity
  8
0
  6
Continuous
 62
     7
370
    25
100
AcDbLine
 10
125.3849416873
 20
539.8694391251
 30
0.0
 11
125.3849416873
 21
510.869439125
 31
0.0
  0
LINE
  5
7A
330
1F
100
AcDbEntity
  8
0
  6
Continuous
 62
     7
370
    25
100
AcDbLine
 10
134.3849416874
 20
509.8694391251
 30
0.0
 11
135.3849416873
 21
510.869439125
 31
0.0
  0
LINE
  5
7B
330
1F
100
AcDbEntity
  8
0
  6
Continuous
 62
     7
370
    25
100
AcDbLine
 10
125.3849416873
 20
510.869439125
 30
0.0
 11
126.3849416873
 21
509.8694391251
 31
0.0
  0
LINE
  5
7C
330
1F
100
AcDbEntity
  8
0
  6
Continuous
 62
     7
370
    25
100
AcDbLine
 10
148.6837990648
 20
549.8694391251
 30
0.0
 11
148.6837990648
 21
548.3694391251
 31
0.0
  0
LINE
  5
7D
330
1F
100
AcDbEntity
  8
0
  6
Continuous
 62
     7
370
    25
100
AcDbLine
 10
162.6837990648
 20
548.3694391251
 30
0.0
 11
162.6837990648
 21
549.8694391251
 31
0.0
  0
LINE
  5
7E
330
1F
100
AcDbEntity
  8
0
  6
Continuous
 62
     7
370
    25
100
AcDbLine
 10
325.6849416873
 20
489.8694391251
 30
0.0
 11
325.6849416873
 21
539.8694391251
 31
0.0
  0
LINE
  5
7F
330
1F
100
AcDbEntity
  8
0
  6
Continuous
 62
     7
370
    25
100
AcDbLine
 10
65.6849416873
 20
489.8694391251
 30
0.0
 11
325.6849416873
 21
489.8694391251
 31
0.0
  0
LINE
  5
80
330
1F
100
AcDbEntity
  8
0
  6
Continuous
 62
     7
370
    25
100
AcDbLine
 10
95.6849416873
 20
646.5396111766
 30
0.0
 11
95.6849416873
 21
539.8694391251
 31
0.0
  0
LINE
  5
81
330
1F
100
AcDbEntity
  8
0
  6
Continuous
 62
     7
370
    25
100
AcDbLine
 10
108.3849416873
 20
539.8694391251
 30
0.0
 11
95.6849416873
 21
539.8694391251
 31
0.0
  0
LINE
  5
82
330
1F
100
AcDbEntity
  8
0
  6
Continuous
 62
     7
370
    25
100
AcDbLine
 10
125.3849416873
 20
509.8694391251
 30
0.0
 11
125.3849416873
 21
539.8694391251
 31
0.0
  0
LINE
  5
83
330
1F
100
AcDbEntity
  8
0
  6
Continuous
 62
     7
370
    25
100
AcDbLine
 10
130.3849416873
 20
506.8651360299
 30
0.0
 11
125.3849416873
 21
509.8694391251
 31
0.0
  0
LINE
  5
84
330
1F
100
AcDbEntity
  8
0
  6
Continuous
 62
     7
370
    25
100
AcDbLine
 10
135.3849416873
 20
509.8694391251
 30
0.0
 11
130.3849416873
 21
506.8651360299
 31
0.0
  0
LINE
  5
85
330
1F
100
AcDbEntity
  8
0
  6
Continuous
 62
     7
370
    25
100
AcDbLine
 10
135.3849416873
 20
539.8694391251
 30
0.0
 11
135.3849416873
 21
509.8694391251
 31
0.0
  0
LINE
  5
86
330
1F
100
AcDbEntity
  8
0
  6
Continuous
 62
     7
370
    25
100
AcDbLine
 10
175.3849416873
 20
514.8694391251
 30
0.0
 11
175.3849416873
 21
539.8694391251
 31
0.0
  0
LINE
  5
87
330
1F
100
AcDbEntity
  8
0
  6
Continuous
 62
     7
370
    25
100
AcDbLine
 10
179.3849416873
 20
512.4659966489
 30
0.0
 11
175.3849416873
 21
514.8694391251
 31
0.0
  0
LINE
  5
88
330
1F
100
AcDbEntity
  8
0
  6
Continuous
 62
     7
370
    25
100
AcDbLine
 10
183.3849416873
 20
514.8694391251
 30
0.0
 11
179.3849416873
 21
512.4659966489
 31
0.0
  0
LINE
  5
89
330
1F
100
AcDbEntity
  8
0
  6
Continuous
 62
     7
370
    25
100
AcDbLine
 10
183.3849416873
 20
539.8694391251
 30
0.0
 11
183.3849416873
 21
514.8694391251
 31
0.0
  0
LINE
  5
8A
330
1F
100
AcDbEntity
  8
0
  6
Continuous
 62
     7
370
    25
100
AcDbLine
 10
325.6849416873
 20
539.8694391251
 30
0.0
 11
192.3849416873
 21
539.8694391251
 31
0.0
  0
LINE
  5
8B
330
1F
100
AcDbEntity
  8
0
  6
Continuous
 62
     7
370
    25
100
AcDbLine
 10
65.6849416873
 20
646.5396111766
 30
0.0
 11
95.6849416873
 21
646.5396111766
 31
0.0
  0
LINE
  5
8C
330
1F
100
AcDbEntity
  8
0
  6
Continuous
 62
     7
370
    25
100
AcDbLine
 10
65.6849416873
 20
489.8694391251
 30
0.0
 11
65.6849416873
 21
646.5396111766
 31
0.0
  0
LINE
  5
8D
330
1F
100
AcDbEntity
  8
0
  6
Continuous
 62
     7
370
    25
100
AcDbLine
 10
135.3849416873
 20
509.8694391251
 30
0.0
 11
134.3849416874
 21
509.8694391251
 31
0.0
  0
LINE
  5
8E
330
1F
100
AcDbEntity
  8
0
  6
Continuous
 62
     7
370
    25
100
AcDbLine
 10
126.3849416873
 20
509.8694391251
 30
0.0
 11
125.3849416873
 21
509.8694391251
 31
0.0
  0
LINE
  5
8F
330
1F
100
AcDbEntity
  8
0
  6
Continuous
 62
     7
370
    25
100
AcDbLine
 10
183.3849416873
 20
514.8694391251
 30
0.0
 11
175.3849416873
 21
514.8694391251
 31
0.0
  0
LINE
  5
90
330
1F
100
AcDbEntity
  8
0
  6
Continuous
 62
     7
370
    25
100
AcDbLine
 10
276.5837990648
 20
593.4694391251
 30
0.0
 11
124.7837990648
 21
593.4694391251
 31
0.0
  0
LINE
  5
91
330
1F
100
AcDbEntity
  8
0
  6
Continuous
 62
     7
370
    25
100
AcDbLine
 10
124.7837990648
 20
593.4694391251
 30
0.0
 11
123.3837990648
 21
594.8694391251
 31
0.0
  0
LINE
  5
92
330
1F
100
AcDbEntity
  8
0
  6
Continuous
 62
     7
370
    25
100
AcDbLine
 10
123.3837990648
 20
594.8694391251
 30
0.0
 11
277.9837990648
 21
594.8694391251
 31
0.0
  0
LINE
  5
93
330
1F
100
AcDbEntity
  8
0
  6
Continuous
 62
     7
370
    25
100
AcDbLine
 10
277.9837990648
 20
594.8694391251
 30
0.0
 11
276.5837990648
 21
593.4694391251
 31
0.0
  0
LINE
  5
94
330
1F
100
AcDbEntity
  8
0
  6
Continuous
 62
     7
370
    25
100
AcDbLine
 10
124.7837990648
 20
551.2694391251
 30
0.0
 11
276.5837990648
 21
551.2694391251
 31
0.0
  0
LINE
  5
95
330
1F
100
AcDbEntity
  8
0
  6
Continuous
 62
     7
370
    25
100
AcDbLine
 10
277.9837990648
 20
549.8694391251
 30
0.0
 11
276.5837990648
 21
551.2694391251
 31
0.0
  0
LINE
  5
96
330
1F
100
AcDbEntity
  8
0
  6
Continuous
 62
     7
370
    25
100
AcDbLine
 10
277.9837990648
 20
549.8694391251
 30
0.0
 11
123.3837990648
 21
549.8694391251
 31
0.0
  0
LINE
  5
97
330
1F
100
AcDbEntity
  8
0
  6
Continuous
 62
     7
370
    25
100
AcDbLine
 10
124.7837990648
 20
551.2694391251
 30
0.0
 11
123.3837990648
 21
549.8694391251
 31
0.0
  0
LINE
  5
98
330
1F
100
AcDbEntity
  8
0
  6
Continuous
 62
     7
370
    25
100
AcDbLine
 10
123.5188880008
 20
550.6694391251
 30
0.0
 11
123.5188880008
 21
550.8694391251
 31
0.0
  0
LINE
  5
99
330
1F
100
AcDbEntity
  8
0
  6
Continuous
 62
     7
370
    25
100
AcDbLine
 10
123.5188880008
 20
550.8694391251
 30
0.0
 11
123.3837990648
 21
550.8694391251
 31
0.0
  0
LINE
  5
9A
330
1F
100
AcDbEntity
  8
0
  6
Continuous
 62
     7
370
    25
100
AcDbLine
 10
123.3837990648
 20
550.8694391251
 30
0.0
 11
123.3837990648
 21
593.8694391251
 31
0.0
  0
LINE
  5
9B
330
1F
100
AcDbEntity
  8
0
  6
Continuous
 62
     7
370
    25
100
AcDbLine
 10
123.3837990648
 20
593.8694391251
 30
0.0
 11
123.5188880008
 21
593.8694391251
 31
0.0
  0
LINE
  5
9C
330
1F
100
AcDbEntity
  8
0
  6
Continuous
 62
     7
370
    25
100
AcDbLine
 10
123.5188880008
 20
593.8694391251
 30
0.0
 11
123.5188880008
 21
594.0694391251
 31
0.0
  0
LINE
  5
9D
330
1F
100
AcDbEntity
  8
0
  6
Continuous
 62
     7
370
    25
100
AcDbLine
 10
123.5188880008
 20
594.0694391251
 30
0.0
 11
123.3837990648
 21
594.0694391251
 31
0.0
  0
LINE
  5
9E
330
1F
100
AcDbEntity
  8
0
  6
Continuous
 62
     7
370
    25
100
AcDbLine
 10
123.3837990648
 20
594.0694391251
 30
0.0
 11
123.3837990648
 21
594.8694391251
 31
0.0
  0
LINE
  5
9F
330
1F
100
AcDbEntity
  8
0
  6
Continuous
 62
     7
370
    25
100
AcDbLine
 10
124.7837990648
 20
593.4694391251
 30
0.0
 11
124.7837990648
 21
551.2694391251
 31
0.0
  0
LINE
  5
A0
330
1F
100
AcDbEntity
  8
0
  6
Continuous
 62
     7
370
    25
100
AcDbLine
 10
123.3837990648
 20
549.8694391251
 30
0.0
 11
123.3837990648
 21
550.6694391251
 31
0.0
  0
LINE
  5
A1
330
1F
100
AcDbEntity
  8
0
  6
Continuous
 62
     7
370
    25
100
AcDbLine
 10
123.3837990648
 20
550.6694391251
 30
0.0
 11
123.5188880008
 21
550.6694391251
 31
0.0
  0
LINE
  5
A2
330
1F
100
AcDbEntity
  8
0
  6
Continuous
 62
     7
370
    25
100
AcDbLine
 10
276.5837990648
 20
551.2694391251
 30
0.0
 11
276.5837990648
 21
593.4694391251
 31
0.0
  0
LINE
  5
A3
330
1F
100
AcDbEntity
  8
0
  6
Continuous
 62
     7
370
    25
100
AcDbLine
 10
277.9837990648
 20
594.8694391251
 30
0.0
 11
277.9837990648
 21
594.0694391251
 31
0.0
  0
LINE
  5
A4
330
1F
100
AcDbEntity
  8
0
  6
Continuous
 62
     7
370
    25
100
AcDbLine
 10
277.9837990648
 20
594.0694391251
 30
0.0
 11
277.8487101289
 21
594.0694391251
 31
0.0
  0
LINE
  5
A5
330
1F
100
AcDbEntity
  8
0
  6
Continuous
 62
     7
370
    25
100
AcDbLine
 10
277.8487101289
 20
594.0694391251
 30
0.0
 11
277.8487101289
 21
593.8694391251
 31
0.0
  0
LINE
  5
A6
330
1F
100
AcDbEntity
  8
0
  6
Continuous
 62
     7
370
    25
100
AcDbLine
 10
277.8487101289
 20
593.8694391251
 30
0.0
 11
277.9837990648
 21
593.8694391251
 31
0.0
  0
LINE
  5
A7
330
1F
100
AcDbEntity
  8
0
  6
Continuous
 62
     7
370
    25
100
AcDbLine
 10
277.9837990648
 20
593.8694391251
 30
0.0
 11
277.9837990648
 21
550.8694391251
 31
0.0
  0
LINE
  5
A8
330
1F
100
AcDbEntity
  8
0
  6
Continuous
 62
     7
370
    25
100
AcDbLine
 10
277.9837990648
 20
550.8694391251
 30
0.0
 11
277.8487101289
 21
550.8694391251
 31
0.0
  0
LINE
  5
A9
330
1F
100
AcDbEntity
  8
0
  6
Continuous
 62
     7
370
    25
100
AcDbLine
 10
277.8487101289
 20
550.8694391251
 30
0.0
 11
277.8487101289
 21
550.6694391251
 31
0.0
  0
LINE
  5
AA
330
1F
100
AcDbEntity
  8
0
  6
Continuous
 62
     7
370
    25
100
AcDbLine
 10
277.8487101289
 20
550.6694391251
 30
0.0
 11
277.9837990648
 21
550.6694391251
 31
0.0
  0
LINE
  5
AB
330
1F
100
AcDbEntity
  8
0
  6
Continuous
 62
     7
370
    25
100
AcDbLine
 10
277.9837990648
 20
550.6694391251
 30
0.0
 11
277.9837990648
 21
549.8694391251
 31
0.0
  0
LINE
  5
AC
330
1F
100
AcDbEntity
  8
0
  6
Continuous
 62
     7
370
    25
100
AcDbLine
 10
183.3849416873
 20
517.4987638484
 30
0.0
 11
182.6508945349
 21
517.4987638484
 31
0.0
  0
LINE
  5
AD
330
1F
100
AcDbEntity
  8
0
  6
Continuous
 62
     7
370
    25
100
AcDbLine
 10
182.6508945349
 20
531.8694391251
 30
0.0
 11
182.6508945349
 21
517.4987638484
 31
0.0
  0
LINE
  5
AE
330
1F
100
AcDbEntity
  8
0
  6
Continuous
 62
     7
370
    25
100
AcDbLine
 10
182.6508945349
 20
531.8694391251
 30
0.0
 11
181.975999804
 21
531.8694391251
 31
0.0
  0
LINE
  5
AF
330
1F
100
AcDbEntity
  8
0
  6
Continuous
 62
     7
370
    25
100
AcDbLine
 10
181.975999804
 20
531.8694391251
 30
0.0
 11
181.975999804
 21
517.4987638484
 31
0.0
  0
LINE
  5
B0
330
1F
100
AcDbEntity
  8
0
  6
Continuous
 62
     7
370
    25
100
AcDbLine
 10
181.975999804
 20
517.4987638484
 30
0.0
 11
177.0754932689
 21
517.4987638484
 31
0.0
  0
LINE
  5
B1
330
1F
100
AcDbEntity
  8
0
  6
Continuous
 62
     7
370
    25
100
AcDbLine
 10
177.0754932689
 20
531.8694391251
 30
0.0
 11
177.0754932689
 21
517.4987638484
 31
0.0
  0
LINE
  5
B2
330
1F
100
AcDbEntity
  8
0
  6
Continuous
 62
     7
370
    25
100
AcDbLine
 10
177.0754932689
 20
531.8694391251
 30
0.0
 11
176.3375792481
 21
531.8694391251
 31
0.0
  0
LINE
  5
B3
330
1F
100
AcDbEntity
  8
0
  6
Continuous
 62
     7
370
    25
100
AcDbLine
 10
176.3375792481
 20
531.8694391251
 30
0.0
 11
176.3375792481
 21
517.4987638484
 31
0.0
  0
LINE
  5
B4
330
1F
100
AcDbEntity
  8
0
  6
Continuous
 62
     7
370
    25
100
AcDbLine
 10
176.3375792481
 20
517.4987638484
 30
0.0
 11
175.3849416873
 21
517.4987638484
 31
0.0
  0
SPLINE
  5
B5
330
1F
100
AcDbEntity
  8
0
  6
Continuous
 62
     7
370
    25
100
AcDbSpline
210
0.0
220
0.0
230
1.0
 70
     8
 71
     3
 72
     9
 73
     5
 74
     0
 42
0.000000001
 43
0.00000001
 40
0.0
 40
0.0
 40
0.0
 40
0.0
 40
0.0622188834796594
 40
1.0
 40
1.0
 40
1.0
 40
1.0
 10
181.4171636270289
 20
516.8694391250601
 30
0.0
 10
181.428763916695
 20
516.8824743775843
 30
0.0
 10
181.6152071477098
 20
517.0919807492077
 30
0.0
 10
181.8013956976914
 20
517.3019028584528
 30
0.0
 10
181.9759998039766
 20
517.4987638484431
 30
0.0
  0
LINE
  5
B6
330
1F
100
AcDbEntity
  8
0
  6
Continuous
 62
     7
370
    25
100
AcDbLine
 10
181.417163627
 20
516.8694391251
 30
0.0
 11
177.5866037515
 21
516.8694391251
 31
0.0
  0
SPLINE
  5
B7
330
1F
100
AcDbEntity
  8
0
  6
Continuous
 62
     7
370
    25
100
AcDbSpline
210
0.0
220
0.0
230
1.0
 70
     8
 71
     3
 72
     9
 73
     5
 74
     0
 42
0.000000001
 43
0.00000001
 40
0.0
 40
0.0
 40
0.0
 40
0.0
 40
0.4785453229089773
 40
1.0
 40
1.0
 40
1.0
 40
1.0
 10
177.5866037514774
 20
516.8694391250601
 30
0.0
 10
177.5050222782729
 20
516.9697338629961
 30
0.0
 10
177.3345442288614
 20
517.1793163897386
 30
0.0
 10
177.1642789138003
 20
517.3892782528914
 30
0.0
 10
177.0754932689153
 20
517.4987638484431
 30
0.0
  0
LINE
  5
B8
330
1F
100
AcDbEntity
  8
0
  6
Continuous
 62
     7
370
    25
100
AcDbLine
 10
177.5866037515
 20
516.8694391251
 30
0.0
 11
176.8486897306
 21
516.8694391251
 31
0.0
  0
SPLINE
  5
B9
330
1F
100
AcDbEntity
  8
0
  6
Continuous
 62
     7
370
    25
100
AcDbSpline
210
0.0
220
0.0
230
1.0
 70
     8
 71
     3
 72
     9
 73
     5
 74
     0
 42
0.000000001
 43
0.00000001
 40
0.0
 40
0.0
 40
0.0
 40
0.0
 40
0.4785453229089773
 40
1.0
 40
1.0
 40
1.0
 40
1.0
 10
176.8486897306387
 20
516.8694391250601
 30
0.0
 10
176.7671082574342
 20
516.9697338629961
 30
0.0
 10
176.5966302080227
 20
517.1793163897386
 30
0.0
 10
176.4263648929615
 20
517.3892782528914
 30
0.0
 10
176.3375792480765
 20
517.4987638484431
 30
0.0
  0
LINE
  5
BA
330
1F
100
AcDbEntity
  8
0
  6
Continuous
 62
     7
370
    25
100
AcDbLine
 10
176.8486897306
 20
516.8694391251
 30
0.0
 11
176.1349416873
 21
516.8694391251
 31
0.0
  0
SPLINE
  5
BB
330
1F
100
AcDbEntity
  8
0
  6
Continuous
 62
     7
370
    25
100
AcDbSpline
210
0.0
220
0.0
230
1.0
 70
     8
 71
     3
 72
     9
 73
     5
 74
     0
 42
0.000000001
 43
0.00000001
 40
0.0
 40
0.0
 40
0.0
 40
0.0
 40
0.0622188834796619
 40
1.0
 40
1.0
 40
1.0
 40
1.0
 10
182.0920583579683
 20
516.8694391250601
 30
0.0
 10
182.1036586476344
 20
516.8824743775843
 30
0.0
 10
182.2901018786491
 20
517.0919807492077
 30
0.0
 10
182.4762904286308
 20
517.3019028584529
 30
0.0
 10
182.6508945349159
 20
517.4987638484431
 30
0.0
  0
LINE
  5
BC
330
1F
100
AcDbEntity
  8
0
  6
Continuous
 62
     7
370
    25
100
AcDbLine
 10
181.417163627
 20
516.8694391251
 30
0.0
 11
182.092058358
 21
516.8694391251
 31
0.0
  0
LINE
  5
BD
330
1F
100
AcDbEntity
  8
0
  6
Continuous
 62
     7
370
    25
100
AcDbLine
 10
182.6349416873
 20
516.8694391251
 30
0.0
 11
182.092058358
 21
516.8694391251
 31
0.0
  0
LINE
  5
BE
330
1F
100
AcDbEntity
  8
0
  6
Continuous
 62
     7
370
    25
100
AcDbLine
 10
133.3534451131
 20
529.8694391251
 30
0.0
 11
132.4934226221
 21
529.8694391251
 31
0.0
  0
LINE
  5
BF
330
1F
100
AcDbEntity
  8
0
  6
Continuous
 62
     7
370
    25
100
AcDbLine
 10
132.4934226221
 20
510.869439125
 30
0.0
 11
132.4934226221
 21
529.8694391251
 31
0.0
  0
LINE
  5
C0
330
1F
100
AcDbEntity
  8
0
  6
Continuous
 62
     7
370
    25
100
AcDbLine
 10
126.3615118804
 20
510.869439125
 30
0.0
 11
132.4934226221
 21
510.869439125
 31
0.0
  0
LINE
  5
C1
330
1F
100
AcDbEntity
  8
0
  6
Continuous
 62
     7
370
    25
100
AcDbLine
 10
126.3615118804
 20
510.869439125
 30
0.0
 11
126.3615118804
 21
529.8694391251
 31
0.0
  0
LINE
  5
C2
330
1F
100
AcDbEntity
  8
0
  6
Continuous
 62
     7
370
    25
100
AcDbLine
 10
126.3615118804
 20
529.8694391251
 30
0.0
 11
125.8512557534
 21
529.8694391251
 31
0.0
  0
LINE
  5
C3
330
1F
100
AcDbEntity
  8
0
  6
Continuous
 62
     7
370
    25
100
AcDbLine
 10
125.8512557534
 20
510.869439125
 30
0.0
 11
125.8512557534
 21
529.8694391251
 31
0.0
  0
LINE
  5
C4
330
1F
100
AcDbEntity
  8
0
  6
Continuous
 62
     7
370
    25
100
AcDbLine
 10
125.3849416873
 20
510.869439125
 30
0.0
 11
125.8512557534
 21
510.869439125
 31
0.0
  0
LINE
  5
C5
330
1F
100
AcDbEntity
  8
0
  6
Continuous
 62
     7
370
    25
100
AcDbLine
 10
133.3534451131
 20
510.869439125
 30
0.0
 11
135.3849416873
 21
510.869439125
 31
0.0
  0
LINE
  5
C6
330
1F
100
AcDbEntity
  8
0
  6
Continuous
 62
     7
370
    25
100
AcDbLine
 10
133.3534451131
 20
510.869439125
 30
0.0
 11
133.3534451131
 21
529.8694391251
 31
0.0
  0
LINE
  5
C7
330
1F
100
AcDbEntity
  8
0
  6
Continuous
 62
     7
370
    25
100
AcDbLine
 10
131.9799466673
 20
509.8694391251
 30
0.0
 11
127.2269613015
 21
509.8694391251
 31
0.0
  0
LINE
  5
C8
330
1F
100
AcDbEntity
  8
0
  6
Continuous
 62
     7
370
    25
100
AcDbLine
 10
127.2269613015
 20
509.8694391251
 30
0.0
 11
126.3615118804
 21
510.869439125
 31
0.0
  0
LINE
  5
C9
330
1F
100
AcDbEntity
  8
0
  6
Continuous
 62
     7
370
    25
100
AcDbLine
 10
132.4934226221
 20
510.869439125
 30
0.0
 11
131.9799466673
 21
509.8694391251
 31
0.0
  0
LINE
  5
CA
330
1F
100
AcDbEntity
  8
0
  6
Continuous
 62
     7
370
    25
100
AcDbLine
 10
132.5180641377
 20
515.8944391251
 30
0.0
 11
132.5180641377
 21
513.8179962836
 31
0.0
  0
LINE
  5
CB
330
1F
100
AcDbEntity
  8
0
  6
Continuous
 62
     7
370
    25
100
AcDbLine
 10
132.8399691582
 20
509.8694391251
 30
0.0
 11
133.3534451131
 21
510.869439125
 31
0.0
  0
LINE
  5
CC
330
1F
100
AcDbEntity
  8
0
  6
Continuous
 62
     7
370
    25
100
AcDbLine
 10
132.8399691582
 20
509.8694391251
 30
0.0
 11
131.9799466673
 21
509.8694391251
 31
0.0
  0
LINE
  5
CD
330
1F
100
AcDbEntity
  8
0
  6
Continuous
 62
     7
370
    25
100
AcDbLine
 10
134.3849416874
 20
509.8694391251
 30
0.0
 11
132.8399691582
 21
509.8694391251
 31
0.0
  0
LINE
  5
CE
330
1F
100
AcDbEntity
  8
0
  6
Continuous
 62
     7
370
    25
100
AcDbLine
 10
127.2269613015
 20
509.8694391251
 30
0.0
 11
126.7167051745
 21
509.8694391251
 31
0.0
  0
LINE
  5
CF
330
1F
100
AcDbEntity
  8
0
  6
Continuous
 62
     7
370
    25
100
AcDbLine
 10
125.8512557534
 20
510.869439125
 30
0.0
 11
126.7167051745
 21
509.8694391251
 31
0.0
  0
LINE
  5
D0
330
1F
100
AcDbEntity
  8
0
  6
Continuous
 62
     7
370
    25
100
AcDbLine
 10
126.7167051745
 20
509.8694391251
 30
0.0
 11
126.3849416873
 21
509.8694391251
 31
0.0
  0
LINE
  5
D1
330
1F
100
AcDbEntity
  8
0
  6
Continuous
 62
     7
370
    25
100
AcDbLine
 10
132.4934226221
 20
516.5194391251
 30
0.0
 11
132.8399691582
 21
516.5194391251
 31
0.0
  0
CIRCLE
  5
D2
330
1F
100
AcDbEntity
  8
0
  6
Continuous
 62
     7
370
    25
100
AcDbCircle
 10
153.8849416873
 20
543.3694391251
 30
0.0
 40
1.700000000027899
  0
LINE
  5
D3
330
1F
100
AcDbEntity
  8
0
  6
Continuous
 62
     7
370
    25
100
AcDbLine
 10
153.1632538508
 20
544.6194391251
 30
0.0
 11
152.4415660143
 21
543.3694391251
 31
0.0
  0
LINE
  5
D4
330
1F
100
AcDbEntity
  8
0
  6
Continuous
 62
     7
370
    25
100
AcDbLine
 10
152.4415660143
 20
543.3694391251
 30
0.0
 11
153.1632538508
 21
542.1194391251
 31
0.0
  0
LINE
  5
D5
330
1F
100
AcDbEntity
  8
0
  6
Continuous
 62
     7
370
    25
100
AcDbLine
 10
153.1632538508
 20
542.1194391251
 30
0.0
 11
154.6066295238
 21
542.1194391251
 31
0.0
  0
LINE
  5
D6
330
1F
100
AcDbEntity
  8
0
  6
Continuous
 62
     7
370
    25
100
AcDbLine
 10
154.6066295238
 20
542.1194391251
 30
0.0
 11
155.3283173603
 21
543.3694391251
 31
0.0
  0
LINE
  5
D7
330
1F
100
AcDbEntity
  8
0
  6
Continuous
 62
     7
370
    25
100
AcDbLine
 10
154.6066295238
 20
544.6194391251
 30
0.0
 11
155.3283173603
 21
543.3694391251
 31
0.0
  0
LINE
  5
D8
330
1F
100
AcDbEntity
  8
0
  6
Continuous
 62
     7
370
    25
100
AcDbLine
 10
154.6066295238
 20
544.6194391251
 30
0.0
 11
153.1632538508
 21
544.6194391251
 31
0.0
  0
CIRCLE
  5
D9
330
1F
100
AcDbEntity
  8
0
  6
Continuous
 62
     7
370
    25
100
AcDbCircle
 10
179.3849416873
 20
543.3694391251
 30
0.0
 40
1.750000000015443
  0
LINE
  5
DA
330
1F
100
AcDbEntity
  8
0
  6
Continuous
 62
     7
370
    25
100
AcDbLine
 10
180.2949447457
 20
544.489808603
 30
0.0
 11
178.869674787
 21
544.7177096301
 31
0.0
  0
LINE
  5
DB
330
1F
100
AcDbEntity
  8
0
  6
Continuous
 62
     7
370
    25
100
AcDbLine
 10
178.869674787
 20
544.7177096301
 30
0.0
 11
177.9596717286
 21
543.5973401522
 31
0.0
  0
LINE
  5
DC
330
1F
100
AcDbEntity
  8
0
  6
Continuous
 62
     7
370
    25
100
AcDbLine
 10
178.4749386289
 20
542.2490696471
 30
0.0
 11
179.9002085876
 21
542.02116862
 31
0.0
  0
LINE
  5
DD
330
1F
100
AcDbEntity
  8
0
  6
Continuous
 62
     7
370
    25
100
AcDbLine
 10
180.810211646
 20
543.1415380979
 30
0.0
 11
180.2949447457
 21
544.489808603
 31
0.0
  0
LINE
  5
DE
330
1F
100
AcDbEntity
  8
0
  6
Continuous
 62
     7
370
    25
100
AcDbLine
 10
177.9596717286
 20
543.5973401522
 30
0.0
 11
178.4749386289
 21
542.2490696471
 31
0.0
  0
LINE
  5
DF
330
1F
100
AcDbEntity
  8
0
  6
Continuous
 62
     7
370
    25
100
AcDbLine
 10
179.9002085876
 20
542.02116862
 30
0.0
 11
180.810211646
 21
543.1415380979
 31
0.0
  0
LINE
  5
E0
330
1F
100
AcDbEntity
  8
0
  6
Continuous
 62
     7
370
    25
100
AcDbLine
 10
177.0196191402
 20
522.3694391251
 30
0.0
 11
177.0754932689
 21
522.3694391251
 31
0.0
  0
CIRCLE
  5
E1
330
1F
100
AcDbEntity
  8
0
  6
Continuous
 62
     7
370
    25
100
AcDbCircle
 10
153.8849416873
 20
543.3694391251
 30
0.0
 40
2.524999999999977
  0
CIRCLE
  5
E2
330
1F
100
AcDbEntity
  8
0
  6
Continuous
 62
     7
370
    25
100
AcDbCircle
 10
153.8849416873
 20
543.3694391251
 30
0.0
 40
2.100000000000023
  0
LINE
  5
E3
330
1F
100
AcDbEntity
  8
0
  6
Continuous
 62
     7
370
    25
100
AcDbLine
 10
192.3849416873
 20
540.3694391251
 30
0.0
 11
192.3849416873
 21
539.8694391251
 31
0.0
  0
LINE
  5
E4
330
1F
100
AcDbEntity
  8
0
  6
Continuous
 62
     7
370
    25
100
AcDbLine
 10
192.3849416873
 20
539.8694391251
 30
0.0
 11
190.3849416873
 21
539.8694391251
 31
0.0
  0
LINE
  5
E5
330
1F
100
AcDbEntity
  8
0
  6
Continuous
 62
     7
370
    25
100
AcDbLine
 10
190.3849416873
 20
539.8694391251
 30
0.0
 11
190.3849416873
 21
540.3694391251
 31
0.0
  0
LINE
  5
E6
330
1F
100
AcDbEntity
  8
0
  6
Continuous
 62
     7
370
    25
100
AcDbLine
 10
192.3849416873
 20
540.3694391251
 30
0.0
 11
190.3849416873
 21
540.3694391251
 31
0.0
  0
ARC
  5
E7
330
1F
100
AcDbEntity
  8
0
  6
Continuous
 62
     7
370
    25
100
AcDbCircle
 10
184.3849416873
 20
540.3694391251
 30
0.0
 40
6.0
100
AcDbArc
 50
0.0
 51
90.0
  0
LINE
  5
E8
330
1F
100
AcDbEntity
  8
0
  6
Continuous
 62
     7
370
    25
100
AcDbLine
 10
110.3849416873
 20
539.8694391251
 30
0.0
 11
190.3849416873
 21
539.8694391251
 31
0.0
  0
LINE
  5
E9
330
1F
100
AcDbEntity
  8
0
  6
Continuous
 62
     7
370
    25
100
AcDbLine
 10
110.3849416873
 20
546.3694391251
 30
0.0
 11
110.3849416873
 21
539.8694391251
 31
0.0
  0
LINE
  5
EA
330
1F
100
AcDbEntity
  8
0
  6
Continuous
 62
     7
370
    25
100
AcDbLine
 10
184.3849416873
 20
546.3694391251
 30
0.0
 11
110.3849416873
 21
546.3694391251
 31
0.0
  0
CIRCLE
  5
EB
330
1F
100
AcDbEntity
  8
0
  6
Continuous
 62
     7
370
    25
100
AcDbCircle
 10
179.3849416873
 20
543.3694391251
 30
0.0
 40
2.524999999999977
  0
ARC
  5
EC
330
1F
100
AcDbEntity
  8
0
  6
Continuous
 62
     7
370
    25
100
AcDbCircle
 10
184.3849416873
 20
540.3694391251
 30
0.0
 40
8.000000000000028
100
AcDbArc
 50
0.0
 51
90.0
  0
LINE
  5
ED
330
1F
100
AcDbEntity
  8
0
  6
Continuous
 62
     7
370
    25
100
AcDbLine
 10
184.3849416873
 20
548.3694391251
 30
0.0
 11
184.3849416873
 21
546.3694391251
 31
0.0
  0
LINE
  5
EE
330
1F
100
AcDbEntity
  8
0
  6
Continuous
 62
     7
370
    25
100
AcDbLine
 10
110.3849416873
 20
548.3694391251
 30
0.0
 11
110.3849416873
 21
546.3694391251
 31
0.0
  0
LINE
  5
EF
330
1F
100
AcDbEntity
  8
0
  6
Continuous
 62
     7
370
    25
100
AcDbLine
 10
110.3849416873
 20
548.3694391251
 30
0.0
 11
184.3849416873
 21
548.3694391251
 31
0.0
  0
LINE
  5
F0
330
1F
100
AcDbEntity
  8
0
  6
Continuous
 62
     7
370
    25
100
AcDbLine
 10
108.3849416873
 20
539.8694391251
 30
0.0
 11
108.3849416873
 21
546.3694391251
 31
0.0
  0
LINE
  5
F1
330
1F
100
AcDbEntity
  8
0
  6
Continuous
 62
     7
370
    25
100
AcDbLine
 10
108.3849416873
 20
546.3694391251
 30
0.0
 11
110.3849416873
 21
546.3694391251
 31
0.0
  0
LINE
  5
F2
330
1F
100
AcDbEntity
  8
0
  6
Continuous
 62
     7
370
    25
100
AcDbLine
 10
110.3849416873
 20
539.8694391251
 30
0.0
 11
108.3849416873
 21
539.8694391251
 31
0.0
  0
ARC
  5
F3
330
1F
100
AcDbEntity
  8
0
  6
Continuous
 62
     7
370
    25
100
AcDbCircle
 10
110.3849416873
 20
546.3694391251
 30
0.0
 40
2.0
100
AcDbArc
 50
90.0
 51
180.0
  0
LINE
  5
F4
330
1F
100
AcDbEntity
  8
0
  6
Continuous
 62
     7
370
    25
100
AcDbLine
 10
123.3837990648
 20
550.8694391251
 30
0.0
 11
98.6837990648
 21
550.8694391251
 31
0.0
  0
LINE
  5
F5
330
1F
100
AcDbEntity
  8
0
  6
Continuous
 62
     7
370
    25
100
AcDbLine
 10
98.6837990648
 20
550.8694391251
 30
0.0
 11
98.6837990648
 21
643.9857060141
 31
0.0
  0
LINE
  5
F6
330
1F
100
AcDbEntity
  8
0
  6
Continuous
 62
     7
370
    25
100
AcDbLine
 10
152.1501818898
 20
651.7323747838
 30
0.0
 11
205.4592872701
 21
647.8590403989
 31
0.0
  0
LINE
  5
F7
330
1F
100
AcDbEntity
  8
0
  6
Continuous
 62
     7
370
    25
100
AcDbLine
 10
205.4592872701
 20
647.8590403989
 30
0.0
 11
265.0537456864
 21
649.7957075913
 31
0.0
  0
LINE
  5
F8
330
1F
100
AcDbEntity
  8
0
  6
Continuous
 62
     7
370
    25
100
AcDbLine
 10
265.0537456864
 20
649.7957075913
 30
0.0
 11
316.4101219595
 21
643.9857060141
 31
0.0
  0
LINE
  5
F9
330
1F
100
AcDbEntity
  8
0
  6
Continuous
 62
     7
370
    25
100
AcDbLine
 10
316.4101219595
 20
643.9857060141
 30
0.0
 11
324.2485055345
 21
625.396350326
 31
0.0
  0
LINE
  5
FA
330
1F
100
AcDbEntity
  8
0
  6
Continuous
 62
     7
370
    25
100
AcDbLine
 10
324.2485055345
 20
625.396350326
 30
0.0
 11
316.4101219595
 21
606.5129717134
 31
0.0
  0
LINE
  5
FB
330
1F
100
AcDbEntity
  8
0
  6
Continuous
 62
     7
370
    25
100
AcDbLine
 10
316.4101219595
 20
606.5129717134
 30
0.0
 11
324.2485055345
 21
579.4349193632
 31
0.0
  0
LINE
  5
FC
330
1F
100
AcDbEntity
  8
0
  6
Continuous
 62
     7
370
    25
100
AcDbLine
 10
324.2485055345
 20
579.4349193632
 30
0.0
 11
315.3125197473
 21
546.8694391251
 31
0.0
  0
LINE
  5
FD
330
1F
100
AcDbEntity
  8
0
  6
Continuous
 62
     7
370
    25
100
AcDbLine
 10
315.3125197473
 20
546.8694391251
 30
0.0
 11
260.1837990648
 21
546.8694391251
 31
0.0
  0
LINE
  5
FE
330
1F
100
AcDbEntity
  8
0
  6
Continuous
 62
     7
370
    25
100
AcDbLine
 10
260.1837990648
 20
549.8694391251
 30
0.0
 11
260.1837990648
 21
546.8694391251
 31
0.0
  0
LINE
  5
FF
330
1F
100
AcDbEntity
  8
0
  6
Continuous
 62
     7
370
    25
100
AcDbLine
 10
98.6837990648
 20
643.9857060141
 30
0.0
 11
152.1501818898
 21
651.7323747838
 31
0.0
  0
LINE
  5
100
330
1F
100
AcDbEntity
  8
0
  6
Continuous
 62
     7
370
    18
100
AcDbLine
 10
130.9026289217
 20
718.6615784531
 30
0.0
 11
182.3346996063
 21
718.6615784531
 31
0.0
  0
LINE
  5
101
330
1F
100
AcDbEntity
  8
0
  6
Continuous
 62
     7
370
    18
100
AcDbLine
 10
182.3346996063
 20
718.6615784531
 30
0.0
 11
182.3346996063
 21
721.7965617933
 31
0.0
  0
LINE
  5
102
330
1F
100
AcDbEntity
  8
0
  6
Continuous
 62
     7
370
    18
100
AcDbLine
 10
182.3346996063
 20
721.7965617933
 30
0.0
 11
192.602905909
 21
718.6161439119
 31
0.0
  0
LINE
  5
103
330
1F
100
AcDbEntity
  8
0
  6
Continuous
 62
     7
370
    18
100
AcDbLine
 10
192.602905909
 20
718.6161439119
 30
0.0
 11
182.3346996063
 21
715.5265951129
 31
0.0
  0
LINE
  5
104
330
1F
100
AcDbEntity
  8
0
  6
Continuous
 62
     7
370
    18
100
AcDbLine
 10
182.3346996063
 20
715.5265951129
 30
0.0
 11
182.3346996063
 21
718.6615784531
 31
0.0
  0
LINE
  5
105
330
1F
100
AcDbEntity
  8
0
  6
Continuous
 62
     7
370
    18
100
AcDbLine
 10
130.9026289217
 20
718.6615784531
 30
0.0
 11
130.9026289217
 21
721.7965617933
 31
0.0
  0
LINE
  5
106
330
1F
100
AcDbEntity
  8
0
  6
Continuous
 62
     7
370
    18
100
AcDbLine
 10
130.9026289217
 20
721.7965617933
 30
0.0
 11
119.7682498763
 21
718.9752965871
 31
0.0
  0
LINE
  5
107
330
1F
100
AcDbEntity
  8
0
  6
Continuous
 62
     7
370
    18
100
AcDbLine
 10
119.7682498763
 20
718.9752965871
 30
0.0
 11
130.9026289217
 21
715.5265951129
 31
0.0
  0
LINE
  5
108
330
1F
100
AcDbEntity
  8
0
  6
Continuous
 62
     7
370
    18
100
AcDbLine
 10
130.9026289217
 20
715.5265951129
 30
0.0
 11
130.9026289217
 21
718.6615784531
 31
0.0
  0
HATCH
  5
109
330
1F
100
AcDbEntity
  8
0
  6
Continuous
 62
     7
100
AcDbHatch
 10
0.0
 20
0.0
 30
0.0
210
0.0
220
0.0
230
1.0
  2
LINE
 70
     0
 71
     0
 91
        1
 92
        0
 93
       16
 72
     1
 10
65.68494168731613
 20
489.8694391250601
 11
325.6849416873163
 21
489.8694391250601
 72
     1
 10
325.6849416873163
 20
489.8694391250601
 11
325.6849416873163
 21
539.8694391250601
 72
     1
 10
325.6849416873163
 20
539.8694391250601
 11
183.3849416873162
 21
539.8694391250601
 72
     1
 10
183.3849416873162
 20
539.8694391250601
 11
183.3849416873162
 21
514.8694391250601
 72
     1
 10
183.3849416873162
 20
514.8694391250601
 11
179.3849416873161
 21
512.4659966489498
 72
     1
 10
179.3849416873161
 20
512.4659966489498
 11
175.3849416873162
 21
514.8694391250601
 72
     1
 10
175.3849416873162
 20
514.8694391250601
 11
175.3849416873162
 21
539.8694391250601
 72
     1
 10
175.3849416873162
 20
539.8694391250601
 11
135.3849416873162
 21
539.8694391250601
 72
     1
 10
135.3849416873162
 20
539.8694391250601
 11
135.3849416873162
 21
509.8694391250601
 72
     1
 10
135.3849416873162
 20
509.8694391250601
 11
130.3849416873161
 21
506.8651360299223
 72
     1
 10
130.3849416873161
 20
506.8651360299223
 11
125.3849416873162
 21
509.8694391250601
 72
     1
 10
125.3849416873162
 20
509.8694391250601
 11
125.3849416873162
 21
539.8694391250601
 72
     1
 10
125.3849416873162
 20
539.8694391250601
 11
95.68494168731614
 21
539.8694391250601
 72
     1
 10
95.68494168731614
 20
539.8694391250601
 11
95.68494168731614
 21
646.5396111765685
 72
     1
 10
95.68494168731614
 20
646.5396111765685
 11
65.68494168731614
 21
646.5396111765685
 72
     1
 10
65.68494168731614
 20
646.5396111765685
 11
65.68494168731613
 21
489.8694391250601
 97
        0
 75
     0
 76
     1
 52
45.0
 41
2.0
 77
     0
 78
     1
 53
45.0000000000001
 43
0.0
 44
0.0
 45
-4.490128060534585
 46
4.490128060534569
 79
     0
 98
        1
 10
0.0
 20
0.0
  0
DIMENSION
  5
10A
330
1F
100
AcDbEntity
  8
0
  6
Continuous
 62
     7
370
    18
100
AcDbDimension
  2
_D
 10
95.6849416873
 20
663.255650517
 30
0.0
 11
68.8710463976
 21
663.255650517
 31
0.0
 70
   160
  1
<>
 71
     2
 42
-1.0
  3
SLDDIMSTYLE0
100
AcDbAlignedDimension
 13
98.6837990648
 23
643.9857060141
 33
0.0
 14
95.6849416873
 24
646.5396111766
 34
0.0
100
AcDbRotatedDimension
  0
DIMENSION
  5
118
330
1F
100
AcDbEntity
  8
0
  6
Continuous
 62
     7
370
    18
100
AcDbDimension
  2
_D_1
 10
179.3849416873
 20
417.2694391251
 30
0.0
 11
155.9067367018
 21
417.2694391251
 31
0.0
 70
   160
  1
<>
 71
     2
 42
-1.0
  3
SLDDIMSTYLE1
100
AcDbAlignedDimension
 13
130.3849416873
 23
506.8651360299
 33
0.0
 14
179.3849416873
 24
512.4659966489
 34
0.0
100
AcDbRotatedDimension
  0
DIMENSION
  5
123
330
1F
100
AcDbEntity
  8
0
  6
Continuous
 62
     7
370
    18
100
AcDbDimension
  2
_D_2
 10
155.6837990648
 20
680.8131656007
 30
0.0
 11
131.8440504553
 21
680.8131656007
 31
0.0
 70
   160
  1
<>
 71
     2
 42
-1.0
  3
SLDDIMSTYLE1
100
AcDbAlignedDimension
 13
95.6849416873
 23
646.5396111766
 33
0.0
 14
155.6837990648
 24
717.7924628489
 34
0.0
100
AcDbRotatedDimension
  0
DIMENSION
  5
12C
330
1F
100
AcDbEntity
  8
0
  6
Continuous
 62
     7
370
    18
100
AcDbDimension
  2
_D_3
 10
32.6849416873
 20
506.8651360299
 30
0.0
 11
32.6849416873
 21
528.7128873729
 31
0.0
 70
   160
  1
<>
 71
     2
 42
-1.0
  3
SLDDIMSTYLE1
100
AcDbAlignedDimension
 13
108.3849416873
 23
539.8694391251
 33
0.0
 14
130.3849416873
 24
506.8651360299
 34
0.0
 50
90.0
100
AcDbRotatedDimension
  0
DIMENSION
  5
136
330
1F
100
AcDbEntity
  8
0
  6
Continuous
 62
     7
370
    18
100
AcDbDimension
  2
_D_4
 10
398.2849416873
 20
512.4659966489
 30
0.0
 11
398.2849416873
 21
528.7128873729
 31
0.0
 70
   160
  1
<>
 71
     2
 42
-1.0
  3
SLDDIMSTYLE2
100
AcDbAlignedDimension
 13
325.6849416873
 23
539.8694391251
 33
0.0
 14
179.3849416873
 24
512.4659966489
 34
0.0
 50
90.0
100
AcDbRotatedDimension
  0
DIMENSION
  5
143
330
1F
100
AcDbEntity
  8
0
  6
Continuous
 62
     7
370
    18
100
AcDbDimension
  2
_D_5
 10
125.3849416873
 20
437.0694391251
 30
0.0
 11
208.84629209
 21
437.0694391251
 31
0.0
 70
   160
  1
%%c<>
 71
     2
 42
-1.0
  3
SLDDIMSTYLE0
100
AcDbAlignedDimension
 13
135.3849416873
 23
509.8694391251
 33
0.0
 14
125.3849416873
 24
509.8694391251
 34
0.0
100
AcDbRotatedDimension
  0
DIMENSION
  5
150
330
1F
100
AcDbEntity
  8
0
  6
Continuous
 62
     7
370
    18
100
AcDbDimension
  2
_D_6
 10
175.3849416873
 20
456.8694391251
 30
0.0
 11
208.84629209
 21
456.8694391251
 31
0.0
 70
   160
  1
%%c <>
 71
     2
 42
-1.0
  3
SLDDIMSTYLE0
100
AcDbAlignedDimension
 13
183.3849416873
 23
514.8694391251
 33
0.0
 14
175.3849416873
 24
517.4987638484
 34
0.0
100
AcDbRotatedDimension
  0
DIMENSION
  5
15D
330
1F
100
AcDbEntity
  8
0
  6
Continuous
 62
     7
370
    18
100
AcDbDimension
  2
_D_7
 10
277.1837990648
 20
621.8046279048
 30
0.0
 11
202.4685122957
 21
621.8046279048
 31
0.0
 70
   160
  1
<>
 71
     2
 42
-1.0
  3
SLDDIMSTYLE3
100
AcDbAlignedDimension
 13
123.3837990648
 23
593.8694391251
 33
0.0
 14
277.1837990648
 24
593.8694391251
 34
0.0
 50
0.0
100
AcDbRotatedDimension
  0
DIMENSION
  5
168
330
1F
100
AcDbEntity
  8
0
  6
Continuous
 62
     7
370
    18
100
AcDbDimension
  2
_D_8
 10
262.6819232046
 20
594.8694391251
 30
0.0
 11
262.6819232046
 21
574.2934699043
 31
0.0
 70
   160
  1
<>
 71
     2
 42
-1.0
  3
SLDDIMSTYLE0
100
AcDbAlignedDimension
 13
277.9837990648
 23
549.8694391251
 33
0.0
 14
277.9837990648
 24
594.8694391251
 34
0.0
 50
90.0
100
AcDbRotatedDimension
  0
DIMENSION
  5
172
330
1F
100
AcDbEntity
  8
0
  6
Continuous
 62
     7
370
    18
100
AcDbDimension
  2
_D_9
 10
378.4849416873
 20
539.8694391251
 30
0.0
 11
378.4849416873
 21
604.3816532307
 31
0.0
 70
   160
  1
7 min
 71
     2
 42
-1.0
  3
SLDDIMSTYLE0
100
AcDbAlignedDimension
 13
315.3125197473
 23
546.8694391251
 33
0.0
 14
325.6849416873
 24
539.8694391251
 34
0.0
 50
90.0
100
AcDbRotatedDimension
  0
DIMENSION
  5
188
330
1F
100
AcDbEntity
  8
0
  6
Continuous
 62
     7
370
    18
100
AcDbDimension
  2
_D_10
 10
179.3849416873
 20
392.135868321
 30
0.0
 11
138.7254093399
 21
392.135868321
 31
0.0
 70
   160
  1
<>
 71
     2
 42
-1.0
  3
SLDDIMSTYLE3
100
AcDbAlignedDimension
 13
95.6849416873
 23
539.8694391251
 33
0.0
 14
179.3849416873
 24
512.4659966489
 34
0.0
100
AcDbRotatedDimension
  0
DIMENSION
  5
192
330
1F
100
AcDbEntity
  8
0
  6
Continuous
 62
     7
370
    18
100
AcDbDimension
  2
_D_11
 10
48.3334312059
 20
539.8694391251
 30
0.0
 11
48.3334312059
 21
595.983304922
 31
0.0
 70
   160
  1
<>
 71
     2
 42
-1.0
  3
SLDDIMSTYLE0
100
AcDbAlignedDimension
 13
98.6837990648
 23
550.8694391251
 33
0.0
 14
95.6849416873
 24
539.8694391251
 34
0.0
 50
90.0
100
AcDbRotatedDimension
  0
DIMENSION
  5
1A2
330
1F
100
AcDbEntity
  8
0
  6
Continuous
 62
     7
370
    18
100
AcDbDimension
  2
_D_12
 10
95.6849416873
 20
521.9799250366
 30
0.0
 11
79.9247657422
 21
521.9799250366
 31
0.0
 70
   160
  1
<>
 71
     2
 42
-1.0
  3
SLDDIMSTYLE0
100
AcDbAlignedDimension
 13
108.3849416873
 23
539.8694391251
 33
0.0
 14
95.6849416873
 24
539.8694391251
 34
0.0
100
AcDbRotatedDimension
  0
MTEXT
  5
1AE
330
1F
100
AcDbEntity
  8
0
  6
Continuous
 62
     7
370
     0
100
AcDbMText
 10
50.7492419748
 20
961.787751674
 30
0.0
 40
10.4775
 41
0.0
 71
     1
 72
     1
  1
106E10 CERNIERA UNICA SLIM
  7
SLDTEXTSTYLE0
 73
     1
 44
1.0
  0
MTEXT
  5
1AF
330
1F
100
AcDbEntity
  8
0
  6
Continuous
 62
     7
370
     0
100
AcDbMText
 10
133.0184203828
 20
707.49125326
 30
0.0
 40
9.24
 41
0.0
 71
     1
 72
     1
  1
REG ±2mm
  7
SLDTEXTSTYLE0
 73
     1
 44
1.0
  0
LINE
  5
1B0
330
1F
100
AcDbEntity
  8
0
  6
CENTERX2
 62
     7
370
    18
100
AcDbLine
 10
155.6837990648
 20
717.7924628489
 30
0.0
 11
155.6837990648
 21
532.3694391251
 31
0.0
  0
LINE
  5
1B1
330
1F
100
AcDbEntity
  8
0
  6
Continuous
 62
     7
370
    25
100
AcDbLine
 10
181.8849416873
 20
732.4574828561
 30
0.0
 11
181.8849416873
 21
736.3080284561
 31
0.0
  0
LINE
  5
1B2
330
1F
100
AcDbEntity
  8
0
  6
Continuous
 62
     7
370
    25
100
AcDbLine
 10
181.8849416873
 20
736.8761430708
 30
0.0
 11
181.8849416873
 21
737.6574828561
 31
0.0
  0
LINE
  5
1B3
330
1F
100
AcDbEntity
  8
0
  6
Continuous
 62
     7
370
    25
100
AcDbLine
 10
176.8849416873
 20
737.6574828561
 30
0.0
 11
176.8849416873
 21
736.8761430708
 31
0.0
  0
LINE
  5
1B4
330
1F
100
AcDbEntity
  8
0
  6
Continuous
 62
     7
370
    25
100
AcDbLine
 10
176.8849416873
 20
736.3080284561
 30
0.0
 11
176.8849416873
 21
732.4574828561
 31
0.0
  0
LINE
  5
1B5
330
1F
100
AcDbEntity
  8
0
  6
Continuous
 62
     7
370
    25
100
AcDbLine
 10
176.8849416873
 20
732.4574828561
 30
0.0
 11
177.6349416873
 21
732.1574828561
 31
0.0
  0
LINE
  5
1B6
330
1F
100
AcDbEntity
  8
0
  6
Continuous
 62
     7
370
    25
100
AcDbLine
 10
181.1349416873
 20
732.1574828561
 30
0.0
 11
181.8849416873
 21
732.4574828561
 31
0.0
  0
LINE
  5
1B7
330
1F
100
AcDbEntity
  8
0
  6
Continuous
 62
     7
370
    25
100
AcDbLine
 10
181.8849416873
 20
737.6574828561
 30
0.0
 11
181.3849416873
 21
738.1574828561
 31
0.0
  0
LINE
  5
1B8
330
1F
100
AcDbEntity
  8
0
  6
Continuous
 62
     7
370
    25
100
AcDbLine
 10
177.3849416873
 20
738.1574828561
 30
0.0
 11
176.8849416873
 21
737.6574828561
 31
0.0
  0
LINE
  5
1B9
330
1F
100
AcDbEntity
  8
0
  6
Continuous
 62
     7
370
    25
100
AcDbLine
 10
176.8849416873
 20
754.6574828561
 30
0.0
 11
177.3849416873
 21
754.1574828561
 31
0.0
  0
LINE
  5
1BA
330
1F
100
AcDbEntity
  8
0
  6
Continuous
 62
     7
370
    25
100
AcDbLine
 10
181.3849416873
 20
754.1574828561
 30
0.0
 11
181.8849416873
 21
754.6574828561
 31
0.0
  0
LINE
  5
1BB
330
1F
100
AcDbEntity
  8
0
  6
Continuous
 62
     7
370
    25
100
AcDbLine
 10
176.8849416873
 20
759.8574828561
 30
0.0
 11
176.8849416873
 21
756.0069372561
 31
0.0
  0
LINE
  5
1BC
330
1F
100
AcDbEntity
  8
0
  6
Continuous
 62
     7
370
    25
100
AcDbLine
 10
176.8849416873
 20
755.4388226413
 30
0.0
 11
176.8849416873
 21
754.6574828561
 31
0.0
  0
LINE
  5
1BD
330
1F
100
AcDbEntity
  8
0
  6
Continuous
 62
     7
370
    25
100
AcDbLine
 10
181.8849416873
 20
754.6574828561
 30
0.0
 11
181.8849416873
 21
755.4388226413
 31
0.0
  0
LINE
  5
1BE
330
1F
100
AcDbEntity
  8
0
  6
Continuous
 62
     7
370
    25
100
AcDbLine
 10
181.8849416873
 20
756.0069372561
 30
0.0
 11
181.8849416873
 21
759.8574828561
 31
0.0
  0
LINE
  5
1BF
330
1F
100
AcDbEntity
  8
0
  6
Continuous
 62
     7
370
    25
100
AcDbLine
 10
181.8849416873
 20
759.8574828561
 30
0.0
 11
181.1349416873
 21
760.1574828561
 31
0.0
  0
LINE
  5
1C0
330
1F
100
AcDbEntity
  8
0
  6
Continuous
 62
     7
370
    25
100
AcDbLine
 10
177.6349416873
 20
760.1574828561
 30
0.0
 11
176.8849416873
 21
759.8574828561
 31
0.0
  0
ARC
  5
1C1
330
1F
100
AcDbEntity
  8
0
  6
Continuous
 62
     7
370
    25
100
AcDbCircle
 10
181.6340649892
 20
755.7228799487
 30
0.0
 40
0.3789824158922616
100
AcDbArc
 50
311.4506343782
 51
48.5493656218
  0
ARC
  5
1C2
330
1F
100
AcDbEntity
  8
0
  6
Continuous
 62
     7
370
    25
100
AcDbCircle
 10
177.1358183855
 20
755.7228799487
 30
0.0
 40
0.3789824158922427
100
AcDbArc
 50
131.4506343782
 51
228.5493656218
  0
ARC
  5
1C3
330
1F
100
AcDbEntity
  8
0
  6
Continuous
 62
     7
370
    25
100
AcDbCircle
 10
177.1358183855
 20
736.5920857635
 30
0.0
 40
0.3789824158922427
100
AcDbArc
 50
131.4506343782
 51
228.5493656218
  0
ARC
  5
1C4
330
1F
100
AcDbEntity
  8
0
  6
Continuous
 62
     7
370
    25
100
AcDbCircle
 10
181.6340649892
 20
736.5920857635
 30
0.0
 40
0.3789824158922616
100
AcDbArc
 50
311.4506343782
 51
48.5493656218
  0
ARC
  5
1C5
330
1F
100
AcDbEntity
  8
0
  6
Continuous
 62
     7
370
    25
100
AcDbCircle
 10
259.3837990648
 20
741.8574828561
 30
0.0
 40
0.2000000000000455
100
AcDbArc
 50
180.0
 51
270.0
  0
ARC
  5
1C6
330
1F
100
AcDbEntity
  8
0
  6
Continuous
 62
     7
370
    25
100
AcDbCircle
 10
161.6227136991
 20
741.4574828561
 30
0.0
 40
0.8000000000000378
100
AcDbArc
 50
55.6988472432
 51
61.0449756281
  0
ARC
  5
1C7
330
1F
100
AcDbEntity
  8
0
  6
Continuous
 62
     7
370
    25
100
AcDbCircle
 10
162.9188618387
 20
743.3574828561
 30
0.0
 40
1.500000000000022
100
AcDbArc
 50
235.6988472432
 51
312.8334280661
  0
ARC
  5
1C8
330
1F
100
AcDbEntity
  8
0
  6
Continuous
 62
     7
370
    25
100
AcDbCircle
 10
163.4587072062
 20
742.8975139525
 30
0.0
 40
0.8000000000000681
100
AcDbArc
 50
306.866185622
 51
328.2777887825
  0
ARC
  5
1C9
330
1F
100
AcDbEntity
  8
0
  6
Continuous
 62
     7
370
    25
100
AcDbCircle
 10
158.1849416873
 20
746.1574828561
 30
0.0
 40
7.000000000000028
100
AcDbArc
 50
328.2777887825
 51
31.7222112175
  0
ARC
  5
1CA
330
1F
100
AcDbEntity
  8
0
  6
Continuous
 62
     7
370
    25
100
AcDbCircle
 10
163.4587072062
 20
749.4174517596
 30
0.0
 40
0.800000000000051
100
AcDbArc
 50
31.7222112175
 51
53.133814378
  0
ARC
  5
1CB
330
1F
100
AcDbEntity
  8
0
  6
Continuous
 62
     7
370
    25
100
AcDbCircle
 10
162.9188618387
 20
748.9574828561
 30
0.0
 40
1.500000000000017
100
AcDbArc
 50
47.1665719339
 51
124.3011527568
  0
ARC
  5
1CC
330
1F
100
AcDbEntity
  8
0
  6
Continuous
 62
     7
370
    25
100
AcDbCircle
 10
161.6227136991
 20
750.8574828561
 30
0.0
 40
0.8000000000000378
100
AcDbArc
 50
298.9550243719
 51
304.3011527568
  0
LINE
  5
1CD
330
1F
100
AcDbEntity
  8
0
  6
Continuous
 62
     7
370
    25
100
AcDbLine
 10
149.359871341
 20
750.1574828561
 30
0.0
 11
162.0100120337
 21
750.1574828561
 31
0.0
  0
ARC
  5
1CE
330
1F
100
AcDbEntity
  8
0
  6
Continuous
 62
     7
370
    25
100
AcDbCircle
 10
149.7471696756
 20
750.8574828561
 30
0.0
 40
0.8000000000000378
100
AcDbArc
 50
235.6988472432
 51
241.0449756281
  0
ARC
  5
1CF
330
1F
100
AcDbEntity
  8
0
  6
Continuous
 62
     7
370
    25
100
AcDbCircle
 10
148.4510215359
 20
748.9574828561
 30
0.0
 40
1.500000000000022
100
AcDbArc
 50
55.6988472432
 51
132.8334280661
  0
ARC
  5
1D0
330
1F
100
AcDbEntity
  8
0
  6
Continuous
 62
     7
370
    25
100
AcDbCircle
 10
147.9111761685
 20
749.4174517596
 30
0.0
 40
0.8000000000000681
100
AcDbArc
 50
126.866185622
 51
148.2777887825
  0
ARC
  5
1D1
330
1F
100
AcDbEntity
  8
0
  6
Continuous
 62
     7
370
    25
100
AcDbCircle
 10
153.1849416873
 20
746.1574828561
 30
0.0
 40
7.000000000000052
100
AcDbArc
 50
148.2777887825
 51
211.7222112175
  0
ARC
  5
1D2
330
1F
100
AcDbEntity
  8
0
  6
Continuous
 62
     7
370
    25
100
AcDbCircle
 10
147.9111761685
 20
742.8975139525
 30
0.0
 40
0.8000000000000681
100
AcDbArc
 50
211.7222112175
 51
233.133814378
  0
ARC
  5
1D3
330
1F
100
AcDbEntity
  8
0
  6
Continuous
 62
     7
370
    25
100
AcDbCircle
 10
148.4510215359
 20
743.3574828561
 30
0.0
 40
1.500000000000022
100
AcDbArc
 50
227.1665719339
 51
304.3011527568
  0
ARC
  5
1D4
330
1F
100
AcDbEntity
  8
0
  6
Continuous
 62
     7
370
    25
100
AcDbCircle
 10
149.7471696756
 20
741.4574828561
 30
0.0
 40
0.8000000000000517
100
AcDbArc
 50
118.9550243719
 51
124.3011527568
  0
LINE
  5
1D5
330
1F
100
AcDbEntity
  8
0
  6
Continuous
 62
     7
370
    25
100
AcDbLine
 10
149.359871341
 20
742.1574828561
 30
0.0
 11
162.0100120337
 21
742.1574828561
 31
0.0
  0
ARC
  5
1D6
330
1F
100
AcDbEntity
  8
0
  6
Continuous
 62
     7
370
    25
100
AcDbCircle
 10
179.3849416873
 20
747.1574828561
 30
0.0
 40
6.200000000000017
100
AcDbArc
 50
0.0
 51
180.0
  0
LINE
  5
1D7
330
1F
100
AcDbEntity
  8
0
  6
Continuous
 62
     7
370
    25
100
AcDbLine
 10
173.1849416873
 20
747.1574828561
 30
0.0
 11
173.1849416873
 21
745.1574828561
 31
0.0
  0
ARC
  5
1D8
330
1F
100
AcDbEntity
  8
0
  6
Continuous
 62
     7
370
    25
100
AcDbCircle
 10
179.3849416873
 20
745.1574828561
 30
0.0
 40
6.200000000000017
100
AcDbArc
 50
180.0
 51
0.0
  0
LINE
  5
1D9
330
1F
100
AcDbEntity
  8
0
  6
Continuous
 62
     7
370
    25
100
AcDbLine
 10
185.5849416873
 20
745.1574828561
 30
0.0
 11
185.5849416873
 21
747.1574828561
 31
0.0
  0
ARC
  5
1DA
330
1F
100
AcDbEntity
  8
0
  6
Continuous
 62
     7
370
    25
100
AcDbCircle
 10
110.3849416873
 20
734.1574828561
 30
0.0
 40
2.0
100
AcDbArc
 50
180.0
 51
270.0
  0
LINE
  5
1DB
330
1F
100
AcDbEntity
  8
0
  6
Continuous
 62
     7
370
    25
100
AcDbLine
 10
108.3849416873
 20
734.1574828561
 30
0.0
 11
108.3849416873
 21
758.1574828561
 31
0.0
  0
ARC
  5
1DC
330
1F
100
AcDbEntity
  8
0
  6
Continuous
 62
     7
370
    25
100
AcDbCircle
 10
110.3849416873
 20
758.1574828561
 30
0.0
 40
2.0
100
AcDbArc
 50
90.0
 51
180.0
  0
LINE
  5
1DD
330
1F
100
AcDbEntity
  8
0
  6
Continuous
 62
     7
370
    25
100
AcDbLine
 10
110.3849416873
 20
760.1574828561
 30
0.0
 11
175.3392242776
 21
760.1574828602
 31
0.0
  0
SPLINE
  5
1DE
330
1F
100
AcDbEntity
  8
0
  6
Continuous
 62
     7
370
    25
100
AcDbSpline
210
0.0
220
0.0
230
1.0
 70
     8
 71
     3
 72
    19
 73
    15
 74
     0
 42
0.000000001
 43
0.00000001
 40
0.0663336793793173
 40
0.0663336793793173
 40
0.0663336793793173
 40
0.0663336793793173
 40
0.1009543192054097
 40
0.1717912850300585
 40
0.2206603804612852
 40
0.265849515674614
 40
0.3073781775362803
 40
0.3733822211273454
 40
0.4164972569445356
 40
0.4887923429777973
 40
0.5324094704756104
 40
0.6183866637097891
 40
0.7103567732074042
 40
0.7364089405708432
 40
0.7364089405708432
 40
0.7364089405708432
 40
0.7364089405708432
 10
175.3392242776434
 20
760.1574828602118
 30
0.0
 10
175.2299722265255
 20
759.829942416427
 30
0.0
 10
175.0540637213788
 20
758.7923900314971
 30
0.0
 10
175.6671546570992
 20
757.3931974708428
 30
0.0
 10
175.1730050925992
 20
755.75443062696
 30
0.0
 10
175.9663299257721
 20
754.6638211191367
 30
0.0
 10
176.7638105247158
 20
753.3319675653939
 30
0.0
 10
178.4281780663867
 20
753.5389888536201
 30
0.0
 10
180.0724647851598
 20
753.5378129870525
 30
0.0
 10
181.7428134761776
 20
753.1261021193034
 30
0.0
 10
183.1857437027352
 20
754.678529103421
 30
0.0
 10
183.239018186504
 20
756.8729877660953
 30
0.0
 10
183.4636811421014
 20
758.7639902791935
 30
0.0
 10
183.222947937038
 20
759.915039961844
 30
0.0
 10
183.1462001581561
 20
760.157482856067
 30
0.0
  0
LINE
  5
1DF
330
1F
100
AcDbEntity
  8
0
  6
Continuous
 62
     7
370
    25
100
AcDbLine
 10
183.1462001582
 20
760.1574828561
 30
0.0
 11
190.3849416873
 21
760.1574828561
 31
0.0
  0
ARC
  5
1E0
330
1F
100
AcDbEntity
  8
0
  6
Continuous
 62
     7
370
    25
100
AcDbCircle
 10
190.3849416873
 20
758.1574828561
 30
0.0
 40
2.000000000000028
100
AcDbArc
 50
0.0
 51
90.0
  0
LINE
  5
1E1
330
1F
100
AcDbEntity
  8
0
  6
Continuous
 62
     7
370
    25
100
AcDbLine
 10
192.3849416873
 20
758.1574828561
 30
0.0
 11
192.3849416873
 21
734.1574828561
 31
0.0
  0
ARC
  5
1E2
330
1F
100
AcDbEntity
  8
0
  6
Continuous
 62
     7
370
    25
100
AcDbCircle
 10
190.3849416873
 20
734.1574828561
 30
0.0
 40
2.000000000000028
100
AcDbArc
 50
270.0
 51
0.0
  0
LINE
  5
1E3
330
1F
100
AcDbEntity
  8
0
  6
Continuous
 62
     7
370
    25
100
AcDbLine
 10
190.3849416873
 20
732.1574828561
 30
0.0
 11
183.8346369818
 21
732.1574828561
 31
0.0
  0
SPLINE
  5
1E4
330
1F
100
AcDbEntity
  8
0
  6
Continuous
 62
     7
370
    25
100
AcDbSpline
210
0.0
220
0.0
230
1.0
 70
     8
 71
     3
 72
    21
 73
    17
 74
     0
 42
0.000000001
 43
0.00000001
 40
0.3059391180172514
 40
0.3059391180172514
 40
0.3059391180172514
 40
0.3059391180172514
 40
0.330100016469653
 40
0.4014019712352899
 40
0.4529733861603369
 40
0.4962081421130798
 40
0.5410093211643504
 40
0.5816411625791098
 40
0.6344053383116279
 40
0.6692296942950904
 40
0.7293090710321141
 40
0.7711228077125392
 40
0.7963228808217746
 40
0.8539108151167305
 40
0.9046193567161531
 40
0.9471490095296783
 40
0.9471490095296783
 40
0.9471490095296783
 40
0.9471490095296783
 10
183.8346369817631
 20
732.1574828560617
 30
0.0
 10
183.8051226699785
 20
732.4184448046144
 30
0.0
 10
183.6356235651758
 20
733.4837743598839
 30
0.0
 10
183.6981148033184
 20
734.8329578220582
 30
0.0
 10
183.5007129294103
 20
736.4570553834058
 30
0.0
 10
183.1500072754406
 20
737.8439903296991
 30
0.0
 10
181.9181272410282
 20
738.5336619334556
 30
0.0
 10
180.5587981029516
 20
738.3785017619499
 30
0.0
 10
179.2972574730071
 20
738.4310153932701
 30
0.0
 10
177.8756370369605
 20
738.4025128952995
 30
0.0
 10
176.4022513744187
 20
738.5026068206428
 30
0.0
 10
175.5581420556525
 20
737.4696370084603
 30
0.0
 10
175.0494446906416
 20
736.3048819522664
 30
0.0
 10
175.9802044351115
 20
735.0110662697235
 30
0.0
 10
175.2658807270483
 20
733.632847474447
 30
0.0
 10
175.2717876739385
 20
732.5971945167291
 30
0.0
 10
175.3643277519572
 20
732.157482856067
 30
0.0
  0
LINE
  5
1E5
330
1F
100
AcDbEntity
  8
0
  6
Continuous
 62
     7
370
    25
100
AcDbLine
 10
175.364327752
 20
732.1574828561
 30
0.0
 11
110.3849416873
 21
732.1574828561
 31
0.0
  0
LINE
  5
1E6
330
1F
100
AcDbEntity
  8
0
  6
Continuous
 62
     7
370
    25
100
AcDbLine
 10
181.4849416679
 20
738.4469372651
 30
0.0
 11
181.4849416692
 21
738.0574828742
 31
0.0
  0
LINE
  5
1E7
330
1F
100
AcDbEntity
  8
0
  6
Continuous
 62
     7
370
    25
100
AcDbLine
 10
177.2849416762
 20
738.0574828449
 30
0.0
 11
177.2849416754
 21
738.420911607
 31
0.0
  0
LINE
  5
1E8
330
1F
100
AcDbEntity
  8
0
  6
Continuous
 62
     7
370
    25
100
AcDbLine
 10
181.484941701
 20
753.3961236459
 30
0.0
 11
181.4849416992
 21
754.2574828679
 31
0.0
  0
LINE
  5
1E9
330
1F
100
AcDbEntity
  8
0
  6
Continuous
 62
     7
370
    25
100
AcDbLine
 10
177.2849416873
 20
754.257482856
 30
0.0
 11
177.2849416873
 21
753.5089205607
 31
0.0
  0
LINE
  5
1EA
330
1F
100
AcDbEntity
  8
0
  6
Continuous
 62
     7
370
    25
100
AcDbLine
 10
176.8599416873
 20
732.1574828561
 30
0.0
 11
177.0813702587
 21
732.3789114275
 31
0.0
  0
LINE
  5
1EB
330
1F
100
AcDbEntity
  8
0
  6
Continuous
 62
     7
370
    25
100
AcDbLine
 10
175.364327752
 20
732.1574828561
 30
0.0
 11
176.8599416873
 21
732.1574828561
 31
0.0
  0
LINE
  5
1EC
330
1F
100
AcDbEntity
  8
0
  6
Continuous
 62
     7
370
    25
100
AcDbLine
 10
181.6885131159
 20
732.3789114275
 30
0.0
 11
181.9099416873
 21
732.1574828561
 31
0.0
  0
LINE
  5
1ED
330
1F
100
AcDbEntity
  8
0
  6
Continuous
 62
     7
370
    25
100
AcDbLine
 10
181.9099416873
 20
732.1574828561
 30
0.0
 11
183.8346369818
 21
732.1574828561
 31
0.0
  0
LINE
  5
1EE
330
1F
100
AcDbEntity
  8
0
  6
Continuous
 62
     7
370
    25
100
AcDbLine
 10
176.8599416873
 20
732.1574828561
 30
0.0
 11
177.6349416873
 21
732.1574828561
 31
0.0
  0
LINE
  5
1EF
330
1F
100
AcDbEntity
  8
0
  6
Continuous
 62
     7
370
    25
100
AcDbLine
 10
181.1349416873
 20
732.1574828561
 30
0.0
 11
181.9099416873
 21
732.1574828561
 31
0.0
  0
LINE
  5
1F0
330
1F
100
AcDbEntity
  8
0
  6
Continuous
 62
     7
370
    25
100
AcDbLine
 10
181.6885131159
 20
759.9360542846
 30
0.0
 11
181.9099416873
 21
760.1574828561
 31
0.0
  0
LINE
  5
1F1
330
1F
100
AcDbEntity
  8
0
  6
Continuous
 62
     7
370
    25
100
AcDbLine
 10
181.9099416873
 20
760.1574828561
 30
0.0
 11
183.146200152
 21
760.1574828756
 31
0.0
  0
LINE
  5
1F2
330
1F
100
AcDbEntity
  8
0
  6
Continuous
 62
     7
370
    25
100
AcDbLine
 10
176.8599416873
 20
760.1574828561
 30
0.0
 11
177.0813702587
 21
759.9360542846
 31
0.0
  0
LINE
  5
1F3
330
1F
100
AcDbEntity
  8
0
  6
Continuous
 62
     7
370
    25
100
AcDbLine
 10
175.3392242776
 20
760.1574828602
 30
0.0
 11
176.8599416873
 21
760.1574828561
 31
0.0
  0
LINE
  5
1F4
330
1F
100
AcDbEntity
  8
0
  6
Continuous
 62
     7
370
    25
100
AcDbLine
 10
181.9099416873
 20
760.1574828561
 30
0.0
 11
181.1349416873
 21
760.1574828561
 31
0.0
  0
LINE
  5
1F5
330
1F
100
AcDbEntity
  8
0
  6
Continuous
 62
     7
370
    25
100
AcDbLine
 10
177.6349416873
 20
760.1574828561
 30
0.0
 11
176.8599416873
 21
760.1574828561
 31
0.0
  0
LINE
  5
1F6
330
1F
100
AcDbEntity
  8
0
  6
Continuous
 62
     7
370
    25
100
AcDbLine
 10
276.5837990648
 20
732.3574828561
 30
0.0
 11
191.256721476
 21
732.3574828561
 31
0.0
  0
ARC
  5
1F7
330
1F
100
AcDbEntity
  8
0
  6
Continuous
 62
     7
370
    25
100
AcDbCircle
 10
276.5837990648
 20
733.7574828561
 30
0.0
 40
1.400000000000091
100
AcDbArc
 50
270.0
 51
0.0
  0
LINE
  5
1F8
330
1F
100
AcDbEntity
  8
0
  6
Continuous
 62
     7
370
    25
100
AcDbLine
 10
260.1837990648
 20
741.1574828561
 30
0.0
 11
192.3849416873
 21
741.1574828561
 31
0.0
  0
LINE
  5
1F9
330
1F
100
AcDbEntity
  8
0
  6
Continuous
 62
     7
370
    25
100
AcDbLine
 10
277.9837990648
 20
733.7574828561
 30
0.0
 11
277.9837990648
 21
741.1574828561
 31
0.0
  0
LINE
  5
1FA
330
1F
100
AcDbEntity
  8
0
  6
Continuous
 62
     7
370
    25
100
AcDbLine
 10
192.3849416873
 20
751.1574828561
 30
0.0
 11
260.1837990648
 21
751.1574828561
 31
0.0
  0
LINE
  5
1FB
330
1F
100
AcDbEntity
  8
0
  6
Continuous
 62
     7
370
    25
100
AcDbLine
 10
277.9837990648
 20
758.5574828561
 30
0.0
 11
277.9837990648
 21
751.1574828561
 31
0.0
  0
LINE
  5
1FC
330
1F
100
AcDbEntity
  8
0
  6
Continuous
 62
     7
370
    25
100
AcDbLine
 10
191.256721476
 20
759.9574828561
 30
0.0
 11
276.5837990648
 21
759.9574828561
 31
0.0
  0
ARC
  5
1FD
330
1F
100
AcDbEntity
  8
0
  6
Continuous
 62
     7
370
    25
100
AcDbCircle
 10
276.5837990648
 20
758.5574828561
 30
0.0
 40
1.400000000000034
100
AcDbArc
 50
0.0
 51
90.0
  0
ARC
  5
1FE
330
1F
100
AcDbEntity
  8
0
  6
Continuous
 62
     7
370
    25
100
AcDbCircle
 10
179.3849416873
 20
746.1574828561
 30
0.0
 40
3.249999999999975
100
AcDbArc
 50
231.2958590898
 51
303.5960928929
  0
SPLINE
  5
1FF
330
1F
100
AcDbEntity
  8
0
  6
Continuous
 62
     7
370
    25
100
AcDbSpline
210
0.0
220
0.0
230
1.0
 70
    24
 71
     3
 72
     9
 73
     5
 74
     0
 42
0.000000001
 43
0.00000001
 40
0.0
 40
0.0
 40
0.0
 40
0.0
 40
0.9377811165203433
 40
1.0
 40
1.0
 40
1.0
 40
1.0
 10
181.6943901057165
 20
742.8915300084669
 30
0.0
 10
181.5346975290688
 20
743.0661341147521
 30
0.0
 10
181.3644098427052
 20
743.2523226647338
 30
0.0
 10
181.1938892255632
 20
743.4387658957485
 30
0.0
 10
181.1832796231544
 20
743.4503661854146
 30
0.0
  0
ARC
  5
200
330
1F
100
AcDbEntity
  8
0
  6
Continuous
 62
     7
370
    25
100
AcDbCircle
 10
179.3849416873
 20
746.1574828561
 30
0.0
 40
4.000000000000003
100
AcDbArc
 50
229.6267317728
 51
305.2652202099
  0
SPLINE
  5
201
330
1F
100
AcDbEntity
  8
0
  6
Continuous
 62
     7
370
    25
100
AcDbSpline
210
0.0
220
0.0
230
1.0
 70
    24
 71
     3
 72
     9
 73
     5
 74
     0
 42
0.000000001
 43
0.00000001
 40
0.0
 40
0.0
 40
0.0
 40
0.0
 40
0.5214546770910264
 40
1.0
 40
1.0
 40
1.0
 40
1.0
 10
176.7938835706552
 20
743.1101204168277
 30
0.0
 10
176.8909597059491
 20
743.1989060617127
 30
0.0
 10
177.077123795675
 20
743.3691713767738
 30
0.0
 10
177.2635204841347
 20
743.5396494261853
 30
0.0
 10
177.3527197476028
 20
743.6212308993898
 30
0.0
  0
ARC
  5
202
330
1F
100
AcDbEntity
  8
0
  6
Continuous
 62
     7
370
    25
100
AcDbCircle
 10
179.3849416873
 20
746.1574828561
 30
0.0
 40
1.499999999999972
100
AcDbArc
 50
241.9171966258
 51
292.9747553568
  0
LINE
  5
203
330
1F
100
AcDbEntity
  8
0
  6
Continuous
 62
     7
370
    25
100
AcDbLine
 10
181.1832796232
 20
743.4503661854
 30
0.0
 11
179.9704299586
 21
744.7764674745
 31
0.0
  0
LINE
  5
204
330
1F
100
AcDbEntity
  8
0
  6
Continuous
 62
     7
370
    25
100
AcDbLine
 10
177.3527197476
 20
743.6212308994
 30
0.0
 11
178.6788210367
 21
744.834080564
 31
0.0
  0
ARC
  5
205
330
1F
100
AcDbEntity
  8
0
  6
Continuous
 62
     7
370
    25
100
AcDbCircle
 10
179.3849416873
 20
746.1574828561
 30
0.0
 40
3.250000000000001
100
AcDbArc
 50
321.2958590898
 51
33.5960928929
  0
SPLINE
  5
206
330
1F
100
AcDbEntity
  8
0
  6
Continuous
 62
     7
370
    25
100
AcDbSpline
210
0.0
220
0.0
230
1.0
 70
    24
 71
     3
 72
     9
 73
     5
 74
     0
 42
0.000000001
 43
0.00000001
 40
0.0
 40
0.0
 40
0.0
 40
0.0
 40
0.062218883479658
 40
1.0
 40
1.0
 40
1.0
 40
1.0
 10
182.0920583579683
 20
747.9558207919055
 30
0.0
 10
182.1036586476344
 20
747.9664303943143
 30
0.0
 10
182.2901018786491
 20
748.1369510114564
 30
0.0
 10
182.4762904286308
 20
748.3072386978199
 30
0.0
 10
182.6508945349159
 20
748.4669312744676
 30
0.0
  0
ARC
  5
207
330
1F
100
AcDbEntity
  8
0
  6
Continuous
 62
     7
370
    25
100
AcDbCircle
 10
179.3849416873
 20
746.1574828561
 30
0.0
 40
3.999999999999987
100
AcDbArc
 50
319.6267317728
 51
35.2652202099
  0
SPLINE
  5
208
330
1F
100
AcDbEntity
  8
0
  6
Continuous
 62
     7
370
    25
100
AcDbSpline
210
0.0
220
0.0
230
1.0
 70
    24
 71
     3
 72
     9
 73
     5
 74
     0
 42
0.000000001
 43
0.00000001
 40
0.0
 40
0.0
 40
0.0
 40
0.0
 40
0.9377811165203398
 40
1.0
 40
1.0
 40
1.0
 40
1.0
 10
182.4323041265552
 20
743.5664247394063
 30
0.0
 10
182.2726115499075
 20
743.7410288456914
 30
0.0
 10
182.1023238635439
 20
743.9272173956731
 30
0.0
 10
181.9318032464019
 20
744.1136606266878
 30
0.0
 10
181.9211936439931
 20
744.1252609163539
 30
0.0
  0
SPLINE
  5
209
330
1F
100
AcDbEntity
  8
0
  6
Continuous
 62
     7
370
    25
100
AcDbSpline
210
0.0
220
0.0
230
1.0
 70
    24
 71
     3
 72
     9
 73
     5
 74
     0
 42
0.000000001
 43
0.00000001
 40
0.0
 40
0.0
 40
0.0
 40
0.0
 40
0.4785453229089765
 40
1.0
 40
1.0
 40
1.0
 40
1.0
 10
176.8486897306387
 20
748.18970479578
 30
0.0
 10
176.7671082574342
 20
748.2789040592482
 30
0.0
 10
176.5966302080227
 20
748.4653007477078
 30
0.0
 10
176.4263648929615
 20
748.6514648374338
 30
0.0
 10
176.3375792480765
 20
748.7485409727277
 30
0.0
  0
ARC
  5
20A
330
1F
100
AcDbEntity
  8
0
  6
Continuous
 62
     7
370
    25
100
AcDbCircle
 10
179.3849416873
 20
746.1574828561
 30
0.0
 40
3.249999999999984
100
AcDbArc
 50
141.2958590898
 51
213.5960928929
  0
SPLINE
  5
20B
330
1F
100
AcDbEntity
  8
0
  6
Continuous
 62
     7
370
    25
100
AcDbSpline
210
0.0
220
0.0
230
1.0
 70
    24
 71
     3
 72
     9
 73
     5
 74
     0
 42
0.000000001
 43
0.00000001
 40
0.0
 40
0.0
 40
0.0
 40
0.0
 40
0.5214546770910242
 40
1.0
 40
1.0
 40
1.0
 40
1.0
 10
176.1189888397158
 20
743.8480344376665
 30
0.0
 10
176.2160649750098
 20
743.9368200825514
 30
0.0
 10
176.4022290647357
 20
744.1070853976125
 30
0.0
 10
176.5886257531954
 20
744.277563447024
 30
0.0
 10
176.6778250166635
 20
744.3591449202286
 30
0.0
  0
ARC
  5
20C
330
1F
100
AcDbEntity
  8
0
  6
Continuous
 62
     7
370
    25
100
AcDbCircle
 10
179.3849416873
 20
746.1574828561
 30
0.0
 40
4.000000000000043
100
AcDbArc
 50
139.6267317728
 51
215.2652202099
  0
LINE
  5
20D
330
1F
100
AcDbEntity
  8
0
  6
Continuous
 62
     7
370
    25
100
AcDbLine
 10
178.0615393952
 20
746.8636035067
 30
0.0
 11
176.8486897306
 21
748.1897047958
 31
0.0
  0
ARC
  5
20E
330
1F
100
AcDbEntity
  8
0
  6
Continuous
 62
     7
370
    25
100
AcDbCircle
 10
179.3849416873
 20
746.1574828561
 30
0.0
 40
1.499999999999996
100
AcDbArc
 50
151.9171966258
 51
202.9747553568
  0
LINE
  5
20F
330
1F
100
AcDbEntity
  8
0
  6
Continuous
 62
     7
370
    25
100
AcDbLine
 10
176.6778250167
 20
744.3591449202
 30
0.0
 11
178.0039263057
 21
745.5719945848
 31
0.0
  0
ARC
  5
210
330
1F
100
AcDbEntity
  8
0
  6
Continuous
 62
     7
370
    25
100
AcDbCircle
 10
179.3849416873
 20
746.1574828561
 30
0.0
 40
1.49999999999999
100
AcDbArc
 50
331.9171966258
 51
22.9747553568
  0
LINE
  5
211
330
1F
100
AcDbEntity
  8
0
  6
Continuous
 62
     7
370
    25
100
AcDbLine
 10
180.7659570689
 20
746.7429711273
 30
0.0
 11
182.092058358
 21
747.9558207919
 31
0.0
  0
LINE
  5
212
330
1F
100
AcDbEntity
  8
0
  6
Continuous
 62
     7
370
    25
100
AcDbLine
 10
181.921193644
 20
744.1252609164
 30
0.0
 11
180.7083439794
 21
745.4513622054
 31
0.0
  0
ARC
  5
213
330
1F
100
AcDbEntity
  8
0
  6
Continuous
 62
     7
370
    25
100
AcDbCircle
 10
179.3849416873
 20
746.1574828561
 30
0.0
 40
3.250000000000049
100
AcDbArc
 50
51.2958590898
 51
123.5960928929
  0
LINE
  5
214
330
1F
100
AcDbEntity
  8
0
  6
Continuous
 62
     7
370
    25
100
AcDbLine
 10
180.091062338
 20
747.4808851482
 30
0.0
 11
181.417163627
 21
748.6937348127
 31
0.0
  0
ARC
  5
215
330
1F
100
AcDbEntity
  8
0
  6
Continuous
 62
     7
370
    25
100
AcDbCircle
 10
179.3849416873
 20
746.1574828561
 30
0.0
 40
1.500000000000059
100
AcDbArc
 50
61.9171966258
 51
112.9747553568
  0
LINE
  5
216
330
1F
100
AcDbEntity
  8
0
  6
Continuous
 62
     7
370
    25
100
AcDbLine
 10
178.7994534161
 20
747.5384982377
 30
0.0
 11
177.5866037515
 21
748.8645995267
 31
0.0
  0
ARC
  5
217
330
1F
100
AcDbEntity
  8
0
  6
Continuous
 62
     7
370
    25
100
AcDbCircle
 10
179.3849416873
 20
746.1574828561
 30
0.0
 40
4.000000000000005
100
AcDbArc
 50
49.6267317728
 51
125.2652202099
  0
SPLINE
  5
218
330
1F
100
AcDbEntity
  8
0
  6
Continuous
 62
     7
370
    25
100
AcDbSpline
210
0.0
220
0.0
230
1.0
 70
    24
 71
     3
 72
     9
 73
     5
 74
     0
 42
0.000000001
 43
0.00000001
 40
0.0
 40
0.0
 40
0.0
 40
0.0
 40
0.0622188834796559
 40
1.0
 40
1.0
 40
1.0
 40
1.0
 10
181.4171636270289
 20
748.6937348127442
 30
0.0
 10
181.428763916695
 20
748.7043444151531
 30
0.0
 10
181.6152071477098
 20
748.874865032295
 30
0.0
 10
181.8013956976914
 20
749.0451527186585
 30
0.0
 10
181.9759998039766
 20
749.2048452953063
 30
0.0
  0
SPLINE
  5
219
330
1F
100
AcDbEntity
  8
0
  6
Continuous
 62
     7
370
    25
100
AcDbSpline
210
0.0
220
0.0
230
1.0
 70
    24
 71
     3
 72
     9
 73
     5
 74
     0
 42
0.000000001
 43
0.00000001
 40
0.0
 40
0.0
 40
0.0
 40
0.0
 40
0.4785453229089791
 40
1.0
 40
1.0
 40
1.0
 40
1.0
 10
177.5866037514774
 20
748.8645995267194
 30
0.0
 10
177.5050222782729
 20
748.9537987901875
 30
0.0
 10
177.3345442288614
 20
749.1401954786471
 30
0.0
 10
177.1642789138003
 20
749.326359568373
 30
0.0
 10
177.0754932689153
 20
749.423435703667
 30
0.0
  0
ARC
  5
21A
330
1F
100
AcDbEntity
  8
0
  6
Continuous
 62
     7
370
    25
100
AcDbCircle
 10
179.3849416873
 20
746.1574828561
 30
0.0
 40
4.000000000000003
100
AcDbArc
 50
305.2652202099
 51
319.6267317728
  0
ARC
  5
21B
330
1F
100
AcDbEntity
  8
0
  6
Continuous
 62
     7
370
    25
100
AcDbCircle
 10
179.3849416873
 20
746.1574828561
 30
0.0
 40
3.999999999999944
100
AcDbArc
 50
215.2652202099
 51
229.6267317728
  0
ARC
  5
21C
330
1F
100
AcDbEntity
  8
0
  6
Continuous
 62
     7
370
    25
100
AcDbCircle
 10
179.3849416873
 20
746.1574828561
 30
0.0
 40
4.000000000000005
100
AcDbArc
 50
35.2652202099
 51
49.6267317728
  0
ARC
  5
21D
330
1F
100
AcDbEntity
  8
0
  6
Continuous
 62
     7
370
    25
100
AcDbCircle
 10
179.3849416873
 20
746.1574828561
 30
0.0
 40
4.000000000000043
100
AcDbArc
 50
125.2652202099
 51
139.6267317728
  0
ARC
  5
21E
330
1F
100
AcDbEntity
  8
0
  6
Continuous
 62
     7
370
    25
100
AcDbCircle
 10
130.3849416873
 20
746.1574828561
 30
0.0
 40
4.000000000037956
100
AcDbArc
 50
246.4998640442
 51
322.1383524814
  0
LINE
  5
21F
330
1F
100
AcDbEntity
  8
0
  6
Continuous
 62
     7
370
    25
100
AcDbLine
 10
133.5429220732
 20
743.7024553852
 30
0.0
 11
134.4083714943
 21
743.1889794303
 31
0.0
  0
ARC
  5
220
330
1F
100
AcDbEntity
  8
0
  6
Continuous
 62
     7
370
    25
100
AcDbCircle
 10
130.3849416873
 20
746.1574828561
 30
0.0
 40
5.000000000000003
100
AcDbArc
 50
245.0582787401
 51
323.5799377856
  0
LINE
  5
221
330
1F
100
AcDbEntity
  8
0
  6
Continuous
 62
     7
370
    25
100
AcDbLine
 10
128.2764607525
 20
741.6237969221
 30
0.0
 11
128.7899367073
 21
742.4892463432
 31
0.0
  0
ARC
  5
222
330
1F
100
AcDbEntity
  8
0
  6
Continuous
 62
     7
370
    25
100
AcDbCircle
 10
130.3849416873
 20
746.1574828561
 30
0.0
 40
4.000000000038017
100
AcDbArc
 50
156.4998640442
 51
232.1383524814
  0
ARC
  5
223
330
1F
100
AcDbEntity
  8
0
  6
Continuous
 62
     7
370
    25
100
AcDbCircle
 10
130.3849416873
 20
746.1574828561
 30
0.0
 40
5.000000000000052
100
AcDbArc
 50
155.0582787401
 51
233.5799377856
  0
LINE
  5
224
330
1F
100
AcDbEntity
  8
0
  6
Continuous
 62
     7
370
    25
100
AcDbLine
 10
125.8512557534
 20
748.2659637909
 30
0.0
 11
126.7167051745
 21
747.7524878361
 31
0.0
  0
LINE
  5
225
330
1F
100
AcDbEntity
  8
0
  6
Continuous
 62
     7
370
    25
100
AcDbLine
 10
127.9299142164
 20
742.9995024702
 30
0.0
 11
127.4164382616
 21
742.1340530491
 31
0.0
  0
ARC
  5
226
330
1F
100
AcDbEntity
  8
0
  6
Continuous
 62
     7
370
    25
100
AcDbCircle
 10
130.3849416873
 20
746.1574828561
 30
0.0
 40
2.000000000000025
100
AcDbArc
 50
253.7966204488
 51
314.8415960769
  0
LINE
  5
227
330
1F
100
AcDbEntity
  8
0
  6
Continuous
 62
     7
370
    25
100
AcDbLine
 10
133.5429220732
 20
743.7024553852
 30
0.0
 11
131.7952400162
 21
744.7393648696
 31
0.0
  0
LINE
  5
228
330
1F
100
AcDbEntity
  8
0
  6
Continuous
 62
     7
370
    25
100
AcDbLine
 10
129.8268461917
 20
744.2369284002
 30
0.0
 11
128.7899367073
 21
742.4892463432
 31
0.0
  0
ARC
  5
229
330
1F
100
AcDbEntity
  8
0
  6
Continuous
 62
     7
370
    25
100
AcDbCircle
 10
130.3849416873
 20
746.1574828561
 30
0.0
 40
1.999999999999986
100
AcDbArc
 50
163.7966204488
 51
224.8415960769
  0
LINE
  5
22A
330
1F
100
AcDbEntity
  8
0
  6
Continuous
 62
     7
370
    25
100
AcDbLine
 10
128.4643872315
 20
746.7155783517
 30
0.0
 11
126.7167051745
 21
747.7524878361
 31
0.0
  0
LINE
  5
22B
330
1F
100
AcDbEntity
  8
0
  6
Continuous
 62
     7
370
    25
100
AcDbLine
 10
127.9299142164
 20
742.9995024702
 30
0.0
 11
128.9668237008
 21
744.7471845272
 31
0.0
  0
ARC
  5
22C
330
1F
100
AcDbEntity
  8
0
  6
Continuous
 62
     7
370
    25
100
AcDbCircle
 10
130.3849416873
 20
746.1574828561
 30
0.0
 40
2.000000000000085
100
AcDbArc
 50
343.7966204488
 51
44.8415960769
  0
LINE
  5
22D
330
1F
100
AcDbEntity
  8
0
  6
Continuous
 62
     7
370
    25
100
AcDbLine
 10
132.8399691582
 20
749.3154632419
 30
0.0
 11
131.8030596738
 21
747.5677811849
 31
0.0
  0
ARC
  5
22E
330
1F
100
AcDbEntity
  8
0
  6
Continuous
 62
     7
370
    25
100
AcDbCircle
 10
130.3849416873
 20
746.1574828561
 30
0.0
 40
4.000000000038036
100
AcDbArc
 50
336.4998640442
 51
52.1383524814
  0
LINE
  5
22F
330
1F
100
AcDbEntity
  8
0
  6
Continuous
 62
     7
370
    25
100
AcDbLine
 10
132.3054961431
 20
745.5993873605
 30
0.0
 11
134.0531782002
 21
744.5624778761
 31
0.0
  0
LINE
  5
230
330
1F
100
AcDbEntity
  8
0
  6
Continuous
 62
     7
370
    25
100
AcDbLine
 10
132.8399691582
 20
749.3154632419
 30
0.0
 11
133.3534451131
 21
750.180912663
 31
0.0
  0
ARC
  5
231
330
1F
100
AcDbEntity
  8
0
  6
Continuous
 62
     7
370
    25
100
AcDbCircle
 10
130.3849416873
 20
746.1574828561
 30
0.0
 40
5.000000000000079
100
AcDbArc
 50
335.0582787401
 51
53.5799377856
  0
LINE
  5
232
330
1F
100
AcDbEntity
  8
0
  6
Continuous
 62
     7
370
    25
100
AcDbLine
 10
134.9186276212
 20
744.0490019212
 30
0.0
 11
134.0531782002
 21
744.5624778761
 31
0.0
  0
ARC
  5
233
330
1F
100
AcDbEntity
  8
0
  6
Continuous
 62
     7
370
    25
100
AcDbCircle
 10
130.3849416873
 20
746.1574828561
 30
0.0
 40
4.000000000038049
100
AcDbArc
 50
66.4998640442
 51
142.1383524814
  0
LINE
  5
234
330
1F
100
AcDbEntity
  8
0
  6
Continuous
 62
     7
370
    25
100
AcDbLine
 10
127.2269613015
 20
748.612510327
 30
0.0
 11
126.3615118804
 21
749.1259862818
 31
0.0
  0
ARC
  5
235
330
1F
100
AcDbEntity
  8
0
  6
Continuous
 62
     7
370
    25
100
AcDbCircle
 10
130.3849416873
 20
746.1574828561
 30
0.0
 40
5.000000000000106
100
AcDbArc
 50
65.0582787401
 51
143.5799377856
  0
LINE
  5
236
330
1F
100
AcDbEntity
  8
0
  6
Continuous
 62
     7
370
    25
100
AcDbLine
 10
132.4934226221
 20
750.69116879
 30
0.0
 11
131.9799466673
 21
749.8257193689
 31
0.0
  0
LINE
  5
237
330
1F
100
AcDbEntity
  8
0
  6
Continuous
 62
     7
370
    25
100
AcDbLine
 10
130.9430371829
 20
748.0780373119
 30
0.0
 11
131.9799466673
 21
749.8257193689
 31
0.0
  0
LINE
  5
238
330
1F
100
AcDbEntity
  8
0
  6
Continuous
 62
     7
370
    25
100
AcDbLine
 10
127.2269613015
 20
748.612510327
 30
0.0
 11
128.9746433585
 21
747.5756008426
 31
0.0
  0
ARC
  5
239
330
1F
100
AcDbEntity
  8
0
  6
Continuous
 62
     7
370
    25
100
AcDbCircle
 10
130.3849416873
 20
746.1574828561
 30
0.0
 40
2.000000000000025
100
AcDbArc
 50
73.7966204488
 51
134.8415960769
  0
ARC
  5
23A
330
1F
100
AcDbEntity
  8
0
  6
Continuous
 62
     7
370
    25
100
AcDbCircle
 10
130.3849416873
 20
746.1574828561
 30
0.0
 40
5.000000000000003
100
AcDbArc
 50
233.5799377856
 51
245.0582787401
  0
ARC
  5
23B
330
1F
100
AcDbEntity
  8
0
  6
Continuous
 62
     7
370
    25
100
AcDbCircle
 10
130.3849416873
 20
746.1574828561
 30
0.0
 40
5.000000000000052
100
AcDbArc
 50
143.5799377856
 51
155.0582787401
  0
ARC
  5
23C
330
1F
100
AcDbEntity
  8
0
  6
Continuous
 62
     7
370
    25
100
AcDbCircle
 10
130.3849416873
 20
746.1574828561
 30
0.0
 40
4.99999999999998
100
AcDbArc
 50
323.5799377856
 51
335.0582787401
  0
ARC
  5
23D
330
1F
100
AcDbEntity
  8
0
  6
Continuous
 62
     7
370
    25
100
AcDbCircle
 10
130.3849416873
 20
746.1574828561
 30
0.0
 40
5.000000000000106
100
AcDbArc
 50
53.5799377856
 51
65.0582787401
  0
LWPOLYLINE
  5
23E
330
1F
100
AcDbEntity
  8
0
  6
Continuous
 62
     7
370
    25
100
AcDbPolyline
 90
        3
 70
   128
 43
0.0
 10
131.5935200983
 20
749.1744081492
 10
131.8952919964
 20
749.0352149394
 10
132.4535425892
 20
748.6641520222
  0
LWPOLYLINE
  5
23F
330
1F
100
AcDbEntity
  8
0
  6
Continuous
 62
     7
370
    25
100
AcDbPolyline
 90
        3
 70
   128
 43
0.0
 10
133.4018669805
 20
744.9489044451
 10
133.0596392515
 20
744.3112724292
 10
132.8916108535
 20
744.0888819542
  0
LWPOLYLINE
  5
240
330
1F
100
AcDbEntity
  8
0
  6
Continuous
 62
     7
370
    25
100
AcDbPolyline
 90
        3
 70
   128
 43
0.0
 10
129.1763632763
 20
743.1405575629
 10
128.8745913782
 20
743.2797507727
 10
128.3163407854
 20
743.6508136899
  0
LWPOLYLINE
  5
241
330
1F
100
AcDbEntity
  8
0
  6
Continuous
 62
     7
370
    25
100
AcDbPolyline
 90
        3
 70
   128
 43
0.0
 10
127.3680163942
 20
747.3660612671
 10
127.7102441232
 20
748.0036932829
 10
127.8782725212
 20
748.226083758
  0
ARC
  5
242
330
1F
100
AcDbEntity
  8
0
  6
Continuous
 62
     7
370
    25
100
AcDbCircle
 10
130.3849416873
 20
746.1574828561
 30
0.0
 40
4.000000000000057
100
AcDbArc
 50
52.5760848046
 51
66.5719385737
  0
LWPOLYLINE
  5
243
330
1F
100
AcDbEntity
  8
0
  6
Continuous
 62
     7
370
    25
100
AcDbPolyline
 90
        3
 70
   128
 43
0.0
 10
134.0505660323
 20
744.5564837426
 10
133.6956976799
 20
743.9127345946
 10
133.5621051723
 20
743.7273322044
  0
LWPOLYLINE
  5
244
330
1F
100
AcDbEntity
  8
0
  6
Continuous
 62
     7
370
    25
100
AcDbPolyline
 90
        3
 70
   128
 43
0.0
 10
128.778521464
 20
742.4942310129
 10
128.3227262586
 20
742.7300541514
 10
127.9541246349
 20
742.9808291989
  0
LWPOLYLINE
  5
245
330
1F
100
AcDbEntity
  8
0
  6
Continuous
 62
     7
370
    25
100
AcDbPolyline
 90
        3
 70
   128
 43
0.0
 10
126.7167051745
 20
747.752487836
 10
126.8508935095
 20
748.0311166189
 10
127.2096815217
 20
748.590119878
  0
LINE
  5
246
330
1F
100
AcDbEntity
  8
0
  6
Continuous
 62
     7
370
    25
100
AcDbLine
 10
178.9209652171
 20
732.4574828561
 30
0.0
 11
176.8849416873
 21
732.4574828561
 31
0.0
  0
LINE
  5
247
330
1F
100
AcDbEntity
  8
0
  6
Continuous
 62
     7
370
    25
100
AcDbLine
 10
181.8849416873
 20
732.4574828561
 30
0.0
 11
178.9209652171
 21
732.4574828561
 31
0.0
  0
LINE
  5
248
330
1F
100
AcDbEntity
  8
0
  6
Continuous
 62
     7
370
    25
100
AcDbLine
 10
181.8849416873
 20
737.6574828561
 30
0.0
 11
176.8849416873
 21
737.6574828561
 31
0.0
  0
LINE
  5
249
330
1F
100
AcDbEntity
  8
0
  6
Continuous
 62
     7
370
    25
100
AcDbLine
 10
179.0601581581
 20
732.1574828561
 30
0.0
 11
177.6349416873
 21
732.1574828561
 31
0.0
  0
LINE
  5
24A
330
1F
100
AcDbEntity
  8
0
  6
Continuous
 62
     7
370
    25
100
AcDbLine
 10
181.1349416873
 20
732.1574828561
 30
0.0
 11
179.0601581581
 21
732.1574828561
 31
0.0
  0
LINE
  5
24B
330
1F
100
AcDbEntity
  8
0
  6
Continuous
 62
     7
370
    25
100
AcDbLine
 10
177.3849416873
 20
738.1574828561
 30
0.0
 11
181.3849416873
 21
738.1574828561
 31
0.0
  0
LINE
  5
24C
330
1F
100
AcDbEntity
  8
0
  6
Continuous
 62
     7
370
    25
100
AcDbLine
 10
176.8849416873
 20
754.6574828561
 30
0.0
 11
181.8849416873
 21
754.6574828561
 31
0.0
  0
LINE
  5
24D
330
1F
100
AcDbEntity
  8
0
  6
Continuous
 62
     7
370
    25
100
AcDbLine
 10
181.3849416873
 20
754.1574828561
 30
0.0
 11
177.3849416873
 21
754.1574828561
 31
0.0
  0
LINE
  5
24E
330
1F
100
AcDbEntity
  8
0
  6
Continuous
 62
     7
370
    25
100
AcDbLine
 10
178.9902055292
 20
759.8574828561
 30
0.0
 11
181.8849416873
 21
759.8574828561
 31
0.0
  0
LINE
  5
24F
330
1F
100
AcDbEntity
  8
0
  6
Continuous
 62
     7
370
    25
100
AcDbLine
 10
176.8849416873
 20
759.8574828561
 30
0.0
 11
178.9902055292
 21
759.8574828561
 31
0.0
  0
LINE
  5
250
330
1F
100
AcDbEntity
  8
0
  6
Continuous
 62
     7
370
    25
100
AcDbLine
 10
179.1086263767
 20
760.1574828561
 30
0.0
 11
181.1349416873
 21
760.1574828561
 31
0.0
  0
LINE
  5
251
330
1F
100
AcDbEntity
  8
0
  6
Continuous
 62
     7
370
    25
100
AcDbLine
 10
177.6349416873
 20
760.1574828561
 30
0.0
 11
179.1086263767
 21
760.1574828561
 31
0.0
  0
ARC
  5
252
330
1F
100
AcDbEntity
  8
0
  6
Continuous
 62
     7
370
    25
100
AcDbCircle
 10
179.3849416873
 20
746.1574828561
 30
0.0
 40
2.50000000000011
100
AcDbArc
 50
30.9090169585
 51
53.9829350241
  0
LWPOLYLINE
  5
253
330
1F
100
AcDbEntity
  8
0
  6
Continuous
 62
     7
370
    25
100
AcDbPolyline
 90
        3
 70
   128
 43
0.0
 10
178.1007509768
 20
748.3024430466
 10
177.8239378483
 20
748.1102416775
 10
177.362836956
 20
747.6275483157
  0
LWPOLYLINE
  5
254
330
1F
100
AcDbEntity
  8
0
  6
Continuous
 62
     7
370
    25
100
AcDbPolyline
 90
        3
 70
   128
 43
0.0
 10
177.2399814967
 20
744.8732921456
 10
177.5432618667
 20
744.4668571026
 10
177.9148762277
 20
744.1353781248
  0
LWPOLYLINE
  5
255
330
1F
100
AcDbEntity
  8
0
  6
Continuous
 62
     7
370
    25
100
AcDbPolyline
 90
        3
 70
   128
 43
0.0
 10
180.6691323978
 20
744.0125226655
 10
181.1973068776
 20
744.4354687977
 10
181.4070464186
 20
744.6874173964
  0
ARC
  5
256
330
1F
100
AcDbEntity
  8
0
  6
Continuous
 62
     7
370
    25
100
AcDbCircle
 10
179.3849416873
 20
746.1574828561
 30
0.0
 40
3.000000000000008
100
AcDbArc
 50
302.8519077645
 51
322.0400442182
  0
ARC
  5
257
330
1F
100
AcDbEntity
  8
0
  6
Continuous
 62
     7
370
    25
100
AcDbCircle
 10
179.3849416873
 20
746.1574828561
 30
0.0
 40
2.999999999999976
100
AcDbArc
 50
212.8519077645
 51
232.0400442182
  0
LWPOLYLINE
  5
258
330
1F
100
AcDbEntity
  8
0
  6
Continuous
 62
     7
370
    25
100
AcDbPolyline
 90
        3
 70
   128
 43
0.0
 10
177.0196191402
 20
748.0028146008
 10
177.4359392427
 20
748.4381383475
 10
177.757533161
 20
748.6777093317
  0
LWPOLYLINE
  5
259
330
1F
100
AcDbEntity
  8
0
  6
Continuous
 62
     7
370
    25
100
AcDbPolyline
 90
        3
 70
   128
 43
0.0
 10
181.230273432
 20
748.5228054032
 10
181.5387179501
 20
748.2458429328
 10
181.905168163
 20
747.7848913824
  0
CIRCLE
  5
25A
330
1F
100
AcDbEntity
  8
0
  6
Continuous
 62
     7
370
    25
100
AcDbCircle
 10
179.3849416873
 20
746.1574828561
 30
0.0
 40
4.999999999999989
  0
ARC
  5
25B
330
1F
100
AcDbEntity
  8
0
  6
Continuous
 62
     7
370
    25
100
AcDbCircle
 10
259.130887956
 20
750.6611446522
 30
0.0
 40
0.5172097858339185
100
AcDbArc
 50
359.5943479404
 51
45.7964763317
  0
SPLINE
  5
25C
330
1F
100
AcDbEntity
  8
0
  6
Continuous
 62
     7
370
    25
100
AcDbSpline
210
0.0
220
0.0
230
1.0
 70
     8
 71
     3
 72
     9
 73
     5
 74
     0
 42
0.000000001
 43
0.00000001
 40
0.0
 40
0.0
 40
0.0
 40
0.0
 40
0.6003305162494756
 40
1.0
 40
1.0
 40
1.0
 40
1.0
 10
259.9837990648479
 20
751.157482856067
 30
0.0
 10
259.8722011934249
 20
751.1454978075274
 30
0.0
 10
259.6863071427273
 20
751.1255337240511
 30
0.0
 10
259.5471201614801
 20
751.0586478860774
 30
0.0
 10
259.4914913725402
 20
751.0319156577442
 30
0.0
  0
LINE
  5
25D
330
1F
100
AcDbEntity
  8
0
  6
Continuous
 62
     7
370
    25
100
AcDbLine
 10
260.1837990648
 20
741.6574828561
 30
0.0
 11
259.3837993864
 21
741.6574828561
 31
0.0
  0
SPLINE
  5
25E
330
1F
100
AcDbEntity
  8
0
  6
Continuous
 62
     7
370
    25
100
AcDbSpline
210
0.0
220
0.0
230
1.0
 70
     8
 71
     3
 72
    11
 73
     7
 74
     0
 42
0.000000001
 43
0.00000001
 40
0.0
 40
0.0
 40
0.0
 40
0.0
 40
0.3589081005996848
 40
0.9174070921272012
 40
0.993612650642655
 40
1.0
 40
1.0
 40
1.0
 40
1.0
 10
259.6480847791336
 20
750.657482856067
 30
0.0
 10
259.5477827825633
 20
750.681612628471
 30
0.0
 10
259.2914002633215
 20
750.7432908806418
 30
0.0
 10
259.1929713365529
 20
750.9884952890663
 30
0.0
 10
259.1838536236175
 20
751.1367687436307
 30
0.0
 10
259.1838029812888
 20
751.1559959164146
 30
0.0
 10
259.1837990648479
 20
751.157482856067
 30
0.0
  0
SPLINE
  5
25F
330
1F
100
AcDbEntity
  8
0
  6
Continuous
 62
     7
370
    25
100
AcDbSpline
210
0.0
220
0.0
230
1.0
 70
     8
 71
     3
 72
    12
 73
     8
 74
     0
 42
0.000000001
 43
0.00000001
 40
0.0
 40
0.0
 40
0.0
 40
0.0
 40
0.401453007593543
 40
0.6964553107381276
 40
0.9319317101011593
 40
0.9932861972711926
 40
1.0
 40
1.0
 40
1.0
 40
1.0
 10
259.4914913725402
 20
751.0319156577442
 30
0.0
 10
259.4159153580838
 20
751.0211965316872
 30
0.0
 10
259.2848033334209
 20
751.002600601086
 30
0.0
 10
259.2080406232797
 20
751.0740091998185
 30
0.0
 10
259.1860010171902
 20
751.1238490748752
 30
0.0
 10
259.1838308760068
 20
751.1508471000518
 30
0.0
 10
259.1838019207969
 20
751.1568871097422
 30
0.0
 10
259.1837990648479
 20
751.157482856067
 30
0.0
  0
LINE
  5
260
330
1F
100
AcDbEntity
  8
0
  6
Continuous
 62
     7
370
    25
100
AcDbLine
 10
259.1837990648
 20
741.1574828561
 30
0.0
 11
259.1837990648
 21
751.157482856
 31
0.0
  0
LINE
  5
261
330
1F
100
AcDbEntity
  8
0
  6
Continuous
 62
     7
370
    25
100
AcDbLine
 10
150.4876466421
 20
743.1574828561
 30
0.0
 11
160.8799514876
 21
743.1574828561
 31
0.0
  0
LINE
  5
262
330
1F
100
AcDbEntity
  8
0
  6
Continuous
 62
     7
370
    25
100
AcDbLine
 10
160.8799514876
 20
743.1574828561
 30
0.0
 11
161.4283617114
 21
742.1574828561
 31
0.0
  0
LINE
  5
263
330
1F
100
AcDbEntity
  8
0
  6
Continuous
 62
     7
370
    25
100
AcDbLine
 10
149.9392364183
 20
742.1574828561
 30
0.0
 11
150.4876466421
 21
743.1574828561
 31
0.0
  0
ARC
  5
264
330
1F
100
AcDbEntity
  8
0
  6
Continuous
 62
     7
370
    25
100
AcDbCircle
 10
155.6837990648
 20
746.1574828561
 30
0.0
 40
6.0
100
AcDbArc
 50
330.0
 51
30.0
  0
LINE
  5
265
330
1F
100
AcDbEntity
  8
0
  6
Continuous
 62
     7
370
    25
100
AcDbLine
 10
160.8799514876
 20
749.1574828561
 30
0.0
 11
161.4283617114
 21
750.1574828561
 31
0.0
  0
ARC
  5
266
330
1F
100
AcDbEntity
  8
0
  6
Continuous
 62
     7
370
    25
100
AcDbCircle
 10
155.6837990648
 20
746.1574828561
 30
0.0
 40
7.000000000000012
100
AcDbArc
 50
325.150095421
 51
34.849904579
  0
ARC
  5
267
330
1F
100
AcDbEntity
  8
0
  6
Continuous
 62
     7
370
    25
100
AcDbCircle
 10
155.6837990648
 20
746.1574828561
 30
0.0
 40
6.999999999999988
100
AcDbArc
 50
145.150095421
 51
214.849904579
  0
LINE
  5
268
330
1F
100
AcDbEntity
  8
0
  6
Continuous
 62
     7
370
    25
100
AcDbLine
 10
149.9392364183
 20
750.1574828561
 30
0.0
 11
150.4876466421
 21
749.1574828561
 31
0.0
  0
ARC
  5
269
330
1F
100
AcDbEntity
  8
0
  6
Continuous
 62
     7
370
    25
100
AcDbCircle
 10
155.6837990648
 20
746.1574828561
 30
0.0
 40
5.999999999999975
100
AcDbArc
 50
150.0
 51
210.0
  0
LINE
  5
26A
330
1F
100
AcDbEntity
  8
0
  6
Continuous
 62
     7
370
    25
100
AcDbLine
 10
160.8799514876
 20
749.1574828561
 30
0.0
 11
150.4876466421
 21
749.1574828561
 31
0.0
  0
LINE
  5
26B
330
1F
100
AcDbEntity
  8
0
  6
Continuous
 62
     7
370
    25
100
AcDbLine
 10
315.3125197473
 20
741.1574828561
 30
0.0
 11
260.1837990648
 21
741.1574828561
 31
0.0
  0
LINE
  5
26C
330
1F
100
AcDbEntity
  8
0
  6
Continuous
 62
     7
370
    25
100
AcDbLine
 10
260.1837990648
 20
751.1574828561
 30
0.0
 11
260.1837990648
 21
741.1574828561
 31
0.0
  0
LINE
  5
26D
330
1F
100
AcDbEntity
  8
0
  6
Continuous
 62
     7
370
    25
100
AcDbLine
 10
315.3125197473
 20
751.1574828561
 30
0.0
 11
260.1837990648
 21
751.1574828561
 31
0.0
  0
LINE
  5
26E
330
1F
100
AcDbEntity
  8
0
  6
Continuous
 62
     7
370
    25
100
AcDbLine
 10
324.2485055345
 20
741.1574828561
 30
0.0
 11
324.2485055345
 21
751.1574828561
 31
0.0
  0
LINE
  5
26F
330
1F
100
AcDbEntity
  8
0
  6
Continuous
 62
     7
370
    25
100
AcDbLine
 10
324.2485055345
 20
751.1574828561
 30
0.0
 11
315.3125197473
 21
751.1574828561
 31
0.0
  0
LINE
  5
270
330
1F
100
AcDbEntity
  8
0
  6
Continuous
 62
     7
370
    25
100
AcDbLine
 10
324.2485055345
 20
741.1574828561
 30
0.0
 11
315.3125197473
 21
741.1574828561
 31
0.0
  0
LINE
  5
271
330
1F
100
AcDbEntity
  8
0
  6
Continuous
 62
     7
370
    25
100
AcDbLine
 10
98.6837990648
 20
751.1574828561
 30
0.0
 11
98.6837990648
 21
741.1574828561
 31
0.0
  0
LINE
  5
272
330
1F
100
AcDbEntity
  8
0
  6
Continuous
 62
     7
370
    25
100
AcDbLine
 10
108.3849416873
 20
751.1574828561
 30
0.0
 11
98.6837990648
 21
751.1574828561
 31
0.0
  0
LINE
  5
273
330
1F
100
AcDbEntity
  8
0
  6
Continuous
 62
     7
370
    25
100
AcDbLine
 10
108.3849416873
 20
741.1574828561
 30
0.0
 11
98.6837990648
 21
741.1574828561
 31
0.0
  0
LINE
  5
274
330
1F
100
AcDbEntity
  8
0
  6
Continuous
 62
     8
370
    25
100
AcDbLine
 10
192.3445334815
 20
733.7574828561
 30
0.0
 11
277.9837990648
 21
733.7574828561
 31
0.0
  0
LINE
  5
275
330
1F
100
AcDbEntity
  8
0
  6
Continuous
 62
     8
370
    25
100
AcDbLine
 10
277.9837990648
 20
758.5574828561
 30
0.0
 11
192.3445334815
 21
758.5574828561
 31
0.0
  0
LINE
  5
276
330
1F
100
AcDbEntity
  8
0
  6
Continuous
 62
     8
370
    25
100
AcDbLine
 10
260.1837990648
 20
750.6574828561
 30
0.0
 11
259.6480847791
 21
750.6574828561
 31
0.0
  0
LINE
  5
277
330
1F
100
AcDbEntity
  8
0
  6
Continuous
 62
     8
370
    25
100
AcDbLine
 10
259.1837990648
 20
741.8574828561
 30
0.0
 11
260.1837990648
 21
741.8574828561
 31
0.0
  0
ARC
  5
278
330
1F
100
AcDbEntity
  8
0
  6
Continuous
 62
     8
370
    25
100
AcDbCircle
 10
259.9554074536
 20
751.6586921796
 30
0.0
 40
0.7797864698947234
100
AcDbArc
 50
219.9973376503
 51
233.49256662
  0
LINE
  5
279
330
1F
100
AcDbEntity
  8
0
  6
CENTERX2
 62
     7
370
    18
100
AcDbLine
 10
158.1849416873
 20
746.1574828561
 30
0.0
 11
397.0164605739
 21
746.1574828561
 31
0.0
  0
LINE
  5
27A
330
1F
100
AcDbEntity
  8
0
  6
Continuous
 62
     7
370
    18
100
AcDbLine
 10
391.0315473055
 20
757.0140431072
 30
0.0
 11
391.3903112841
 21
759.4096545155
 31
0.0
  0
LINE
  5
27B
330
1F
100
AcDbEntity
  8
0
  6
Continuous
 62
     7
370
    18
100
AcDbLine
 10
391.3903112841
 20
759.4096545155
 30
0.0
 11
381.1949507894
 21
758.4871603622
 31
0.0
  0
LINE
  5
27C
330
1F
100
AcDbEntity
  8
0
  6
Continuous
 62
     7
370
    18
100
AcDbLine
 10
381.1949507894
 20
758.4871603622
 30
0.0
 11
390.6727833269
 21
754.6184316989
 31
0.0
  0
LINE
  5
27D
330
1F
100
AcDbEntity
  8
0
  6
Continuous
 62
     7
370
    18
100
AcDbLine
 10
390.6727833269
 20
754.6184316989
 30
0.0
 11
391.0315473055
 21
757.0140431072
 31
0.0
  0
LINE
  5
27E
330
1F
100
AcDbEntity
  8
0
  6
Continuous
 62
     7
370
    18
100
AcDbLine
 10
389.7578588636
 20
735.2226039174
 30
0.0
 11
388.9364282143
 21
737.731300628
 31
0.0
  0
LINE
  5
27F
330
1F
100
AcDbEntity
  8
0
  6
Continuous
 62
     7
370
    18
100
AcDbLine
 10
388.9364282143
 20
737.731300628
 30
0.0
 11
381.1949507894
 21
733.2970647241
 31
0.0
  0
LINE
  5
280
330
1F
100
AcDbEntity
  8
0
  6
Continuous
 62
     7
370
    18
100
AcDbLine
 10
381.1949507894
 20
733.2970647241
 30
0.0
 11
390.5792895129
 21
732.7139072068
 31
0.0
  0
LINE
  5
281
330
1F
100
AcDbEntity
  8
0
  6
Continuous
 62
     7
370
    18
100
AcDbLine
 10
390.5792895129
 20
732.7139072068
 30
0.0
 11
389.7578588636
 21
735.2226039174
 31
0.0
  0
ARC
  5
282
330
1F
100
AcDbEntity
  8
0
  6
Continuous
 62
     7
370
    18
100
AcDbCircle
 10
389.4084499387
 20
746.1759690502
 30
0.0
 40
10.95893673350069
100
AcDbArc
 50
271.8270978846
 51
81.482748431
  0
HATCH
  5
283
330
1F
100
AcDbEntity
  8
0
  6
Continuous
 62
     7
370
    18
100
AcDbHatch
 10
0.0
 20
0.0
 30
0.0
210
0.0
220
0.0
230
1.0
  2
LINE
 70
     0
 71
     0
 91
        1
 92
        0
 93
        4
 72
     4
 94
        3
 73
     1
 74
     0
 95
       13
 96
        9
 40
0.0663336793793178
 40
0.0663336793793178
 40
0.0663336793793178
 40
0.0663336793793178
 40
0.1009543192054097
 40
0.1717912850300585
 40
0.2206603804612852
 40
0.265849515674614
 40
0.3073781775362803
 40
0.3292119592861165
 40
0.3292119592861165
 40
0.3292119592861165
 40
0.3292119592861165
 10
175.3392242776434
 20
760.1574828602116
 42
1.0
 10
175.2299722265255
 20
759.829942416427
 42
1.0
 10
175.0540637213788
 20
758.792390031497
 42
1.0
 10
175.6671546570992
 20
757.3931974708428
 42
1.0
 10
175.1730050925992
 20
755.7544306269599
 42
1.0
 10
175.9663299257721
 20
754.6638211191367
 42
1.0
 10
176.5331629191407
 20
753.717166695698
 42
1.0
 10
177.0815560701139
 20
753.5414993024366
 42
1.0
 10
177.2849416873387
 20
753.5089205606864
 42
1.0
 72
     1
 10
177.2849416873387
 20
753.5089205606864
 11
177.2849416873159
 21
759.7324828560669
 72
     1
 10
177.2849416873159
 20
759.7324828560669
 11
176.8599416873159
 21
760.157482856067
 72
     1
 10
176.8599416873159
 20
760.157482856067
 11
175.3392242776434
 21
760.1574828602116
 97
        0
 75
     0
 76
     1
 52
45.0
 41
0.33
 77
     0
 78
     1
 53
45.0000000000001
 43
0.0
 44
0.0
 45
-0.7408711299882065
 46
0.7408711299882039
 79
     0
 98
        1
 10
0.0
 20
0.0
  0
HATCH
  5
284
330
1F
100
AcDbEntity
  8
0
  6
Continuous
 62
     7
370
    18
100
AcDbHatch
 10
0.0
 20
0.0
 30
0.0
210
0.0
220
0.0
230
1.0
  2
LINE
 70
     0
 71
     0
 91
        1
 92
        0
 93
        4
 72
     1
 10
181.9099416873159
 20
760.157482856067
 11
181.4849416873159
 21
759.7324828560669
 72
     1
 10
181.4849416873159
 20
759.7324828560669
 11
181.4849417010252
 21
753.3961236458531
 72
     4
 94
        3
 73
     1
 74
     0
 95
       12
 96
        8
 40
0.4733671847099357
 40
0.4733671847099357
 40
0.4733671847099357
 40
0.4733671847099357
 40
0.4887923429777973
 40
0.5324094704756104
 40
0.6183866637097891
 40
0.7103567732074042
 40
0.7364089412701122
 40
0.7364089412701122
 40
0.7364089412701122
 40
0.7364089412701122
 10
181.4849417010252
 20
753.3961236458531
 42
1.0
 10
181.626345425065
 20
753.4185153599692
 42
1.0
 10
182.1492703530867
 20
753.5634029755612
 42
1.0
 10
183.1857437027352
 20
754.678529103421
 42
1.0
 10
183.239018186504
 20
756.8729877660953
 42
1.0
 10
183.4636811428715
 20
758.7639902856755
 42
1.0
 10
183.2229479341853
 20
759.9150399754836
 42
1.0
 10
183.1462001519762
 20
760.1574828755893
 42
1.0
 72
     1
 10
183.1462001519762
 20
760.1574828755893
 11
181.9099416873159
 21
760.157482856067
 97
        0
 75
     0
 76
     1
 52
45.0
 41
0.33
 77
     0
 78
     1
 53
45.0000000000001
 43
0.0
 44
0.0
 45
-0.7408711299882065
 46
0.7408711299882039
 79
     0
 98
        1
 10
0.0
 20
0.0
  0
HATCH
  5
285
330
1F
100
AcDbEntity
  8
0
  6
Continuous
 62
     7
370
    18
100
AcDbHatch
 10
0.0
 20
0.0
 30
0.0
210
0.0
220
0.0
230
1.0
  2
LINE
 70
     0
 71
     0
 91
        1
 92
        0
 93
        4
 72
     1
 10
175.3643277519588
 20
732.1574828560595
 11
176.8599416873159
 21
732.157482856067
 72
     1
 10
176.8599416873159
 20
732.157482856067
 11
177.2849416873159
 21
732.5824828560669
 72
     1
 10
177.2849416873159
 20
732.5824828560669
 11
177.2849416754206
 21
738.4209116069846
 72
     4
 94
        3
 73
     1
 74
     0
 95
       13
 96
        9
 40
0.6960951176452753
 40
0.6960951176452753
 40
0.6960951176452753
 40
0.6960951176452753
 40
0.7293090710321141
 40
0.7711228077125392
 40
0.7963228808217746
 40
0.8539108151167305
 40
0.9046193567161531
 40
0.9471490095299206
 40
0.9471490095299206
 40
0.9471490095299206
 40
0.9471490095299206
 10
177.2849416754207
 20
738.4209116069846
 42
1.0
 10
176.9505809880308
 20
738.4045886719922
 42
1.0
 10
176.2238204543809
 20
738.2842538776514
 42
1.0
 10
175.5581420556525
 20
737.4696370084603
 42
1.0
 10
175.0494446906416
 20
736.3048819522664
 42
1.0
 10
175.9802044351115
 20
735.0110662697235
 42
1.0
 10
175.2658807270472
 20
733.6328474744447
 42
1.0
 10
175.2717876739385
 20
732.5971945167238
 42
1.0
 10
175.3643277519588
 20
732.1574828560595
 42
1.0
 97
        0
 75
     0
 76
     1
 52
45.0
 41
0.33
 77
     0
 78
     1
 53
45.0000000000001
 43
0.0
 44
0.0
 45
-0.7408711299882065
 46
0.7408711299882039
 79
     0
 98
        1
 10
0.0
 20
0.0
  0
HATCH
  5
286
330
1F
100
AcDbEntity
  8
0
  6
Continuous
 62
     7
370
    18
100
AcDbHatch
 10
0.0
 20
0.0
 30
0.0
210
0.0
220
0.0
230
1.0
  2
LINE
 70
     0
 71
     0
 91
        1
 92
        0
 93
        4
 72
     1
 10
181.9099416873159
 20
732.157482856067
 11
183.8346369817631
 21
732.1574828560617
 72
     4
 94
        3
 73
     1
 74
     0
 95
       13
 96
        9
 40
0.3059391180172508
 40
0.3059391180172508
 40
0.3059391180172508
 40
0.3059391180172508
 40
0.330100016469653
 40
0.4014019712352899
 40
0.4529733861603369
 40
0.4962081421130798
 40
0.5410093211643504
 40
0.5542469389332191
 40
0.5542469389332191
 40
0.5542469389332191
 40
0.5542469389332191
 10
183.8346369817631
 20
732.1574828560617
 42
1.0
 10
183.8051226699785
 20
732.4184448046144
 42
1.0
 10
183.6356235651758
 20
733.4837743598838
 42
1.0
 10
183.6981148033184
 20
734.8329578220582
 42
1.0
 10
183.5007129294103
 20
736.4570553834058
 42
1.0
 10
183.1500072754406
 20
737.8439903296991
 42
1.0
 10
182.1804026770921
 20
738.3868262712457
 42
1.0
 10
181.6144006795379
 20
738.4423106424686
 42
1.0
 10
181.4849416678982
 20
738.4469372651442
 42
1.0
 72
     1
 10
181.4849416678982
 20
738.4469372651442
 11
181.4849416873159
 21
732.5824828560669
 72
     1
 10
181.4849416873159
 20
732.5824828560669
 11
181.9099416873159
 21
732.157482856067
 97
        0
 75
     0
 76
     1
 52
45.0
 41
0.33
 77
     0
 78
     1
 53
45.0000000000001
 43
0.0
 44
0.0
 45
-0.7408711299882065
 46
0.7408711299882039
 79
     0
 98
        1
 10
0.0
 20
0.0
  0
DIMENSION
  5
287
330
1F
100
AcDbEntity
  8
0
  6
Continuous
 62
     7
370
    18
100
AcDbDimension
  2
_D_13
 10
50.5544869047
 20
732.1574828561
 30
0.0
 11
50.5544869047
 21
745.7720742687
 31
0.0
 70
   160
  1
<>
 71
     2
 42
-1.0
  3
SLDDIMSTYLE0
100
AcDbAlignedDimension
 13
110.3849416873
 23
760.1574828561
 33
0.0
 14
110.3849416873
 24
732.1574828561
 34
0.0
 50
90.0
100
AcDbRotatedDimension
  0
DIMENSION
  5
293
330
1F
100
AcDbEntity
  8
0
  6
Continuous
 62
     7
370
    18
100
AcDbDimension
  2
_D_14
 10
192.3849416873
 20
833.8024097292
 30
0.0
 11
155.7149371116
 21
833.8024097292
 31
0.0
 70
   160
  1
<>
 71
     2
 42
-1.0
  3
SLDDIMSTYLE1
100
AcDbAlignedDimension
 13
108.3849416873
 23
758.1574828561
 33
0.0
 14
192.3849416873
 24
758.1574828561
 34
0.0
100
AcDbRotatedDimension
  0
DIMENSION
  5
29D
330
1F
100
AcDbEntity
  8
0
  6
Continuous
 62
     7
370
    18
100
AcDbDimension
  2
_D_15
 10
130.3849416873
 20
809.8024097292
 30
0.0
 11
69.5828897935
 21
809.8024097292
 31
0.0
 70
   160
  1
<>
 71
     2
 42
-1.0
  3
SLDDIMSTYLE0
100
AcDbAlignedDimension
 13
108.3849416873
 23
758.1574828561
 33
0.0
 14
130.3849416873
 24
746.1574828561
 34
0.0
100
AcDbRotatedDimension
  0
DIMENSION
  5
2A9
330
1F
100
AcDbEntity
  8
0
  6
Continuous
 62
     7
370
    18
100
AcDbDimension
  2
_D_16
 10
179.3849416873
 20
809.8024097292
 30
0.0
 11
155.7149371116
 21
809.8024097292
 31
0.0
 70
   160
  1
<>
 71
     2
 42
-1.0
  3
SLDDIMSTYLE1
100
AcDbAlignedDimension
 13
130.3849416873
 23
746.1574828561
 33
0.0
 14
179.3849416873
 24
746.1574828561
 34
0.0
100
AcDbRotatedDimension
  0
DIMENSION
  5
2B3
330
1F
100
AcDbEntity
  8
0
  6
Continuous
 62
     7
370
    18
100
AcDbDimension
  2
_D_17
 10
364.2485055345
 20
751.1574828561
 30
0.0
 11
364.2485055345
 21
797.6985491995
 31
0.0
 70
   160
  1
8 - 13.52
 71
     2
 42
-1.0
  3
SLDDIMSTYLE0
100
AcDbAlignedDimension
 13
324.2485055345
 23
741.1574828561
 33
0.0
 14
324.2485055345
 24
751.1574828561
 34
0.0
 50
90.0
100
AcDbRotatedDimension
  0
MTEXT
  5
2C0
330
1F
100
AcDbEntity
  8
0
  6
Continuous
 62
     7
370
     0
100
AcDbMText
 10
367.626080113
 20
750.1109465022
 30
0.0
 40
9.24
 41
0.0
 71
     1
 72
     1
  1
REG ±2°
  7
SLDTEXTSTYLE0
 73
     1
 44
1.0
  0
INSERT
  5
2C6
330
1F
100
AcDbEntity
  8
0
  6
Continuous
 62
     7
370
     0
100
AcDbBlockReference
  2
SW_NOTE_0
 10
211.867618469
 20
788.201190554
 30
0.0
  0
LEADER
  5
2C8
330
1F
100
AcDbEntity
  8
0
  6
Continuous
 62
     7
370
     0
100
AcDbLeader
  3
SLDDIMSTYLE4
 76
     2
 10
179.9002085876
 20
760.1574828561
 30
0.0
 10
211.867618469
 20
788.201190554
 30
0.0
  0
LINE
  5
2C9
330
1F
100
AcDbEntity
  8
0
  6
Continuous
 62
     7
370
     0
100
AcDbLine
 10
181.8849416873
 20
738.4010567348
 30
0.0
 11
181.8849416873
 21
732.1824828561
 31
0.0
  0
LINE
  5
2CA
330
1F
100
AcDbEntity
  8
0
  6
Continuous
 62
     7
370
     0
100
AcDbLine
 10
176.8849416873
 20
732.1824828561
 30
0.0
 11
176.8849416873
 21
738.3786107006
 31
0.0
  0
LINE
  5
2CB
330
1F
100
AcDbEntity
  8
0
  6
Continuous
 62
     7
370
     0
100
AcDbLine
 10
181.8849416873
 20
753.5118271775
 30
0.0
 11
181.8849416873
 21
760.1324828561
 31
0.0
  0
LINE
  5
2CC
330
1F
100
AcDbEntity
  8
0
  6
Continuous
 62
     7
370
     0
100
AcDbLine
 10
176.8849416873
 20
760.1324828561
 30
0.0
 11
176.8849416873
 21
753.6232909528
 31
0.0
  0
ARC
  5
2CD
330
1F
100
AcDbEntity
  8
0
  6
Continuous
 62
     7
370
     0
100
AcDbCircle
 10
179.3849416873
 20
746.1574828561
 30
0.0
 40
0.6010000000000562
100
AcDbArc
 50
255.0
 51
195.0
  0
LINE
  5
2CE
330
1F
100
AcDbEntity
  8
0
  6
Continuous
 62
     7
370
     0
100
AcDbLine
 10
181.4399416873
 20
754.2124828561
 30
0.0
 11
181.4399416873
 21
760.0354828561
 31
0.0
  0
LINE
  5
2CF
330
1F
100
AcDbEntity
  8
0
  6
Continuous
 62
     7
370
     0
100
AcDbLine
 10
177.3299416873
 20
760.0354828561
 30
0.0
 11
177.3299416873
 21
754.2124828561
 31
0.0
  0
LINE
  5
2D0
330
1F
100
AcDbEntity
  8
0
  6
Continuous
 62
     7
370
     0
100
AcDbLine
 10
179.3849416873
 20
754.2124828561
 30
0.0
 11
180.1272933113
 21
754.2124828561
 31
0.0
  0
LINE
  5
2D1
330
1F
100
AcDbEntity
  8
0
  6
Continuous
 62
     7
370
     0
100
AcDbLine
 10
181.4399416873
 20
755.3973898333
 30
0.0
 11
181.4399416873
 21
756.0483700641
 31
0.0
  0
LINE
  5
2D2
330
1F
100
AcDbEntity
  8
0
  6
Continuous
 62
     7
370
     0
100
AcDbLine
 10
177.3299416873
 20
756.0483700641
 30
0.0
 11
177.3299416873
 21
755.3973898333
 31
0.0
  0
LINE
  5
2D3
330
1F
100
AcDbEntity
  8
0
  6
Continuous
 62
     7
370
     0
100
AcDbLine
 10
179.3849416873
 20
755.3973898333
 30
0.0
 11
180.1272933113
 21
755.3973898333
 31
0.0
  0
LINE
  5
2D4
330
1F
100
AcDbEntity
  8
0
  6
Continuous
 62
     7
370
     0
100
AcDbLine
 10
180.127286911
 20
754.2124828561
 30
0.0
 11
181.4399416873
 21
754.2124828561
 31
0.0
  0
LINE
  5
2D5
330
1F
100
AcDbEntity
  8
0
  6
Continuous
 62
     7
370
     0
100
AcDbLine
 10
177.3298859596
 20
754.2124828561
 30
0.0
 11
179.3849416873
 21
754.2124828561
 31
0.0
  0
LINE
  5
2D6
330
1F
100
AcDbEntity
  8
0
  6
Continuous
 62
     7
370
     0
100
AcDbLine
 10
180.127286911
 20
755.3973898333
 30
0.0
 11
181.4399416873
 21
755.3973898333
 31
0.0
  0
LINE
  5
2D7
330
1F
100
AcDbEntity
  8
0
  6
Continuous
 62
     7
370
     0
100
AcDbLine
 10
177.3298859596
 20
755.3973898333
 30
0.0
 11
179.3849416873
 21
755.3973898333
 31
0.0
  0
LINE
  5
2D8
330
1F
100
AcDbEntity
  8
0
  6
Continuous
 62
     7
370
     0
100
AcDbLine
 10
177.3299416873
 20
738.1024828561
 30
0.0
 11
177.3299416873
 21
732.2794828561
 31
0.0
  0
LINE
  5
2D9
330
1F
100
AcDbEntity
  8
0
  6
Continuous
 62
     7
370
     0
100
AcDbLine
 10
181.4399416873
 20
732.2794828561
 30
0.0
 11
181.4399416873
 21
738.1024828561
 31
0.0
  0
LINE
  5
2DA
330
1F
100
AcDbEntity
  8
0
  6
Continuous
 62
     7
370
     0
100
AcDbLine
 10
181.4399416873
 20
738.1024828561
 30
0.0
 11
181.4049514072
 21
738.1024828561
 31
0.0
  0
LINE
  5
2DB
330
1F
100
AcDbEntity
  8
0
  6
Continuous
 62
     7
370
     0
100
AcDbLine
 10
177.3299416873
 20
736.9175758789
 30
0.0
 11
177.3299416873
 21
736.266595648
 31
0.0
  0
LINE
  5
2DC
330
1F
100
AcDbEntity
  8
0
  6
Continuous
 62
     7
370
     0
100
AcDbLine
 10
181.4399416873
 20
736.266595648
 30
0.0
 11
181.4399416873
 21
736.9175758789
 31
0.0
  0
LINE
  5
2DD
330
1F
100
AcDbEntity
  8
0
  6
Continuous
 62
     7
370
     0
100
AcDbLine
 10
181.4399416873
 20
736.9175758789
 30
0.0
 11
181.4049514072
 21
736.9175758789
 31
0.0
  0
LINE
  5
2DE
330
1F
100
AcDbEntity
  8
0
  6
Continuous
 62
     7
370
     0
100
AcDbLine
 10
181.4049214125
 20
738.1024828561
 30
0.0
 11
177.3299416873
 21
738.1024828561
 31
0.0
  0
LINE
  5
2DF
330
1F
100
AcDbEntity
  8
0
  6
Continuous
 62
     7
370
     0
100
AcDbLine
 10
181.4049214125
 20
736.9175758789
 30
0.0
 11
177.3299416873
 21
736.9175758789
 31
0.0
  0
LINE
  5
2E0
330
1F
100
AcDbEntity
  8
0
  6
Continuous
 62
     7
370
     0
100
AcDbLine
 10
133.6192750506
 20
744.8199150279
 30
0.0
 11
133.3293290522
 21
744.265239995
 31
0.0
  0
LINE
  5
2E1
330
1F
100
AcDbEntity
  8
0
  6
Continuous
 62
     7
370
     0
100
AcDbLine
 10
133.3293290522
 20
744.265239995
 30
0.0
 11
133.1090189236
 21
743.959892537
 31
0.0
  0
LINE
  5
2E2
330
1F
100
AcDbEntity
  8
0
  6
Continuous
 62
     7
370
     0
100
AcDbLine
 10
127.150608324
 20
747.4950506842
 30
0.0
 11
127.4405543224
 21
748.0497257172
 31
0.0
  0
LINE
  5
2E3
330
1F
100
AcDbEntity
  8
0
  6
Continuous
 62
     7
370
     0
100
AcDbLine
 10
127.4405543224
 20
748.0497257172
 30
0.0
 11
127.660864451
 21
748.3550731751
 31
0.0
  0
LINE
  5
2E4
330
1F
100
AcDbEntity
  8
0
  6
Continuous
 62
     7
370
     0
100
AcDbLine
 10
131.7225095155
 20
749.3918162194
 30
0.0
 11
131.8388942328
 21
749.3411948398
 31
0.0
  0
LINE
  5
2E5
330
1F
100
AcDbEntity
  8
0
  6
Continuous
 62
     7
370
     0
100
AcDbLine
 10
131.8388942328
 20
749.3411948398
 30
0.0
 11
132.5825320064
 21
748.8815600924
 31
0.0
  0
LINE
  5
2E6
330
1F
100
AcDbEntity
  8
0
  6
Continuous
 62
     7
370
     0
100
AcDbLine
 10
132.4259661953
 20
749.5975728197
 30
0.0
 11
132.0017678002
 21
749.8161538334
 31
0.0
  0
LINE
  5
2E7
330
1F
100
AcDbEntity
  8
0
  6
Continuous
 62
     7
370
     0
100
AcDbLine
 10
132.8399691582
 20
749.3154632419
 30
0.0
 11
132.4259661953
 21
749.5975728197
 31
0.0
  0
LWPOLYLINE
  5
2E8
330
1F
100
AcDbEntity
  8
0
  6
Continuous
 62
     7
370
     0
100
AcDbPolyline
 90
        3
 70
   128
 43
0.0
 10
127.2268652916
 20
748.6125103269
 10
126.9448517237
 20
748.198507364
 10
126.7167051745
 20
747.752487836
  0
LWPOLYLINE
  5
2E9
330
1F
100
AcDbEntity
  8
0
  6
Continuous
 62
     7
370
     0
100
AcDbPolyline
 90
        3
 70
   128
 43
0.0
 10
133.5620284081
 20
743.7272915542
 10
133.825031651
 20
744.1164583481
 10
134.0531782002
 20
744.5624778761
  0
LINE
  5
2EA
330
1F
100
AcDbEntity
  8
0
  6
Continuous
 62
     7
370
     0
100
AcDbLine
 10
181.4096258801
 20
743.9437407936
 30
0.0
 11
181.7502642345
 21
744.3121511114
 31
0.0
  0
LINE
  5
2EB
330
1F
100
AcDbEntity
  8
0
  6
Continuous
 62
     7
370
     0
100
AcDbLine
 10
181.905168163
 20
747.7848913824
 30
0.0
 11
181.5986837498
 21
748.1821670489
 31
0.0
  0
LINE
  5
2EC
330
1F
100
AcDbEntity
  8
0
  6
Continuous
 62
     7
370
     0
100
AcDbLine
 10
181.5986837498
 20
748.1821670489
 30
0.0
 11
181.230273432
 21
748.5228054032
 31
0.0
  0
LINE
  5
2ED
330
1F
100
AcDbEntity
  8
0
  6
Continuous
 62
     7
370
     0
100
AcDbLine
 10
177.757533161
 20
748.6777093317
 30
0.0
 11
177.3602574945
 21
748.3712249186
 31
0.0
  0
LINE
  5
2EE
330
1F
100
AcDbEntity
  8
0
  6
Continuous
 62
     7
370
     0
100
AcDbLine
 10
177.3602574945
 20
748.3712249186
 30
0.0
 11
177.0196191402
 21
748.0028146008
 31
0.0
  0
LINE
  5
2EF
330
1F
100
AcDbEntity
  8
0
  6
Continuous
 62
     7
370
     0
100
AcDbLine
 10
181.0123502136
 20
743.6372563804
 30
0.0
 11
181.4096258801
 21
743.9437407936
 31
0.0
  0
ARC
  5
2F0
330
1F
100
AcDbEntity
  8
0
  6
Continuous
 62
     7
370
    25
100
AcDbCircle
 10
253.4750647043
 20
133.5221801464
 30
0.0
 40
6.999999999999901
100
AcDbArc
 50
270.0
 51
90.0
  0
LINE
  5
2F1
330
1F
100
AcDbEntity
  8
0
  6
Continuous
 62
     7
370
    25
100
AcDbLine
 10
253.4750647043
 20
140.5221801464
 30
0.0
 11
250.3425617019
 21
140.5221801464
 31
0.0
  0
ARC
  5
2F2
330
1F
100
AcDbEntity
  8
0
  6
Continuous
 62
     7
370
    25
100
AcDbCircle
 10
250.3425617019
 20
145.5221801464
 30
0.0
 40
5.000000000000162
100
AcDbArc
 50
218.6821874535
 51
270.0
  0
LINE
  5
2F3
330
1F
100
AcDbEntity
  8
0
  6
Continuous
 62
     7
370
    25
100
AcDbLine
 10
135.9750647043
 20
145.0221801464
 30
0.0
 11
240.9750647043
 21
145.0221801464
 31
0.0
  0
ARC
  5
2F4
330
1F
100
AcDbEntity
  8
0
  6
Continuous
 62
     7
370
    25
100
AcDbCircle
 10
135.9750647043
 20
138.0221801464
 30
0.0
 40
6.999999999999992
100
AcDbArc
 50
90.0
 51
141.3178125465
  0
ARC
  5
2F5
330
1F
100
AcDbEntity
  8
0
  6
Continuous
 62
     7
370
    25
100
AcDbCircle
 10
126.6075677067
 20
145.5221801464
 30
0.0
 40
5.000000000000009
100
AcDbArc
 50
270.0
 51
321.3178125465
  0
LINE
  5
2F6
330
1F
100
AcDbEntity
  8
0
  6
Continuous
 62
     7
370
    25
100
AcDbLine
 10
126.6075677067
 20
140.5221801464
 30
0.0
 11
123.4750647043
 21
140.5221801464
 31
0.0
  0
ARC
  5
2F7
330
1F
100
AcDbEntity
  8
0
  6
Continuous
 62
     7
370
    25
100
AcDbCircle
 10
123.4750647043
 20
133.5221801464
 30
0.0
 40
6.999999999999901
100
AcDbArc
 50
90.0
 51
270.0
  0
LINE
  5
2F8
330
1F
100
AcDbEntity
  8
0
  6
Continuous
 62
     7
370
    25
100
AcDbLine
 10
123.4750647043
 20
126.5221801464
 30
0.0
 11
123.9750647043
 21
126.5221801464
 31
0.0
  0
ARC
  5
2F9
330
1F
100
AcDbEntity
  8
0
  6
Continuous
 62
     7
370
    25
100
AcDbCircle
 10
123.9750647043
 20
121.5221801464
 30
0.0
 40
5.0
100
AcDbArc
 50
0.0
 51
90.0
  0
LINE
  5
2FA
330
1F
100
AcDbEntity
  8
0
  6
Continuous
 62
     7
370
    25
100
AcDbLine
 10
128.9750647043
 20
112.0221801464
 30
0.0
 11
128.9750647043
 21
121.5221801464
 31
0.0
  0
LINE
  5
2FB
330
1F
100
AcDbEntity
  8
0
  6
Continuous
 62
     7
370
    25
100
AcDbLine
 10
128.9750647043
 20
112.0221801464
 30
0.0
 11
86.4750647043
 21
112.0221801464
 31
0.0
  0
LINE
  5
2FC
330
1F
100
AcDbEntity
  8
0
  6
Continuous
 62
     7
370
    25
100
AcDbLine
 10
86.4750647043
 20
205.1384470355
 30
0.0
 11
139.9414475293
 21
212.8851158051
 31
0.0
  0
LINE
  5
2FD
330
1F
100
AcDbEntity
  8
0
  6
Continuous
 62
     7
370
    25
100
AcDbLine
 10
139.9414475293
 20
212.8851158051
 30
0.0
 11
193.2505529095
 21
209.0117814203
 31
0.0
  0
LINE
  5
2FE
330
1F
100
AcDbEntity
  8
0
  6
Continuous
 62
     7
370
    25
100
AcDbLine
 10
193.2505529095
 20
209.0117814203
 30
0.0
 11
252.8450113259
 21
210.9484486127
 31
0.0
  0
LINE
  5
2FF
330
1F
100
AcDbEntity
  8
0
  6
Continuous
 62
     7
370
    25
100
AcDbLine
 10
304.201387599
 20
205.1384470355
 30
0.0
 11
312.039771174
 21
186.5490913474
 31
0.0
  0
LINE
  5
300
330
1F
100
AcDbEntity
  8
0
  6
Continuous
 62
     7
370
    25
100
AcDbLine
 10
312.039771174
 20
140.5876603846
 30
0.0
 11
303.1037853868
 21
108.0221801464
 31
0.0
  0
ARC
  5
301
330
1F
100
AcDbEntity
  8
0
  6
Continuous
 62
     7
370
    25
100
AcDbCircle
 10
252.9750647043
 20
121.5221801464
 30
0.0
 40
4.999999999999972
100
AcDbArc
 50
90.0
 51
180.0
  0
LINE
  5
302
330
1F
100
AcDbEntity
  8
0
  6
Continuous
 62
     7
370
    25
100
AcDbLine
 10
252.9750647043
 20
126.5221801464
 30
0.0
 11
253.4750647043
 21
126.5221801464
 31
0.0
  0
LINE
  5
303
330
1F
100
AcDbEntity
  8
0
  6
Continuous
 62
     7
370
    25
100
AcDbLine
 10
304.201387599
 20
167.6657127347
 30
0.0
 11
312.039771174
 21
140.5876603846
 31
0.0
  0
LINE
  5
304
330
1F
100
AcDbEntity
  8
0
  6
Continuous
 62
     7
370
    25
100
AcDbLine
 10
86.4750647043
 20
112.0221801464
 30
0.0
 11
86.4750647043
 21
205.1384470355
 31
0.0
  0
LINE
  5
305
330
1F
100
AcDbEntity
  8
0
  6
Continuous
 62
     7
370
    25
100
AcDbLine
 10
303.1037853868
 20
108.0221801464
 30
0.0
 11
247.9750647043
 21
108.0221801464
 31
0.0
  0
LINE
  5
306
330
1F
100
AcDbEntity
  8
0
  6
Continuous
 62
     7
370
    25
100
AcDbLine
 10
247.9750647043
 20
121.5221801464
 30
0.0
 11
247.9750647043
 21
108.0221801464
 31
0.0
  0
LINE
  5
307
330
1F
100
AcDbEntity
  8
0
  6
Continuous
 62
     7
370
    25
100
AcDbLine
 10
252.8450113259
 20
210.9484486127
 30
0.0
 11
304.201387599
 21
205.1384470355
 31
0.0
  0
ARC
  5
308
330
1F
100
AcDbEntity
  8
0
  6
Continuous
 62
     7
370
    25
100
AcDbCircle
 10
240.9750647043
 20
138.0221801464
 30
0.0
 40
7.000000000000114
100
AcDbArc
 50
38.6821874535
 51
90.0
  0
LINE
  5
309
330
1F
100
AcDbEntity
  8
0
  6
Continuous
 62
     7
370
    25
100
AcDbLine
 10
312.039771174
 20
186.5490913474
 30
0.0
 11
304.201387599
 21
167.6657127347
 31
0.0
  0
LINE
  5
30A
330
1F
100
AcDbEntity
  8
0
  6
Continuous
 62
     7
370
    18
100
AcDbLine
 10
75.9310386028
 20
101.0221801464
 30
0.0
 11
307.3634842127
 21
101.0221801464
 31
0.0
  0
LINE
  5
30B
330
1F
100
AcDbEntity
  8
0
  6
Continuous
 62
     7
370
    18
100
AcDbLine
 10
75.9310386028
 20
101.0221801464
 30
0.0
 11
75.9310386028
 21
86.9977581255
 31
0.0
  0
LINE
  5
30C
330
1F
100
AcDbEntity
  8
0
  6
Continuous
 62
     7
370
    18
100
AcDbLine
 10
75.9310386028
 20
86.9977581255
 30
0.0
 11
307.3634842127
 21
86.9977581255
 31
0.0
  0
LINE
  5
30D
330
1F
100
AcDbEntity
  8
0
  6
Continuous
 62
     7
370
    18
100
AcDbLine
 10
307.3634842127
 20
101.0221801464
 30
0.0
 11
307.3634842127
 21
86.9977581255
 31
0.0
  0
HATCH
  5
30E
330
1F
100
AcDbEntity
  8
0
  6
Continuous
 62
     7
100
AcDbHatch
 10
0.0
 20
0.0
 30
0.0
210
0.0
220
0.0
230
1.0
  2
LINE
 70
     0
 71
     0
 91
        1
 92
        0
 93
        4
 72
     1
 10
307.3634842126905
 20
86.9977581255044
 11
307.3634842126905
 21
101.0221801464221
 72
     1
 10
307.3634842126905
 20
101.0221801464221
 11
75.93103860278813
 21
101.0221801464221
 72
     1
 10
75.93103860278813
 20
101.0221801464221
 11
75.93103860278813
 21
86.9977581255044
 72
     1
 10
75.93103860278813
 20
86.9977581255044
 11
307.3634842126905
 21
86.9977581255044
 97
        0
 75
     0
 76
     1
 52
45.0
 41
2.0
 77
     0
 78
     1
 53
45.0000000000001
 43
0.0
 44
0.0
 45
-4.490128060534586
 46
4.49012806053457
 79
     0
 98
        1
 10
0.0
 20
0.0
  0
LINE
  5
30F
330
1F
100
AcDbEntity
  8
0
  6
Continuous
 62
     7
370
    25
100
AcDbLine
 10
402.0630189259
 20
207.1221334616
 30
0.0
 11
455.5294017508
 21
214.8688022313
 31
0.0
  0
LINE
  5
310
330
1F
100
AcDbEntity
  8
0
  6
Continuous
 62
     7
370
    25
100
AcDbLine
 10
455.5294017508
 20
214.8688022313
 30
0.0
 11
508.8385071311
 21
210.9954678464
 31
0.0
  0
LINE
  5
311
330
1F
100
AcDbEntity
  8
0
  6
Continuous
 62
     7
370
    25
100
AcDbLine
 10
508.8385071311
 20
210.9954678464
 30
0.0
 11
568.4329655475
 21
212.9321350389
 31
0.0
  0
LINE
  5
312
330
1F
100
AcDbEntity
  8
0
  6
Continuous
 62
     7
370
    25
100
AcDbLine
 10
568.4329655475
 20
212.9321350389
 30
0.0
 11
619.7893418205
 21
207.1221334616
 31
0.0
  0
LINE
  5
313
330
1F
100
AcDbEntity
  8
0
  6
Continuous
 62
     7
370
    25
100
AcDbLine
 10
619.7893418205
 20
207.1221334616
 30
0.0
 11
627.6277253956
 21
188.5327777735
 31
0.0
  0
LINE
  5
314
330
1F
100
AcDbEntity
  8
0
  6
Continuous
 62
     7
370
    25
100
AcDbLine
 10
627.6277253956
 20
188.5327777735
 30
0.0
 11
619.7893418205
 21
169.6493991609
 31
0.0
  0
LINE
  5
315
330
1F
100
AcDbEntity
  8
0
  6
Continuous
 62
     7
370
    25
100
AcDbLine
 10
619.7893418205
 20
169.6493991609
 30
0.0
 11
627.6277253956
 21
142.5713468107
 31
0.0
  0
LINE
  5
316
330
1F
100
AcDbEntity
  8
0
  6
Continuous
 62
     7
370
    25
100
AcDbLine
 10
627.6277253956
 20
142.5713468107
 30
0.0
 11
618.6917396084
 21
110.0058665726
 31
0.0
  0
LINE
  5
317
330
1F
100
AcDbEntity
  8
0
  6
Continuous
 62
     7
370
    25
100
AcDbLine
 10
451.5630189259
 20
147.0058665726
 30
0.0
 11
556.5630189259
 21
147.0058665726
 31
0.0
  0
ARC
  5
318
330
1F
100
AcDbEntity
  8
0
  6
Continuous
 62
     7
370
    25
100
AcDbCircle
 10
451.5630189259
 20
140.0058665726
 30
0.0
 40
7.000000000000057
100
AcDbArc
 50
90.0
 51
180.0
  0
LINE
  5
319
330
1F
100
AcDbEntity
  8
0
  6
Continuous
 62
     7
370
    25
100
AcDbLine
 10
444.5630189259
 20
139.8359935915
 30
0.0
 11
444.5630189259
 21
140.0058665726
 31
0.0
  0
ARC
  5
31A
330
1F
100
AcDbEntity
  8
0
  6
Continuous
 62
     7
370
    25
100
AcDbCircle
 10
439.0630189259
 20
135.5058665726
 30
0.0
 40
6.999999999999972
100
AcDbArc
 50
38.2132107017
 51
321.7867892983
  0
LINE
  5
31B
330
1F
100
AcDbEntity
  8
0
  6
Continuous
 62
     7
370
    25
100
AcDbLine
 10
444.5630189259
 20
114.0058665726
 30
0.0
 11
444.5630189259
 21
131.1757395537
 31
0.0
  0
LINE
  5
31C
330
1F
100
AcDbEntity
  8
0
  6
Continuous
 62
     7
370
    25
100
AcDbLine
 10
444.5630189259
 20
114.0058665726
 30
0.0
 11
402.0630189259
 21
114.0058665726
 31
0.0
  0
LINE
  5
31D
330
1F
100
AcDbEntity
  8
0
  6
Continuous
 62
     7
370
    25
100
AcDbLine
 10
402.0630189259
 20
114.0058665726
 30
0.0
 11
402.0630189259
 21
207.1221334616
 31
0.0
  0
LINE
  5
31E
330
1F
100
AcDbEntity
  8
0
  6
Continuous
 62
     7
370
    25
100
AcDbLine
 10
618.6917396084
 20
110.0058665726
 30
0.0
 11
563.5630189259
 21
110.0058665726
 31
0.0
  0
LINE
  5
31F
330
1F
100
AcDbEntity
  8
0
  6
Continuous
 62
     7
370
    25
100
AcDbLine
 10
563.5630189259
 20
131.1757395537
 30
0.0
 11
563.5630189259
 21
110.0058665726
 31
0.0
  0
ARC
  5
320
330
1F
100
AcDbEntity
  8
0
  6
Continuous
 62
     7
370
    25
100
AcDbCircle
 10
569.0630189259
 20
135.5058665726
 30
0.0
 40
7.000000000000016
100
AcDbArc
 50
218.2132107017
 51
141.7867892983
  0
LINE
  5
321
330
1F
100
AcDbEntity
  8
0
  6
Continuous
 62
     7
370
    25
100
AcDbLine
 10
563.5630189259
 20
140.0058665726
 30
0.0
 11
563.5630189259
 21
139.8359935915
 31
0.0
  0
ARC
  5
322
330
1F
100
AcDbEntity
  8
0
  6
Continuous
 62
     7
370
    25
100
AcDbCircle
 10
556.5630189259
 20
140.0058665726
 30
0.0
 40
7.0
100
AcDbArc
 50
0.0
 51
90.0
  0
LINE
  5
323
330
1F
100
AcDbEntity
  8
0
  6
Continuous
 62
     7
370
    18
100
AcDbLine
 10
385.9902325596
 20
103.0058665726
 30
0.0
 11
638.4716452734
 21
103.0058665726
 31
0.0
  0
LINE
  5
324
330
1F
100
AcDbEntity
  8
0
  6
Continuous
 62
     7
370
    18
100
AcDbLine
 10
385.9902325596
 20
103.0058665726
 30
0.0
 11
385.9902325596
 21
84.9559848409
 31
0.0
  0
LINE
  5
325
330
1F
100
AcDbEntity
  8
0
  6
Continuous
 62
     7
370
    18
100
AcDbLine
 10
385.9902325596
 20
84.9559848409
 30
0.0
 11
638.4716452734
 21
84.9559848409
 31
0.0
  0
LINE
  5
326
330
1F
100
AcDbEntity
  8
0
  6
Continuous
 62
     7
370
    18
100
AcDbLine
 10
638.4716452734
 20
103.0058665726
 30
0.0
 11
638.4716452734
 21
84.9559848409
 31
0.0
  0
HATCH
  5
327
330
1F
100
AcDbEntity
  8
0
  6
Continuous
 62
     7
100
AcDbHatch
 10
0.0
 20
0.0
 30
0.0
210
0.0
220
0.0
230
1.0
  2
LINE
 70
     0
 71
     0
 91
        1
 92
        0
 93
        4
 72
     1
 10
638.4716452733816
 20
84.95598484091845
 11
638.4716452733816
 21
103.0058665725815
 72
     1
 10
638.4716452733816
 20
103.0058665725815
 11
385.9902325595555
 21
103.0058665725815
 72
     1
 10
385.9902325595555
 20
103.0058665725815
 11
385.9902325595555
 21
84.95598484091845
 72
     1
 10
385.9902325595555
 20
84.95598484091845
 11
638.4716452733816
 21
84.95598484091845
 97
        0
 75
     0
 76
     1
 52
45.0
 41
2.0
 77
     0
 78
     1
 53
45.0000000000001
 43
0.0
 44
0.0
 45
-4.490128060534586
 46
4.49012806053457
 79
     0
 98
        1
 10
0.0
 20
0.0
  0
LINE
  5
328
330
1F
100
AcDbEntity
  8
0
  6
Continuous
 62
     7
370
    25
100
AcDbLine
 10
637.229959309
 20
686.0455944998
 30
0.0
 11
460.6414393784
 21
712.4330837725
 31
0.0
  0
LINE
  5
329
330
1F
100
AcDbEntity
  8
0
  6
Continuous
 62
     7
370
    25
100
AcDbLine
 10
637.2759396012
 20
629.0945364059
 30
0.0
 11
637.2759396012
 21
685.9922328922
 31
0.0
  0
ARC
  5
32A
330
1F
100
AcDbEntity
  8
0
  6
Continuous
 62
     7
370
    25
100
AcDbCircle
 10
631.8197279844
 20
655.7550470623
 30
0.0
 40
0.990000000000139
100
AcDbArc
 50
126.5735936944
 51
233.4264063056
  0
LINE
  5
32B
330
1F
100
AcDbEntity
  8
0
  6
Continuous
 62
     7
370
    25
100
AcDbLine
 10
443.7272135846
 20
647.6341636248
 30
0.0
 11
620.3157335153
 21
621.2466743521
 31
0.0
  0
LINE
  5
32C
330
1F
100
AcDbEntity
  8
0
  6
Continuous
 62
     7
370
    25
100
AcDbLine
 10
443.6812332925
 20
704.5852217187
 30
0.0
 11
443.6812332925
 21
647.6875252324
 31
0.0
  0
LINE
  5
32D
330
1F
100
AcDbEntity
  8
0
  6
Continuous
 62
     7
370
    25
100
AcDbLine
 10
521.4107223869
 20
600.5168389055
 30
0.0
 11
521.4107223869
 21
622.9466403198
 31
0.0
  0
LINE
  5
32E
330
1F
100
AcDbEntity
  8
0
  6
Continuous
 62
     7
370
    25
100
AcDbLine
 10
510.8507223869
 20
624.3060255741
 30
0.0
 11
510.8507223869
 21
600.5168389055
 31
0.0
  0
LINE
  5
32F
330
1F
100
AcDbEntity
  8
0
  6
Continuous
 62
     7
370
    25
100
AcDbLine
 10
520.1961141859
 20
599.3598737715
 30
0.0
 11
521.1342815242
 21
600.0804546477
 31
0.0
  0
LINE
  5
330
330
1F
100
AcDbEntity
  8
0
  6
Continuous
 62
     7
370
    25
100
AcDbLine
 10
629.1502853784
 20
629.1647406112
 30
0.0
 11
629.8102853784
 21
629.460610517
 31
0.0
  0
LINE
  5
331
330
1F
100
AcDbEntity
  8
0
  6
Continuous
 62
     7
370
    25
100
AcDbLine
 10
460.5748570914
 20
707.1662472505
 30
0.0
 11
459.9148570914
 21
706.8703773446
 31
0.0
  0
LINE
  5
332
330
1F
100
AcDbEntity
  8
0
  6
Continuous
 62
     7
370
    25
100
AcDbLine
 10
466.7161992702
 20
624.6599310787
 30
0.0
 11
466.7161992702
 21
630.9010140578
 31
0.0
  0
LINE
  5
333
330
1F
100
AcDbEntity
  8
0
  6
Continuous
 62
     7
370
    25
100
AcDbLine
 10
453.5161992702
 20
632.8734800966
 30
0.0
 11
453.5161992702
 21
624.6599310787
 31
0.0
  0
LINE
  5
334
330
1F
100
AcDbEntity
  8
0
  6
Continuous
 62
     7
370
    25
100
AcDbLine
 10
453.7575411797
 20
599.9767990181
 30
0.0
 11
455.0292727978
 21
598.7933193949
 31
0.0
  0
LINE
  5
335
330
1F
100
AcDbEntity
  8
0
  6
Continuous
 62
     7
370
    25
100
AcDbLine
 10
465.2031257425
 20
598.7933193949
 30
0.0
 11
466.4748573606
 21
599.9767990181
 31
0.0
  0
LINE
  5
336
330
1F
100
AcDbEntity
  8
0
  6
Continuous
 62
     7
370
    25
100
AcDbLine
 10
631.0005100002
 20
628.9641374182
 30
0.0
 11
631.229831721
 21
629.0669395332
 31
0.0
  0
SPLINE
  5
337
330
1F
100
AcDbEntity
  8
0
  6
Continuous
 62
     7
370
    25
100
AcDbSpline
210
0.0
220
0.0
230
1.0
 70
     8
 71
     3
 72
     9
 73
     5
 74
     0
 42
0.000000001
 43
0.00000001
 40
0.0
 40
0.0
 40
0.0
 40
0.0
 40
0.4453073323979964
 40
0.9999999999999999
 40
0.9999999999999999
 40
0.9999999999999999
 40
0.9999999999999999
 10
539.2654112498917
 20
631.3488677148184
 30
0.0
 10
539.2604920997002
 20
631.652196907315
 30
0.0
 10
539.2494454587991
 20
632.3333651038126
 30
0.0
 10
539.1274914853208
 20
633.0121586978208
 30
0.0
 10
539.0598445104475
 20
633.3886805272325
 30
0.0
  0
LINE
  5
338
330
1F
100
AcDbEntity
  8
0
  6
Continuous
 62
     7
370
    25
100
AcDbLine
 10
539.2654112499
 20
630.7113566695
 30
0.0
 11
539.2654112499
 21
631.3488677148
 31
0.0
  0
ARC
  5
339
330
1F
100
AcDbEntity
  8
0
  6
Continuous
 62
     7
370
    25
100
AcDbCircle
 10
429.3331286103
 20
645.5637681009
 30
0.0
 40
2.6400000000001
100
AcDbArc
 50
114.1461084513
 51
180.0
  0
LINE
  5
33A
330
1F
100
AcDbEntity
  8
0
  6
Continuous
 62
     7
370
    25
100
AcDbLine
 10
426.6931286103
 20
645.5637681009
 30
0.0
 11
426.6931286103
 21
637.2761245113
 31
0.0
  0
LINE
  5
33B
330
1F
100
AcDbEntity
  8
0
  6
Continuous
 62
     7
370
    25
100
AcDbLine
 10
443.6812332925
 20
654.8889814101
 30
0.0
 11
428.2531972052
 21
647.9727820403
 31
0.0
  0
LINE
  5
33C
330
1F
100
AcDbEntity
  8
0
  6
Continuous
 62
     7
370
    25
100
AcDbLine
 10
632.1443545474
 20
683.8027955891
 30
0.0
 11
632.1443545474
 21
682.7827779166
 31
0.0
  0
LINE
  5
33D
330
1F
100
AcDbEntity
  8
0
  6
Continuous
 62
     7
370
    25
100
AcDbLine
 10
637.0283545474
 20
685.9922328922
 30
0.0
 11
632.1443545474
 21
683.8027955891
 31
0.0
  0
LINE
  5
33E
330
1F
100
AcDbEntity
  8
0
  6
Continuous
 62
     7
370
    25
100
AcDbLine
 10
637.0283545474
 20
684.9722152196
 30
0.0
 11
637.0283545474
 21
685.9922328922
 31
0.0
  0
LINE
  5
33F
330
1F
100
AcDbEntity
  8
0
  6
Continuous
 62
     7
370
    25
100
AcDbLine
 10
632.1443545474
 20
682.7827779166
 30
0.0
 11
637.0283545474
 21
684.9722152196
 31
0.0
  0
LINE
  5
340
330
1F
100
AcDbEntity
  8
0
  6
Continuous
 62
     7
370
    25
100
AcDbLine
 10
455.4128183463
 20
710.2116556752
 30
0.0
 11
632.1443545474
 21
683.8027955891
 31
0.0
  0
LINE
  5
341
330
1F
100
AcDbEntity
  8
0
  6
Continuous
 62
     7
370
    25
100
AcDbLine
 10
460.2968183463
 20
712.4010929782
 30
0.0
 11
455.4128183463
 21
710.2116556752
 31
0.0
  0
LINE
  5
342
330
1F
100
AcDbEntity
  8
0
  6
Continuous
 62
     7
370
    25
100
AcDbLine
 10
637.0283545474
 20
685.9922328922
 30
0.0
 11
460.2968183463
 21
712.4010929782
 31
0.0
  0
LINE
  5
343
330
1F
100
AcDbEntity
  8
0
  6
Continuous
 62
     7
370
    25
100
AcDbLine
 10
455.4128183463
 20
709.1916380026
 30
0.0
 11
632.1443545474
 21
682.7827779166
 31
0.0
  0
LINE
  5
344
330
1F
100
AcDbEntity
  8
0
  6
Continuous
 62
     7
370
    25
100
AcDbLine
 10
455.4128183463
 20
709.1916380026
 30
0.0
 11
455.4128183463
 21
710.2116556752
 31
0.0
  0
LINE
  5
345
330
1F
100
AcDbEntity
  8
0
  6
Continuous
 62
     7
370
    25
100
AcDbLine
 10
632.1443545474
 20
682.5277734984
 30
0.0
 11
631.229831721
 21
682.6644299542
 31
0.0
  0
LINE
  5
346
330
1F
100
AcDbEntity
  8
0
  6
Continuous
 62
     7
370
    25
100
AcDbLine
 10
631.6564624276
 20
682.8556832678
 30
0.0
 11
631.229831721
 21
682.6644299542
 31
0.0
  0
LINE
  5
347
330
1F
100
AcDbEntity
  8
0
  6
Continuous
 62
     7
370
    25
100
AcDbLine
 10
637.269927153
 20
684.9178087139
 30
0.0
 11
636.9977238408
 21
684.9584838495
 31
0.0
  0
ARC
  5
348
330
1F
100
AcDbEntity
  8
0
  6
Continuous
 62
     7
370
    25
100
AcDbCircle
 10
636.9054209107
 20
685.1110126167
 30
0.0
 40
0.4125439960506457
100
AcDbArc
 50
287.3368670517
 51
332.0744966427
  0
LINE
  5
349
330
1F
100
AcDbEntity
  8
0
  6
Continuous
 62
     7
370
    25
100
AcDbLine
 10
637.0283545474
 20
684.7172108015
 30
0.0
 11
632.1443545474
 21
682.5277734984
 31
0.0
  0
LINE
  5
34A
330
1F
100
AcDbEntity
  8
0
  6
Continuous
 62
     7
370
    25
100
AcDbLine
 10
632.1443545474
 20
682.5277734984
 30
0.0
 11
632.1443545474
 21
627.7018235982
 31
0.0
  0
LINE
  5
34B
330
1F
100
AcDbEntity
  8
0
  6
Continuous
 62
     7
370
    25
100
AcDbLine
 10
632.1443545474
 20
627.7018235982
 30
0.0
 11
631.229831721
 21
627.8384800541
 31
0.0
  0
LINE
  5
34C
330
1F
100
AcDbEntity
  8
0
  6
Continuous
 62
     7
370
    25
100
AcDbLine
 10
631.229831721
 20
682.6644299542
 30
0.0
 11
631.229831721
 21
627.8384800541
 31
0.0
  0
LINE
  5
34D
330
1F
100
AcDbEntity
  8
0
  6
Continuous
 62
     7
370
    25
100
AcDbLine
 10
637.0283545474
 20
629.8912609013
 30
0.0
 11
637.0283545474
 21
684.7172108015
 31
0.0
  0
LINE
  5
34E
330
1F
100
AcDbEntity
  8
0
  6
Continuous
 62
     7
370
    25
100
AcDbLine
 10
632.1443545474
 20
627.7018235982
 30
0.0
 11
637.0283545474
 21
629.8912609013
 31
0.0
  0
LWPOLYLINE
  5
34F
330
1F
100
AcDbEntity
  8
0
  6
Continuous
 62
     7
370
    25
100
AcDbPolyline
 90
       17
 70
   128
 43
0.0
 10
633.4643545474
 20
655.70653836
 10
633.4392347931
 20
655.9392423972
 10
633.3676997852
 20
656.1139975987
 10
633.2606400801
 20
656.2041990692
 10
633.1343545474
 20
656.1961144524
 10
633.0080690147
 20
656.0909745581
 10
632.9010093096
 20
655.9047859819
 10
632.8294743017
 20
655.6658942469
 10
632.8043545474
 20
655.4106684541
 10
632.8294743017
 20
655.1779644169
 10
632.9010093096
 20
655.0032092154
 10
633.0080690147
 20
654.913007745
 10
633.1343545474
 20
654.9210923617
 10
633.2606400801
 20
655.0262322561
 10
633.3676997852
 20
655.2124208322
 10
633.4392347931
 20
655.4513125672
 10
633.4643545474
 20
655.70653836
  0
ELLIPSE
  5
350
330
1F
100
AcDbEntity
  8
0
  6
Continuous
 62
     7
370
    25
100
AcDbEllipse
 10
635.4279396012
 20
684.4463507628
 30
0.0
 11
1.836468951565053
 21
1.582436935811757
 31
0.0
210
0.0
220
0.0
230
1.0
 40
0.1302553102
 41
6.171415501665241
 42
6.695014277263424
  0
ELLIPSE
  5
351
330
1F
100
AcDbEntity
  8
0
  6
Continuous
 62
     7
370
    25
100
AcDbEllipse
 10
461.8972332925
 20
710.3769132536
 30
0.0
 11
-1.693489172284387
 21
1.965348643177663
 31
0.0
210
0.0
220
0.0
230
1.0
 40
0.3763854404
 41
5.87135633709597
 42
6.171415501664908
  0
LINE
  5
352
330
1F
100
AcDbEntity
  8
0
  6
Continuous
 62
     7
370
    25
100
AcDbLine
 10
637.269927153
 20
629.8368543956
 30
0.0
 11
637.269927153
 21
630.0918588138
 31
0.0
  0
ARC
  5
353
330
1F
100
AcDbEntity
  8
0
  6
Continuous
 62
     7
370
    25
100
AcDbCircle
 10
636.9054209107
 20
630.2850627165
 30
0.0
 40
0.4125439960516086
100
AcDbArc
 50
287.3368670518
 51
332.0744966427
  0
LINE
  5
354
330
1F
100
AcDbEntity
  8
0
  6
Continuous
 62
     7
370
    25
100
AcDbLine
 10
637.269927153
 20
684.9178087139
 30
0.0
 11
637.269927153
 21
685.1728131321
 31
0.0
  0
ELLIPSE
  5
355
330
1F
100
AcDbEntity
  8
0
  6
Continuous
 62
     7
370
    25
100
AcDbEllipse
 10
635.4279396012
 20
630.6404185352
 30
0.0
 11
-1.693489172284444
 21
1.965348643177549
 31
0.0
210
0.0
220
0.0
230
1.0
 40
0.3763854404
 41
3.029822848075034
 42
3.553421623673328
  0
LINE
  5
356
330
1F
100
AcDbEntity
  8
0
  6
Continuous
 62
     7
370
    25
100
AcDbLine
 10
637.0283545474
 20
628.6162388106
 30
0.0
 11
637.0283545474
 21
629.6362564831
 31
0.0
  0
ARC
  5
357
330
1F
100
AcDbEntity
  8
0
  6
Continuous
 62
     7
370
    25
100
AcDbCircle
 10
636.9054209107
 20
630.0300582983
 30
0.0
 40
0.4125439960505372
100
AcDbArc
 50
287.3368670517
 51
332.0744966428
  0
ARC
  5
358
330
1F
100
AcDbEntity
  8
0
  6
Continuous
 62
     7
370
    25
100
AcDbCircle
 10
636.9054209107
 20
685.3660170348
 30
0.0
 40
0.4125439960505372
100
AcDbArc
 50
287.3368670517
 51
332.0744966427
  0
LINE
  5
359
330
1F
100
AcDbEntity
  8
0
  6
Continuous
 62
     7
370
    25
100
AcDbLine
 10
637.269927153
 20
629.8368543956
 30
0.0
 11
636.9977238408
 21
629.8775295312
 31
0.0
  0
LINE
  5
35A
330
1F
100
AcDbEntity
  8
0
  6
Continuous
 62
     7
370
    25
100
AcDbLine
 10
632.1443545474
 20
627.4468191801
 30
0.0
 11
625.5443545474
 21
628.4330521995
 31
0.0
  0
LINE
  5
35B
330
1F
100
AcDbEntity
  8
0
  6
Continuous
 62
     7
370
    25
100
AcDbLine
 10
637.0283545474
 20
629.6362564831
 30
0.0
 11
632.1443545474
 21
627.4468191801
 31
0.0
  0
LINE
  5
35C
330
1F
100
AcDbEntity
  8
0
  6
Continuous
 62
     7
370
    25
100
AcDbLine
 10
632.1443545474
 20
627.4468191801
 30
0.0
 11
632.1443545474
 21
626.4268015075
 31
0.0
  0
LINE
  5
35D
330
1F
100
AcDbEntity
  8
0
  6
Continuous
 62
     7
370
    25
100
AcDbLine
 10
637.0283545474
 20
628.6162388106
 30
0.0
 11
632.1443545474
 21
626.4268015075
 31
0.0
  0
LINE
  5
35E
330
1F
100
AcDbEntity
  8
0
  6
Continuous
 62
     7
370
    25
100
AcDbLine
 10
632.1443545474
 20
626.4268015075
 30
0.0
 11
625.5443545474
 21
627.4130345269
 31
0.0
  0
LINE
  5
35F
330
1F
100
AcDbEntity
  8
0
  6
Continuous
 62
     7
370
    25
100
AcDbLine
 10
456.3273411727
 20
706.1300671418
 30
0.0
 11
456.3273411727
 21
708.7999771287
 31
0.0
  0
LINE
  5
360
330
1F
100
AcDbEntity
  8
0
  6
Continuous
 62
     7
370
    25
100
AcDbLine
 10
456.3273411727
 20
708.7999771287
 30
0.0
 11
456.7539718793
 21
708.9912304423
 31
0.0
  0
LINE
  5
361
330
1F
100
AcDbEntity
  8
0
  6
Continuous
 62
     7
370
    25
100
AcDbLine
 10
456.3273411727
 20
708.7999771287
 30
0.0
 11
455.4128183463
 21
708.9366335845
 31
0.0
  0
LINE
  5
362
330
1F
100
AcDbEntity
  8
0
  6
Continuous
 62
     7
370
    25
100
AcDbLine
 10
455.8394490529
 20
709.1278868981
 30
0.0
 11
455.4128183463
 21
708.9366335845
 31
0.0
  0
LINE
  5
363
330
1F
100
AcDbEntity
  8
0
  6
Continuous
 62
     7
370
    25
100
AcDbLine
 10
455.4128183463
 20
706.2667235977
 30
0.0
 11
455.4128183463
 21
708.9366335845
 31
0.0
  0
LINE
  5
364
330
1F
100
AcDbEntity
  8
0
  6
Continuous
 62
     7
370
    25
100
AcDbLine
 10
618.1359396012
 20
676.6945592305
 30
0.0
 11
444.6052332925
 21
702.6251217212
 31
0.0
  0
ELLIPSE
  5
365
330
1F
100
AcDbEntity
  8
0
  6
Continuous
 62
     7
370
    25
100
AcDbEllipse
 10
445.5292332925
 20
703.0393395894
 30
0.0
 11
-1.693489172284387
 21
1.965348643177549
 31
0.0
210
0.0
220
0.0
230
1.0
 40
0.3763854404
 41
6.17141550166494
 42
7.74221182845982
  0
LINE
  5
366
330
1F
100
AcDbEntity
  8
0
  6
Continuous
 62
     7
370
    25
100
AcDbLine
 10
443.9288183463
 20
705.063519314
 30
0.0
 11
620.6603545474
 21
678.6546592279
 31
0.0
  0
ELLIPSE
  5
367
330
1F
100
AcDbEntity
  8
0
  6
Continuous
 62
     7
370
    25
100
AcDbEllipse
 10
619.0599396012
 20
677.1087770986
 30
0.0
 11
1.836468951565166
 21
1.58243693581187
 31
0.0
210
0.0
220
0.0
230
1.0
 40
0.1302553102
 41
0.4118289700838209
 42
1.982625296878582
  0
LINE
  5
368
330
1F
100
AcDbEntity
  8
0
  6
Continuous
 62
     7
370
    25
100
AcDbLine
 10
620.6603545474
 20
678.6546592279
 30
0.0
 11
620.6603545474
 21
677.6346415554
 31
0.0
  0
ARC
  5
369
330
1F
100
AcDbEntity
  8
0
  6
Continuous
 62
     7
370
    25
100
AcDbCircle
 10
619.7290214422
 20
679.895751421
 30
0.0
 40
2.445403683940413
100
AcDbArc
 50
278.9611048994
 51
292.3863717334
  0
LINE
  5
36A
330
1F
100
AcDbEntity
  8
0
  6
Continuous
 62
     7
370
    25
100
AcDbLine
 10
620.109927153
 20
677.4801955809
 30
0.0
 11
620.109927153
 21
677.2251911627
 31
0.0
  0
ARC
  5
36B
330
1F
100
AcDbEntity
  8
0
  6
Continuous
 62
     7
370
    25
100
AcDbCircle
 10
619.7290214422
 20
679.6407470029
 30
0.0
 40
2.445403683932589
100
AcDbArc
 50
278.9611048994
 51
292.3863717334
  0
LINE
  5
36C
330
1F
100
AcDbEntity
  8
0
  6
Continuous
 62
     7
370
    25
100
AcDbLine
 10
620.6603545474
 20
677.3796371372
 30
0.0
 11
620.6603545474
 21
622.5536872371
 31
0.0
  0
ARC
  5
36D
330
1F
100
AcDbEntity
  8
0
  6
Continuous
 62
     7
370
    25
100
AcDbCircle
 10
619.7290214422
 20
624.8147971027
 30
0.0
 40
2.445403683943883
100
AcDbArc
 50
278.9611048994
 51
292.3863717334
  0
LINE
  5
36E
330
1F
100
AcDbEntity
  8
0
  6
Continuous
 62
     7
370
    25
100
AcDbLine
 10
620.109927153
 20
622.3992412626
 30
0.0
 11
620.109927153
 21
622.1442368444
 31
0.0
  0
ARC
  5
36F
330
1F
100
AcDbEntity
  8
0
  6
Continuous
 62
     7
370
    25
100
AcDbCircle
 10
619.7290214422
 20
624.5597926846
 30
0.0
 40
2.445403683955388
100
AcDbArc
 50
278.9611048995
 51
292.3863717334
  0
LINE
  5
370
330
1F
100
AcDbEntity
  8
0
  6
Continuous
 62
     7
370
    25
100
AcDbLine
 10
620.6603545474
 20
622.2986828189
 30
0.0
 11
620.6603545474
 21
621.2786651464
 31
0.0
  0
ELLIPSE
  5
371
330
1F
100
AcDbEntity
  8
0
  6
Continuous
 62
     7
370
    25
100
AcDbEllipse
 10
619.0599396012
 20
623.302844871
 30
0.0
 11
-1.693489172284445
 21
1.965348643177663
 31
0.0
210
0.0
220
0.0
230
1.0
 40
0.3763854404
 41
1.459026521280198
 42
3.029822848075105
  0
LINE
  5
372
330
1F
100
AcDbEntity
  8
0
  6
Continuous
 62
     7
370
    25
100
AcDbLine
 10
618.1359396012
 20
622.8886270029
 30
0.0
 11
618.1359396012
 21
676.6945592305
 31
0.0
  0
LINE
  5
373
330
1F
100
AcDbEntity
  8
0
  6
Continuous
 62
     7
370
    25
100
AcDbLine
 10
625.1177238408
 20
679.6328255448
 30
0.0
 11
625.5443545474
 21
679.5690744403
 31
0.0
  0
LINE
  5
374
330
1F
100
AcDbEntity
  8
0
  6
Continuous
 62
     7
370
    25
100
AcDbLine
 10
620.6603545474
 20
677.3796371372
 30
0.0
 11
625.5443545474
 21
679.5690744403
 31
0.0
  0
LINE
  5
375
330
1F
100
AcDbEntity
  8
0
  6
Continuous
 62
     7
370
    25
100
AcDbLine
 10
444.6052332925
 20
648.8191894936
 30
0.0
 11
618.1359396012
 21
622.8886270029
 31
0.0
  0
LINE
  5
376
330
1F
100
AcDbEntity
  8
0
  6
Continuous
 62
     7
370
    25
100
AcDbLine
 10
444.6052332925
 20
702.6251217212
 30
0.0
 11
444.6052332925
 21
648.8191894936
 31
0.0
  0
LINE
  5
377
330
1F
100
AcDbEntity
  8
0
  6
Continuous
 62
     7
370
    25
100
AcDbLine
 10
625.5443545474
 20
679.8240788584
 30
0.0
 11
625.5443545474
 21
680.844096531
 31
0.0
  0
LINE
  5
378
330
1F
100
AcDbEntity
  8
0
  6
Continuous
 62
     7
370
    25
100
AcDbLine
 10
620.6603545474
 20
678.6546592279
 30
0.0
 11
625.5443545474
 21
680.844096531
 31
0.0
  0
LINE
  5
379
330
1F
100
AcDbEntity
  8
0
  6
Continuous
 62
     7
370
    25
100
AcDbLine
 10
625.5443545474
 20
679.8240788584
 30
0.0
 11
620.6603545474
 21
677.6346415554
 31
0.0
  0
LINE
  5
37A
330
1F
100
AcDbEntity
  8
0
  6
Continuous
 62
     7
370
    25
100
AcDbLine
 10
625.5443545474
 20
680.844096531
 30
0.0
 11
448.8128183463
 21
707.252956617
 31
0.0
  0
LINE
  5
37B
330
1F
100
AcDbEntity
  8
0
  6
Continuous
 62
     7
370
    25
100
AcDbLine
 10
443.9288183463
 20
705.063519314
 30
0.0
 11
448.8128183463
 21
707.252956617
 31
0.0
  0
LINE
  5
37C
330
1F
100
AcDbEntity
  8
0
  6
Continuous
 62
     7
370
    25
100
AcDbLine
 10
625.5443545474
 20
624.7431245401
 30
0.0
 11
625.5443545474
 21
679.5690744403
 31
0.0
  0
LINE
  5
37D
330
1F
100
AcDbEntity
  8
0
  6
Continuous
 62
     7
370
    25
100
AcDbLine
 10
625.5443545474
 20
624.7431245401
 30
0.0
 11
620.6603545474
 21
622.5536872371
 31
0.0
  0
LWPOLYLINE
  5
37E
330
1F
100
AcDbEntity
  8
0
  6
Continuous
 62
     7
370
    25
100
AcDbPolyline
 90
       17
 70
   128
 43
0.0
 10
624.2243545474
 20
651.5643596785
 10
624.2494743017
 20
651.8195854713
 10
624.3210093096
 20
652.0584772063
 10
624.4280690147
 20
652.2446657825
 10
624.5543545474
 20
652.3498056768
 10
624.6806400801
 20
652.3578902936
 10
624.7876997852
 20
652.2676888231
 10
624.8592347931
 20
652.0929336216
 10
624.8843545474
 20
651.8602295844
 10
624.8592347931
 20
651.6050037916
 10
624.7876997852
 20
651.3661120566
 10
624.6806400801
 20
651.1799234805
 10
624.5543545474
 20
651.0747835861
 10
624.4280690147
 20
651.0666989694
 10
624.3210093096
 20
651.1569004398
 10
624.2494743017
 20
651.3316556413
 10
624.2243545474
 20
651.5643596785
  0
ELLIPSE
  5
37F
330
1F
100
AcDbEntity
  8
0
  6
Continuous
 62
     7
370
    25
100
AcDbEllipse
 10
445.5292332925
 20
649.2334073617
 30
0.0
 11
1.836468951565166
 21
1.58243693581187
 31
0.0
210
0.0
220
0.0
230
1.0
 40
0.1302553102
 41
1.982625296878445
 42
3.253362459105051
  0
LINE
  5
380
330
1F
100
AcDbEntity
  8
0
  6
Continuous
 62
     7
370
    25
100
AcDbLine
 10
625.1177238408
 20
624.5518712265
 30
0.0
 11
625.5443545474
 21
624.488120122
 31
0.0
  0
LINE
  5
381
330
1F
100
AcDbEntity
  8
0
  6
Continuous
 62
     7
370
    25
100
AcDbLine
 10
620.6603545474
 20
622.2986828189
 30
0.0
 11
625.5443545474
 21
624.488120122
 31
0.0
  0
LINE
  5
382
330
1F
100
AcDbEntity
  8
0
  6
Continuous
 62
     7
370
    25
100
AcDbLine
 10
625.5443545474
 20
623.4681024494
 30
0.0
 11
625.5443545474
 21
624.488120122
 31
0.0
  0
LINE
  5
383
330
1F
100
AcDbEntity
  8
0
  6
Continuous
 62
     7
370
    25
100
AcDbLine
 10
620.6603545474
 20
621.2786651464
 30
0.0
 11
625.5443545474
 21
623.4681024494
 31
0.0
  0
LWPOLYLINE
  5
384
330
1F
100
AcDbEntity
  8
0
  6
Continuous
 62
     7
370
    25
100
AcDbPolyline
 90
        8
 70
   128
 43
0.0
 10
521.4107223869
 20
600.5168389055
 10
521.3522299132
 20
600.3139902894
 10
521.152552329
 20
600.0947476501
 10
520.8164363172
 20
599.8869728358
 10
520.3530138355
 20
599.6963108941
 10
519.77487564
 20
599.5279419319
 10
519.0977292052
 20
599.3864403766
 10
518.3399719671
 20
599.2756506932
  0
LINE
  5
385
330
1F
100
AcDbEntity
  8
0
  6
Continuous
 62
     7
370
    25
100
AcDbLine
 10
518.3399719671
 20
617.5985791292
 30
0.0
 11
518.3399719671
 21
599.2756506932
 31
0.0
  0
ARC
  5
386
330
1F
100
AcDbEntity
  8
0
  6
Continuous
 62
     7
370
    25
100
AcDbCircle
 10
516.2608473073
 20
635.2555375514
 30
0.0
 40
17.77894654008197
100
AcDbArc
 50
272.6454453388
 51
276.7157113012
  0
LINE
  5
387
330
1F
100
AcDbEntity
  8
0
  6
Continuous
 62
     7
370
    25
100
AcDbLine
 10
517.0814404173
 20
617.4955384798
 30
0.0
 11
517.0814404173
 21
599.1726100439
 31
0.0
  0
ARC
  5
388
330
1F
100
AcDbEntity
  8
0
  6
Continuous
 62
     7
370
    25
100
AcDbCircle
 10
515.8633356142
 20
611.8710800766
 30
0.0
 40
12.75675979559393
100
AcDbArc
 50
249.2087343764
 51
275.4793506467
  0
LINE
  5
389
330
1F
100
AcDbEntity
  8
0
  6
Continuous
 62
     7
370
    25
100
AcDbLine
 10
511.3351393888
 20
618.2679714748
 30
0.0
 11
511.3351393888
 21
599.9450430388
 31
0.0
  0
ARC
  5
38A
330
1F
100
AcDbEntity
  8
0
  6
Continuous
 62
     7
370
    25
100
AcDbCircle
 10
511.8820084166
 20
619.3425314263
 30
0.0
 40
1.205713408340598
100
AcDbArc
 50
218.3940463921
 51
243.0273781981
  0
LINE
  5
38B
330
1F
100
AcDbEntity
  8
0
  6
Continuous
 62
     7
370
    25
100
AcDbLine
 10
510.9370208912
 20
618.5937034087
 30
0.0
 11
510.9370208912
 21
600.2707749727
 31
0.0
  0
LWPOLYLINE
  5
38C
330
1F
100
AcDbEntity
  8
0
  6
Continuous
 62
     7
370
    25
100
AcDbPolyline
 90
        3
 70
   128
 43
0.0
 10
510.9370208912
 20
600.2707749727
 10
510.8514007578
 20
600.4949336749
 10
510.8507223869
 20
600.5168389055
  0
SPLINE
  5
38D
330
1F
100
AcDbEntity
  8
0
  6
Continuous
 62
     7
370
    25
100
AcDbSpline
210
0.0
220
0.0
230
1.0
 70
     8
 71
     3
 72
     9
 73
     5
 74
     0
 42
0.000000001
 43
0.00000001
 40
0.0
 40
0.0
 40
0.0
 40
0.0
 40
0.0622188834796591
 40
1.0
 40
1.0
 40
1.0
 40
1.0
 10
518.0384693355754
 20
598.719930693181
 30
0.0
 10
518.0447279101012
 20
598.7314302979516
 30
0.0
 10
518.1453175410251
 20
598.9162552920294
 30
0.0
 10
518.24576976674
 20
599.1017227827257
 30
0.0
 10
518.3399719671278
 20
599.2756506932291
 30
0.0
  0
LINE
  5
38E
330
1F
100
AcDbEntity
  8
0
  6
Continuous
 62
     7
370
    25
100
AcDbLine
 10
517.3230127405
 20
599.305301787
 30
0.0
 11
518.0384693356
 21
598.7199306932
 31
0.0
  0
SPLINE
  5
38F
330
1F
100
AcDbEntity
  8
0
  6
Continuous
 62
     7
370
    25
100
AcDbSpline
210
0.0
220
0.0
230
1.0
 70
     8
 71
     3
 72
     9
 73
     5
 74
     0
 42
0.000000001
 43
0.00000001
 40
0.0
 40
0.0
 40
0.0
 40
0.0
 40
0.9136893684966448
 40
1.0
 40
1.0
 40
1.0
 40
1.0
 10
517.6967304114742
 20
605.3568579086132
 30
0.0
 10
517.5842920415853
 20
603.5118047373378
 30
0.0
 10
517.4612323084135
 20
601.4924607076364
 30
0.0
 10
517.3339946989443
 20
599.4790781104014
 30
0.0
 10
517.32301274052
 20
599.3053017869761
 30
0.0
  0
ARC
  5
390
330
1F
100
AcDbEntity
  8
0
  6
Continuous
 62
     7
370
    25
100
AcDbCircle
 10
515.8989389204
 20
609.072172075
 30
0.0
 40
10.49233440908156
100
AcDbArc
 50
249.8715192148
 51
274.8165658083
  0
SPLINE
  5
391
330
1F
100
AcDbEntity
  8
0
  6
Continuous
 62
     7
370
    25
100
AcDbSpline
210
0.0
220
0.0
230
1.0
 70
     8
 71
     3
 72
     9
 73
     5
 74
     0
 42
0.000000001
 43
0.00000001
 40
0.0
 40
0.0
 40
0.0
 40
0.0
 40
0.4785453229089787
 40
1.0
 40
1.0
 40
1.0
 40
1.0
 10
512.2882490194376
 20
599.2206747374477
 30
0.0
 10
512.1361173562279
 20
599.3360971599515
 30
0.0
 10
511.8182129573615
 20
599.5772914982475
 30
0.0
 10
511.5007052616837
 20
599.8190019784092
 30
0.0
 10
511.3351393887601
 20
599.9450430387913
 30
0.0
  0
SPLINE
  5
392
330
1F
100
AcDbEntity
  8
0
  6
Continuous
 62
     7
370
    25
100
AcDbSpline
210
0.0
220
0.0
230
1.0
 70
     8
 71
     3
 72
     9
 73
     5
 74
     0
 42
0.000000001
 43
0.00000001
 40
0.0
 40
0.0
 40
0.0
 40
0.0
 40
0.0622188834796572
 40
1.0
 40
1.0
 40
1.0
 40
1.0
 10
516.7799377857485
 20
598.6168900438079
 30
0.0
 10
516.7861963602742
 20
598.6283896485785
 30
0.0
 10
516.8867859911982
 20
598.8132146426562
 30
0.0
 10
516.987238216913
 20
598.9986821333525
 30
0.0
 10
517.081440417301
 20
599.1726100438558
 30
0.0
  0
LINE
  5
393
330
1F
100
AcDbEntity
  8
0
  6
Continuous
 62
     7
370
    25
100
AcDbLine
 10
511.3351393888
 20
599.9678758267
 30
0.0
 11
510.9370208912
 21
600.2707749727
 31
0.0
  0
ARC
  5
394
330
1F
100
AcDbEntity
  8
0
  6
Continuous
 62
     7
370
    25
100
AcDbCircle
 10
517.6876453491
 20
603.8601265964
 30
0.0
 40
5.152154053706569
100
AcDbArc
 50
273.904444488
 51
299.1355666104
  0
LWPOLYLINE
  5
395
330
1F
100
AcDbEntity
  8
0
  6
Continuous
 62
     7
370
    25
100
AcDbPolyline
 90
        3
 70
   128
 43
0.0
 10
517.0814404173
 20
600.1639574426
 10
517.2329965476
 20
600.1401434846
 10
517.3949185786
 20
600.1088449551
  0
ARC
  5
396
330
1F
100
AcDbEntity
  8
0
  6
Continuous
 62
     7
370
    25
100
AcDbCircle
 10
628.103891019
 20
631.5338273193
 30
0.0
 40
2.563407054476071
100
AcDbArc
 50
263.1999475658
 51
4.8141068255
  0
LINE
  5
397
330
1F
100
AcDbEntity
  8
0
  6
Continuous
 62
     7
370
    25
100
AcDbLine
 10
627.800371122
 20
628.9884528087
 30
0.0
 11
625.5443545474
 21
629.325567663
 31
0.0
  0
ARC
  5
398
330
1F
100
AcDbEntity
  8
0
  6
Continuous
 62
     7
370
    25
100
AcDbCircle
 10
461.8591237724
 20
702.5442978207
 30
0.0
 40
4.739270776921763
100
AcDbArc
 50
80.8264333078
 51
136.3457088844
  0
LINE
  5
399
330
1F
100
AcDbEntity
  8
0
  6
Continuous
 62
     7
370
    25
100
AcDbLine
 10
462.6146856042
 20
707.2229529496
 30
0.0
 11
624.9424872895
 21
682.9664320426
 31
0.0
  0
ARC
  5
39A
330
1F
100
AcDbEntity
  8
0
  6
Continuous
 62
     7
370
    25
100
AcDbCircle
 10
623.4029277809
 20
675.8749927948
 30
0.0
 40
7.256635176556232
100
AcDbArc
 50
358.9121202896
 51
77.7511024666
  0
LINE
  5
39B
330
1F
100
AcDbEntity
  8
0
  6
Continuous
 62
     7
370
    25
100
AcDbLine
 10
630.6582549545
 20
675.7372187403
 30
0.0
 11
630.6582549545
 21
662.7714577648
 31
0.0
  0
ARC
  5
39C
330
1F
100
AcDbEntity
  8
0
  6
Continuous
 62
     7
370
    25
100
AcDbCircle
 10
628.2362818837
 20
662.727943783
 30
0.0
 40
2.422363932627792
100
AcDbArc
 50
323.2388112273
 51
1.0292844848
  0
ARC
  5
39D
330
1F
100
AcDbEntity
  8
0
  6
Continuous
 62
     7
370
    25
100
AcDbCircle
 10
638.7630688857
 20
655.4087897395
 30
0.0
 40
10.40057035208635
100
AcDbArc
 50
145.6438130642
 51
214.3561869358
  0
ARC
  5
39E
330
1F
100
AcDbEntity
  8
0
  6
Continuous
 62
     7
370
    25
100
AcDbCircle
 10
627.5675565048
 20
647.8828789711
 30
0.0
 40
3.090759296342028
100
AcDbArc
 50
0.359520911
 51
32.4084315416
  0
LINE
  5
39F
330
1F
100
AcDbEntity
  8
0
  6
Continuous
 62
     7
370
    25
100
AcDbLine
 10
630.6582549545
 20
647.9022728133
 30
0.0
 11
630.6582549545
 21
631.7489566111
 31
0.0
  0
LINE
  5
3A0
330
1F
100
AcDbEntity
  8
0
  6
Continuous
 62
     7
370
    25
100
AcDbLine
 10
624.9424872895
 20
682.9664320426
 30
0.0
 11
625.6024872895
 21
683.2623019484
 31
0.0
  0
ARC
  5
3A1
330
1F
100
AcDbEntity
  8
0
  6
Continuous
 62
     7
370
    25
100
AcDbCircle
 10
624.0863151112
 20
676.2177948913
 30
0.0
 40
7.205821101862502
100
AcDbArc
 50
7.5399591639
 51
77.8536573702
  0
LINE
  5
3A2
330
1F
100
AcDbEntity
  8
0
  6
Continuous
 62
     7
370
    25
100
AcDbLine
 10
462.6146856042
 20
707.2229529496
 30
0.0
 11
463.2746856042
 21
707.5188228554
 31
0.0
  0
LINE
  5
3A3
330
1F
100
AcDbEntity
  8
0
  6
Continuous
 62
     7
370
    25
100
AcDbLine
 10
463.2746856042
 20
707.5188228554
 30
0.0
 11
625.6024872895
 21
683.2623019484
 31
0.0
  0
LINE
  5
3A4
330
1F
100
AcDbEntity
  8
0
  6
Continuous
 62
     7
370
    25
100
AcDbLine
 10
630.8369271511
 20
661.5740747577
 30
0.0
 11
630.1769271511
 21
661.2782048519
 31
0.0
  0
ARC
  5
3A5
330
1F
100
AcDbEntity
  8
0
  6
Continuous
 62
     7
370
    25
100
AcDbCircle
 10
629.0498600427
 20
662.9452963311
 30
0.0
 40
2.252522464507816
100
AcDbArc
 50
322.5008727478
 51
345.4186833057
  0
LINE
  5
3A6
330
1F
100
AcDbEntity
  8
0
  6
Continuous
 62
     7
370
    25
100
AcDbLine
 10
630.1769271511
 20
649.539374627
 30
0.0
 11
630.8369271511
 21
649.8352445328
 31
0.0
  0
ARC
  5
3A7
330
1F
100
AcDbEntity
  8
0
  6
Continuous
 62
     7
370
    25
100
AcDbCircle
 10
639.4230688857
 20
655.7046596453
 30
0.0
 40
10.40057035208672
100
AcDbArc
 50
145.6438130642
 51
214.3561869358
  0
ARC
  5
3A8
330
1F
100
AcDbEntity
  8
0
  6
Continuous
 62
     7
370
    25
100
AcDbCircle
 10
628.1787868884
 20
648.1574196251
 30
0.0
 40
3.14337495018024
100
AcDbArc
 50
13.9213080461
 51
32.260225154
  0
ARC
  5
3A9
330
1F
100
AcDbEntity
  8
0
  6
Continuous
 62
     7
370
    25
100
AcDbCircle
 10
628.7109649724
 20
631.7842592262
 30
0.0
 40
2.570573608872027
100
AcDbArc
 50
295.31887548
 51
348.4886204294
  0
ARC
  5
3AA
330
1F
100
AcDbEntity
  8
0
  6
Continuous
 62
     7
370
    25
100
AcDbCircle
 10
462.5213696063
 20
702.7741163469
 30
0.0
 40
4.804136222526807
100
AcDbArc
 50
80.9784633675
 51
113.9020499245
  0
ARC
  5
3AB
330
1F
100
AcDbEntity
  8
0
  6
Continuous
 62
     7
370
    25
100
AcDbCircle
 10
460.1160567788
 20
648.3775606372
 30
0.0
 40
25.4258393940433
100
AcDbArc
 50
268.6888914641
 51
271.6635795155
  0
LINE
  5
3AC
330
1F
100
AcDbEntity
  8
0
  6
Continuous
 62
     7
370
    25
100
AcDbLine
 10
459.5342839837
 20
598.7329582104
 30
0.0
 11
459.5342839837
 21
622.9583779338
 31
0.0
  0
LWPOLYLINE
  5
3AD
330
1F
100
AcDbEntity
  8
0
  6
Continuous
 62
     7
370
    25
100
AcDbPolyline
 90
        9
 70
   128
 43
0.0
 10
453.5575890106
 20
600.2435050984
 10
453.7793956209
 20
599.9569274797
 10
454.1867097886
 20
599.6843309503
 10
454.7676075436
 20
599.4336956718
 10
455.5050833215
 20
599.2123588982
 10
456.3775477945
 20
599.0268001807
 10
457.3594598916
 20
598.8824516816
 10
458.4220745031
 20
598.783539149
 10
459.5342839837
 20
598.7329582104
  0
LINE
  5
3AE
330
1F
100
AcDbEntity
  8
0
  6
Continuous
 62
     7
370
    25
100
AcDbLine
 10
453.5575890106
 20
600.2435050984
 30
0.0
 11
453.5575890106
 21
624.4689248218
 31
0.0
  0
ARC
  5
3AF
330
1F
100
AcDbEntity
  8
0
  6
Continuous
 62
     7
370
    25
100
AcDbCircle
 10
453.9900504113
 20
624.6626237933
 30
0.0
 40
0.4738587919127971
100
AcDbArc
 50
180.3255864743
 51
204.1275535177
  0
LINE
  5
3B0
330
1F
100
AcDbEntity
  8
0
  6
Continuous
 62
     7
370
    25
100
AcDbLine
 10
453.5419027603
 20
600.5851221141
 30
0.0
 11
453.5419027603
 21
624.5093203199
 31
0.0
  0
LINE
  5
3B1
330
1F
100
AcDbEntity
  8
0
  6
Continuous
 62
     7
370
    25
100
AcDbLine
 10
460.6981145566
 20
602.1360645002
 30
0.0
 11
460.6981145566
 21
605.5820480874
 31
0.0
  0
ARC
  5
3B2
330
1F
100
AcDbEntity
  8
0
  6
Continuous
 62
     7
370
    25
100
AcDbCircle
 10
466.2540259548
 20
624.6613076884
 30
0.0
 40
0.462175365465372
100
AcDbArc
 50
340.8008787553
 51
359.8293417461
  0
LINE
  5
3B3
330
1F
100
AcDbEntity
  8
0
  6
Continuous
 62
     7
370
    25
100
AcDbLine
 10
466.69049578
 20
600.2839005966
 30
0.0
 11
466.69049578
 21
624.5093203199
 31
0.0
  0
LWPOLYLINE
  5
3B4
330
1F
100
AcDbEntity
  8
0
  6
Continuous
 62
     7
370
    25
100
AcDbPolyline
 90
        9
 70
   128
 43
0.0
 10
460.8541907764
 20
598.7370181108
 10
461.9614416692
 20
598.7944258859
 10
463.0146737806
 20
598.8998465498
 10
463.9830541346
 20
599.050193952
 10
464.8382337584
 20
599.2410667287
 10
465.5551775882
 20
599.4668771505
 10
466.1128973615
 20
599.7210147018
 10
466.4950660405
 20
599.9960396008
 10
466.69049578
 20
600.2839005966
  0
LINE
  5
3B5
330
1F
100
AcDbEntity
  8
0
  6
Continuous
 62
     7
370
    25
100
AcDbLine
 10
460.8541907764
 20
598.7370181108
 30
0.0
 11
460.8541907764
 21
622.9624378342
 31
0.0
  0
LINE
  5
3B6
330
1F
100
AcDbEntity
  8
0
  6
Continuous
 62
     7
370
    25
100
AcDbLine
 10
460.8285095658
 20
605.7032925616
 30
0.0
 11
460.8285095658
 21
603.0557820686
 31
0.0
  0
LINE
  5
3B7
330
1F
100
AcDbEntity
  8
0
  6
Continuous
 62
     7
370
    25
100
AcDbLine
 10
460.8285095658
 20
605.3321916678
 30
0.0
 11
460.7237957673
 21
605.3362515681
 31
0.0
  0
LINE
  5
3B8
330
1F
100
AcDbEntity
  8
0
  6
Continuous
 62
     7
370
    25
100
AcDbLine
 10
460.7237957673
 20
605.3362515681
 30
0.0
 11
460.7237957673
 21
605.5829785727
 31
0.0
  0
LINE
  5
3B9
330
1F
100
AcDbEntity
  8
0
  6
Continuous
 62
     7
370
    25
100
AcDbLine
 10
460.8065289596
 20
602.5222935845
 30
0.0
 11
460.8065289596
 21
598.4999807085
 31
0.0
  0
SPLINE
  5
3BA
330
1F
100
AcDbEntity
  8
0
  6
Continuous
 62
     7
370
    25
100
AcDbSpline
210
0.0
220
0.0
230
1.0
 70
     8
 71
     3
 72
     9
 73
     5
 74
     0
 42
0.000000001
 43
0.00000001
 40
0.0
 40
0.0
 40
0.0
 40
0.0
 40
0.5731863123600512
 40
1.0
 40
1.0
 40
1.0
 40
1.0
 10
460.8285095658053
 20
603.0557820685933
 30
0.0
 10
460.8243173679003
 20
602.952618552145
 30
0.0
 10
460.817003519306
 20
602.7726360329821
 30
0.0
 10
460.8096622947447
 20
602.5971804352045
 30
0.0
 10
460.8065289596179
 20
602.5222935845
 30
0.0
  0
LINE
  5
3BB
330
1F
100
AcDbEntity
  8
0
  6
Continuous
 62
     7
370
    25
100
AcDbLine
 10
460.8384055425
 20
597.805768714
 30
0.0
 11
460.8541907764
 21
598.7370181108
 31
0.0
  0
LINE
  5
3BC
330
1F
100
AcDbEntity
  8
0
  6
Continuous
 62
     7
370
    25
100
AcDbLine
 10
460.8384055425
 20
597.805768714
 30
0.0
 11
460.8065289596
 21
598.4999807085
 31
0.0
  0
ARC
  5
3BD
330
1F
100
AcDbEntity
  8
0
  6
Continuous
 62
     7
370
    25
100
AcDbCircle
 10
458.9300051265
 20
605.7951085414
 30
0.0
 40
8.015033621333922
100
AcDbArc
 50
240.8775981217
 51
274.2106586518
  0
LINE
  5
3BE
330
1F
100
AcDbEntity
  8
0
  6
Continuous
 62
     7
370
    25
100
AcDbLine
 10
459.5342839837
 20
598.7329582104
 30
0.0
 11
459.5184987497
 21
597.8017088137
 31
0.0
  0
ARC
  5
3BF
330
1F
100
AcDbEntity
  8
0
  6
Continuous
 62
     7
370
    25
100
AcDbCircle
 10
461.385064115
 20
605.5289244157
 30
0.0
 40
7.742478258817389
100
AcDbArc
 50
265.9512562137
 51
299.5466291784
  0
LINE
  5
3C0
330
1F
100
AcDbEntity
  8
0
  6
Continuous
 62
     7
370
    25
100
AcDbLine
 10
453.5419027603
 20
600.5851221141
 30
0.0
 11
453.5575890106
 21
600.5701125573
 31
0.0
  0
LINE
  5
3C1
330
1F
100
AcDbEntity
  8
0
  6
Continuous
 62
     7
370
    25
100
AcDbLine
 10
460.7457763735
 20
603.8453705972
 30
0.0
 11
460.7237957673
 21
605.3362515681
 31
0.0
  0
LINE
  5
3C2
330
1F
100
AcDbEntity
  8
0
  6
Continuous
 62
     7
370
    25
100
AcDbLine
 10
460.7457763735
 20
599.8230577212
 30
0.0
 11
460.7457763735
 21
603.8453705972
 31
0.0
  0
LINE
  5
3C3
330
1F
100
AcDbEntity
  8
0
  6
Continuous
 62
     7
370
    25
100
AcDbLine
 10
460.7457763735
 20
599.8230577212
 30
0.0
 11
460.7138997906
 21
600.5172697157
 31
0.0
  0
LINE
  5
3C4
330
1F
100
AcDbEntity
  8
0
  6
Continuous
 62
     7
370
    25
100
AcDbLine
 10
460.6981145566
 20
602.1360645002
 30
0.0
 11
460.7138997906
 21
600.5172697157
 31
0.0
  0
LINE
  5
3C5
330
1F
100
AcDbEntity
  8
0
  6
Continuous
 62
     7
370
    25
100
AcDbLine
 10
460.8285095658
 20
603.839743064
 30
0.0
 11
460.7457763735
 21
603.8453705972
 31
0.0
  0
LINE
  5
3C6
330
1F
100
AcDbEntity
  8
0
  6
Continuous
 62
     7
370
    25
100
AcDbLine
 10
460.8065289596
 20
599.8189978209
 30
0.0
 11
460.7457763735
 21
599.8230577212
 31
0.0
  0
LINE
  5
3C7
330
1F
100
AcDbEntity
  8
0
  6
Continuous
 62
     7
370
    25
100
AcDbLine
 10
450.1646555468
 20
646.5684815074
 30
0.0
 11
450.0027799534
 21
646.6964104781
 31
0.0
  0
LWPOLYLINE
  5
3C8
330
1F
100
AcDbEntity
  8
0
  6
Continuous
 62
     7
370
    25
100
AcDbPolyline
 90
        3
 70
   128
 43
0.0
 10
459.5342839837
 20
606.2801464648
 10
459.721624376
 20
606.2756428014
 10
460.8384055425
 20
606.2846656172
  0
LWPOLYLINE
  5
3C9
330
1F
100
AcDbEntity
  8
0
  6
Continuous
 62
     7
370
    25
100
AcDbPolyline
 90
        3
 70
   128
 43
0.0
 10
459.5342839837
 20
605.5820480874
 10
460.0263562889
 20
605.5720294109
 10
460.8285095658
 20
605.5871983613
  0
ARC
  5
3CA
330
1F
100
AcDbEntity
  8
0
  6
Continuous
 62
     7
370
    25
100
AcDbCircle
 10
481.2652966217
 20
635.296476717
 30
0.0
 40
2.485831623251745
100
AcDbArc
 50
159.2393462193
 51
249.0528706834
  0
LINE
  5
3CB
330
1F
100
AcDbEntity
  8
0
  6
Continuous
 62
     7
370
    25
100
AcDbLine
 10
479.3811821344
 20
635.844871867
 30
0.0
 11
479.0762747233
 21
635.3013980653
 31
0.0
  0
LINE
  5
3CC
330
1F
100
AcDbEntity
  8
0
  6
Continuous
 62
     7
370
    25
100
AcDbLine
 10
479.0762747233
 20
635.3013980653
 30
0.0
 11
479.9012747233
 21
633.5843413245
 31
0.0
  0
LINE
  5
3CD
330
1F
100
AcDbEntity
  8
0
  6
Continuous
 62
     7
370
    25
100
AcDbLine
 10
479.9012747233
 20
633.5843413245
 30
0.0
 11
480.4213386152
 21
633.5066285696
 31
0.0
  0
LINE
  5
3CE
330
1F
100
AcDbEntity
  8
0
  6
Continuous
 62
     7
370
    25
100
AcDbLine
 10
480.4038213375
 20
633.8096268085
 30
0.0
 11
479.9012747233
 21
633.5843413245
 31
0.0
  0
LINE
  5
3CF
330
1F
100
AcDbEntity
  8
0
  6
Continuous
 62
     7
370
    25
100
AcDbLine
 10
479.0762747233
 20
635.3013980653
 30
0.0
 11
479.6539957894
 21
635.5603833341
 31
0.0
  0
LWPOLYLINE
  5
3D0
330
1F
100
AcDbEntity
  8
0
  6
Continuous
 62
     7
370
    25
100
AcDbPolyline
 90
       19
 70
   128
 43
0.0
 10
506.5748515633
 20
627.2042436834
 10
507.2695357602
 20
627.1128162826
 10
507.9185294735
 20
627.2924737381
 10
508.4435544833
 20
627.7215467092
 10
508.781285025
 20
628.3482826633
 10
508.8909858108
 20
629.0970879946
 10
508.759425307
 20
629.877645729
 10
508.4024716518
 20
630.5958090839
 10
507.8631787243
 20
631.1649569598
 10
507.2065932105
 20
631.516441723
 10
506.5119090137
 20
631.6078691238
 10
505.8629153004
 20
631.4282116683
 10
505.3378902905
 20
630.9991386971
 10
505.0001597489
 20
630.372402743
 10
504.8904589631
 20
629.6235974117
 10
505.0220194669
 20
628.8430396773
 10
505.3789731221
 20
628.1248763224
 10
505.9182660496
 20
627.5557284466
 10
506.5748515633
 20
627.2042436834
  0
LINE
  5
3D1
330
1F
100
AcDbEntity
  8
0
  6
Continuous
 62
     7
370
    25
100
AcDbLine
 10
507.9309955982
 20
630.6333912963
 30
0.0
 11
506.3016932094
 21
631.1674355668
 31
0.0
  0
LINE
  5
3D2
330
1F
100
AcDbEntity
  8
0
  6
Continuous
 62
     7
370
    25
100
AcDbLine
 10
506.3016932094
 20
631.1674355668
 30
0.0
 11
505.2614199982
 21
629.8943869737
 31
0.0
  0
LINE
  5
3D3
330
1F
100
AcDbEntity
  8
0
  6
Continuous
 62
     7
370
    25
100
AcDbLine
 10
505.2614199982
 20
629.8943869737
 30
0.0
 11
505.8504491757
 21
628.08729411
 31
0.0
  0
LINE
  5
3D4
330
1F
100
AcDbEntity
  8
0
  6
Continuous
 62
     7
370
    25
100
AcDbLine
 10
505.8504491757
 20
628.08729411
 30
0.0
 11
507.4797515645
 21
627.5532498395
 31
0.0
  0
LINE
  5
3D5
330
1F
100
AcDbEntity
  8
0
  6
Continuous
 62
     7
370
    25
100
AcDbLine
 10
507.4797515645
 20
627.5532498395
 30
0.0
 11
508.5200247757
 21
628.8262984327
 31
0.0
  0
LINE
  5
3D6
330
1F
100
AcDbEntity
  8
0
  6
Continuous
 62
     7
370
    25
100
AcDbLine
 10
508.5200247757
 20
628.8262984327
 30
0.0
 11
507.9309955982
 21
630.6333912963
 31
0.0
  0
LINE
  5
3D7
330
1F
100
AcDbEntity
  8
0
  6
Continuous
 62
     7
370
    25
100
AcDbLine
 10
507.2913189288
 20
630.843061191
 30
0.0
 11
507.2414199982
 21
630.7819966911
 31
0.0
  0
LINE
  5
3D8
330
1F
100
AcDbEntity
  8
0
  6
Continuous
 62
     7
370
    25
100
AcDbLine
 10
507.2414199982
 20
630.7819966911
 30
0.0
 11
505.2614199982
 21
629.8943869737
 31
0.0
  0
LINE
  5
3D9
330
1F
100
AcDbEntity
  8
0
  6
Continuous
 62
     7
370
    25
100
AcDbLine
 10
507.8304491757
 20
628.9749038274
 30
0.0
 11
505.8504491757
 21
628.08729411
 31
0.0
  0
LINE
  5
3DA
330
1F
100
AcDbEntity
  8
0
  6
Continuous
 62
     7
370
    25
100
AcDbLine
 10
507.8304491757
 20
628.9749038274
 30
0.0
 11
508.4701258451
 21
628.7652339328
 31
0.0
  0
LINE
  5
3DB
330
1F
100
AcDbEntity
  8
0
  6
Continuous
 62
     7
370
    25
100
AcDbLine
 10
507.2414199982
 20
630.7819966911
 30
0.0
 11
507.8304491757
 21
628.9749038274
 31
0.0
  0
LINE
  5
3DC
330
1F
100
AcDbEntity
  8
0
  6
Continuous
 62
     7
370
    25
100
AcDbLine
 10
517.0814404173
 20
605.7321099662
 30
0.0
 11
517.9376385592
 21
605.8150497499
 31
0.0
  0
LWPOLYLINE
  5
3DD
330
1F
100
AcDbEntity
  8
0
  6
Continuous
 62
     7
370
    25
100
AcDbPolyline
 90
        3
 70
   128
 43
0.0
 10
517.7291350312
 20
605.3423220445
 10
517.3897943768
 20
605.3000534075
 10
517.0814404173
 20
605.2716563335
  0
LINE
  5
3DE
330
1F
100
AcDbEntity
  8
0
  6
Continuous
 62
     7
370
    25
100
AcDbLine
 10
466.4755154965
 20
707.0405252601
 30
0.0
 11
466.4755154965
 21
707.5385475158
 31
0.0
  0
LINE
  5
3DF
330
1F
100
AcDbEntity
  8
0
  6
Continuous
 62
     7
370
    25
100
AcDbLine
 10
622.4016573971
 20
684.2386217995
 30
0.0
 11
622.4016573971
 21
683.7405995438
 31
0.0
  0
ARC
  5
3E0
330
1F
100
AcDbEntity
  8
0
  6
Continuous
 62
     7
370
    25
100
AcDbCircle
 10
634.6594975438
 20
655.6459482119
 30
0.0
 40
5.41684395684995
100
AcDbArc
 50
129.2827860724
 51
230.7172139276
  0
LINE
  5
3E1
330
1F
100
AcDbEntity
  8
0
  6
Continuous
 62
     7
370
    25
100
AcDbLine
 10
631.4517561897
 20
682.7639159719
 30
0.0
 11
631.3205629208
 21
682.9058764776
 31
0.0
  0
LINE
  5
3E2
330
1F
100
AcDbEntity
  8
0
  6
Continuous
 62
     7
370
    25
100
AcDbLine
 10
623.0616573971
 20
684.1399984976
 30
0.0
 11
623.0616573971
 21
683.6419762418
 31
0.0
  0
ARC
  5
3E3
330
1F
100
AcDbEntity
  8
0
  6
Continuous
 62
     7
370
    25
100
AcDbCircle
 10
635.4777062584
 20
656.0404414197
 30
0.0
 40
5.550418891010977
100
AcDbArc
 50
139.9359173256
 51
220.0640826744
  0
ARC
  5
3E4
330
1F
100
AcDbEntity
  8
0
  6
Continuous
 62
     7
370
    25
100
AcDbCircle
 10
630.2239255983
 20
630.6979564522
 30
0.0
 40
1.899231216133428
100
AcDbArc
 50
260.8093007943
 51
301.9810383256
  0
LINE
  5
3E5
330
1F
100
AcDbEntity
  8
0
  6
Continuous
 62
     7
370
    25
100
AcDbLine
 10
628.6708934704
 20
629.0098466813
 30
0.0
 11
629.9205785951
 21
628.8231071762
 31
0.0
  0
LINE
  5
3E6
330
1F
100
AcDbEntity
  8
0
  6
Continuous
 62
     7
370
    25
100
AcDbLine
 10
457.9902872326
 20
706.790426588
 30
0.0
 11
457.9902872326
 21
705.881574367
 31
0.0
  0
ARC
  5
3E7
330
1F
100
AcDbEntity
  8
0
  6
Continuous
 62
     7
370
    25
100
AcDbCircle
 10
460.2420100362
 20
706.8812317353
 30
0.0
 40
2.253553007840984
100
AcDbArc
 50
127.292747652
 51
182.3093136014
  0
ARC
  5
3E8
330
1F
100
AcDbEntity
  8
0
  6
Continuous
 62
     7
370
    25
100
AcDbCircle
 10
511.4554481904
 20
624.1206624464
 30
0.0
 40
11.61824693973715
100
AcDbArc
 50
358.9430452007
 51
77.7201775555
  0
ARC
  5
3E9
330
1F
100
AcDbEntity
  8
0
  6
Continuous
 62
     7
370
    25
100
AcDbCircle
 10
520.7487637839
 20
631.2765892574
 30
0.0
 40
7.727649165926441
100
AcDbArc
 50
260.4404372344
 51
287.4938243672
  0
ARC
  5
3EA
330
1F
100
AcDbEntity
  8
0
  6
Continuous
 62
     7
370
    25
100
AcDbCircle
 10
510.7590186416
 20
623.8215790291
 30
0.0
 40
8.707962211867688
100
AcDbArc
 50
358.9121202896
 51
77.7511024666
  0
ARC
  5
3EB
330
1F
100
AcDbEntity
  8
0
  6
Continuous
 62
     7
370
    25
100
AcDbCircle
 10
516.2175048237
 20
632.6623485638
 30
0.0
 40
3.626157301759878
100
AcDbArc
 50
129.1832235485
 51
185.2379913782
  0
LINE
  5
3EC
330
1F
100
AcDbEntity
  8
0
  6
Continuous
 62
     7
370
    25
100
AcDbLine
 10
519.4654112499
 20
623.0187391183
 30
0.0
 11
519.4654112499
 21
623.6562501636
 31
0.0
  0
LINE
  5
3ED
330
1F
100
AcDbEntity
  8
0
  6
Continuous
 62
     7
370
    25
100
AcDbLine
 10
428.0131286103
 20
636.6843846997
 30
0.0
 11
519.4654112499
 21
623.0187391183
 31
0.0
  0
LINE
  5
3EE
330
1F
100
AcDbEntity
  8
0
  6
Continuous
 62
     7
370
    25
100
AcDbLine
 10
428.0131286103
 20
644.9720282892
 30
0.0
 11
428.0131286103
 21
636.6843846997
 31
0.0
  0
LINE
  5
3EF
330
1F
100
AcDbEntity
  8
0
  6
Continuous
 62
     7
370
    25
100
AcDbLine
 10
512.6064900519
 20
632.3313061264
 30
0.0
 11
428.0131286103
 21
644.9720282892
 31
0.0
  0
LWPOLYLINE
  5
3F0
330
1F
100
AcDbEntity
  8
0
  6
Continuous
 62
     7
370
    25
100
AcDbPolyline
 90
       23
 70
   128
 43
0.0
 10
506.8907223869
 20
626.1409119241
 10
507.7039328954
 20
626.1498040591
 10
508.4512619248
 20
626.4187949411
 10
509.0721653218
 20
626.9260925288
 10
509.5163411857
 20
627.6305985885
 10
509.7478050297
 20
628.4752382293
 10
509.7478050297
 20
629.3915837706
 10
509.5163411857
 20
630.3053983464
 10
509.0721653218
 20
631.1426501344
 10
508.4512619248
 20
631.8355099742
 10
507.7039328954
 20
632.3278464821
 10
506.8907223869
 20
632.5797734822
 10
506.0775118785
 20
632.5708813473
 10
505.330182849
 20
632.3018904652
 10
504.7092794521
 20
631.7945928776
 10
504.2651035882
 20
631.0900868178
 10
504.0336397442
 20
630.2454471771
 10
504.0336397442
 20
629.3291016358
 10
504.2651035882
 20
628.4152870599
 10
504.7092794521
 20
627.5780352719
 10
505.330182849
 20
626.8851754321
 10
506.0775118785
 20
626.3928389243
 10
506.8907223869
 20
626.1409119241
  0
LWPOLYLINE
  5
3F1
330
1F
100
AcDbEntity
  8
0
  6
Continuous
 62
     7
370
    25
100
AcDbPolyline
 90
       23
 70
   128
 43
0.0
 10
477.7403072956
 20
630.4968364532
 10
478.553517804
 20
630.5057285881
 10
479.3008468335
 20
630.7747194702
 10
479.9217502304
 20
631.2820170579
 10
480.3659260943
 20
631.9865231176
 10
480.5973899383
 20
632.8311627583
 10
480.5973899383
 20
633.7475082996
 10
480.3659260943
 20
634.6613228755
 10
479.9217502304
 20
635.4985746635
 10
479.3008468335
 20
636.1914345033
 10
478.553517804
 20
636.6837710111
 10
477.7403072956
 20
636.9356980113
 10
476.9270967871
 20
636.9268058764
 10
476.1797677577
 20
636.6578149943
 10
475.5588643607
 20
636.1505174066
 10
475.1146884968
 20
635.4460113469
 10
474.8832246528
 20
634.6013717061
 10
474.8832246528
 20
633.6850261648
 10
475.1146884968
 20
632.771211589
 10
475.5588643607
 20
631.933959801
 10
476.1797677577
 20
631.2410999612
 10
476.9270967871
 20
630.7487634533
 10
477.7403072956
 20
630.4968364532
  0
LINE
  5
3F2
330
1F
100
AcDbEntity
  8
0
  6
Continuous
 62
     7
370
    25
100
AcDbLine
 10
538.9117183159
 20
631.0072265753
 30
0.0
 11
523.0717183159
 21
623.9063488357
 31
0.0
  0
LINE
  5
3F3
330
1F
100
AcDbEntity
  8
0
  6
Continuous
 62
     7
370
    25
100
AcDbLine
 10
523.0717183159
 20
623.9063488357
 30
0.0
 11
523.0717183159
 21
623.2688377904
 31
0.0
  0
ARC
  5
3F4
330
1F
100
AcDbEntity
  8
0
  6
Continuous
 62
     7
370
    25
100
AcDbCircle
 10
520.7487637839
 20
630.6390782121
 30
0.0
 40
7.727649165927993
100
AcDbArc
 50
260.4404372344
 51
287.4938243672
  0
LINE
  5
3F5
330
1F
100
AcDbEntity
  8
0
  6
Continuous
 62
     7
370
    25
100
AcDbLine
 10
538.9117183159
 20
630.3697155299
 30
0.0
 11
538.9117183159
 21
631.0072265753
 31
0.0
  0
LINE
  5
3F6
330
1F
100
AcDbEntity
  8
0
  6
Continuous
 62
     7
370
    25
100
AcDbLine
 10
523.0717183159
 20
623.2688377904
 30
0.0
 11
538.9117183159
 21
630.3697155299
 31
0.0
  0
ARC
  5
3F7
330
1F
100
AcDbEntity
  8
0
  6
Continuous
 62
     7
370
    25
100
AcDbCircle
 10
431.624143382
 20
645.3030707266
 30
0.0
 40
3.626157301760027
100
AcDbArc
 50
129.1832235485
 51
185.2379913782
  0
LINE
  5
3F8
330
1F
100
AcDbEntity
  8
0
  6
Continuous
 62
     7
370
    25
100
AcDbLine
 10
429.3331286103
 20
648.1138122823
 30
0.0
 11
513.9264900519
 21
635.4730901195
 31
0.0
  0
ARC
  5
3F9
330
1F
100
AcDbEntity
  8
0
  6
Continuous
 62
     7
370
    25
100
AcDbCircle
 10
459.1060064219
 20
673.4806140016
 30
0.0
 40
28.32847860232466
100
AcDbArc
 50
250.7959022269
 51
272.2065363661
  0
LWPOLYLINE
  5
3FA
330
1F
100
AcDbEntity
  8
0
  6
Continuous
 62
     7
370
    25
100
AcDbPolyline
 90
       21
 70
   128
 43
0.0
 10
478.0208072956
 20
631.1644655517
 10
478.7626404202
 20
631.1846624359
 10
479.4318577499
 20
631.4649792045
 10
479.9629516298
 20
631.9779764993
 10
480.3039348906
 20
632.6734385707
 10
480.4214297148
 20
633.4832887457
 10
480.3039348906
 20
634.3282532465
 10
479.9629516298
 20
635.1256210606
 10
479.4318577499
 20
635.7973402708
 10
478.7626404202
 20
636.2776583206
 10
478.0208072956
 20
636.5195583327
 10
477.2789741709
 20
636.4993614486
 10
476.6097568412
 20
636.2190446799
 10
476.0786629613
 20
635.7060473851
 10
475.7376797005
 20
635.0105853137
 10
475.6201848763
 20
634.2007351387
 10
475.7376797005
 20
633.3557706379
 10
476.0786629613
 20
632.5584028238
 10
476.6097568412
 20
631.8866836137
 10
477.2789741709
 20
631.4063655639
 10
478.0208072956
 20
631.1644655517
  0
ARC
  5
3FB
330
1F
100
AcDbEntity
  8
0
  6
Continuous
 62
     7
370
    25
100
AcDbCircle
 10
538.8185800494
 20
630.8200448634
 30
0.0
 40
0.4598600278711446
100
AcDbArc
 50
281.6853038369
 51
346.3287505543
  0
LWPOLYLINE
  5
3FC
330
1F
100
AcDbEntity
  8
0
  6
Continuous
 62
     7
370
    25
100
AcDbPolyline
 90
        7
 70
   128
 43
0.0
 10
428.0131286103
 20
636.6843846997
 10
427.5924556584
 20
636.7624056942
 10
427.2386757919
 20
636.8601686147
 10
426.9653845726
 20
636.973916487
 10
426.7830844289
 20
637.0992780443
 10
426.6987810529
 20
637.2314357121
 10
426.6931286103
 20
637.2761245113
  0
LWPOLYLINE
  5
3FD
330
1F
100
AcDbEntity
  8
0
  6
Continuous
 62
     8
370
    25
100
AcDbPolyline
 90
        6
 70
   128
 43
0.0
 10
624.7700391941
 20
651.8773116413
 10
624.7449194398
 20
651.6220858486
 10
624.6733844319
 20
651.3831941136
 10
624.5663247268
 20
651.1970055374
 10
624.4400391941
 20
651.0918656431
 10
624.4012731127
 20
651.0789013598
  0
ARC
  5
3FE
330
1F
100
AcDbEntity
  8
0
  6
Continuous
 62
     8
370
    25
100
AcDbCircle
 10
624.2285618459
 20
651.9549446367
 30
0.0
 40
0.5470142599137444
100
AcDbArc
 50
351.840958947
 51
48.2061795202
  0
LINE
  5
3FF
330
1F
100
AcDbEntity
  8
0
  6
Continuous
 62
     8
370
    25
100
AcDbLine
 10
630.6582549545
 20
675.7372187403
 30
0.0
 11
631.229831721
 21
675.9934495949
 31
0.0
  0
LINE
  5
400
330
1F
100
AcDbEntity
  8
0
  6
Continuous
 62
     8
370
    25
100
AcDbLine
 10
630.6582549545
 20
662.7714577648
 30
0.0
 11
631.229831721
 21
663.0276886194
 31
0.0
  0
LINE
  5
401
330
1F
100
AcDbEntity
  8
0
  6
Continuous
 62
     8
370
    25
100
AcDbLine
 10
631.229831721
 20
648.1585036679
 30
0.0
 11
630.6582549545
 21
647.9022728133
 31
0.0
  0
LINE
  5
402
330
1F
100
AcDbEntity
  8
0
  6
Continuous
 62
     8
370
    25
100
AcDbLine
 10
630.6582549545
 20
631.7489566111
 30
0.0
 11
631.229831721
 21
632.0051874657
 31
0.0
  0
LINE
  5
403
330
1F
100
AcDbEntity
  8
0
  6
Continuous
 62
     8
370
    25
100
AcDbLine
 10
513.9264900519
 20
635.4730901195
 30
0.0
 11
516.7225434514
 21
636.7265265679
 31
0.0
  0
LWPOLYLINE
  5
404
330
1F
100
AcDbEntity
  8
0
  6
Continuous
 62
     8
370
    25
100
AcDbPolyline
 90
        3
 70
   128
 43
0.0
 10
538.9117183159
 20
631.0072265753
 10
538.7727817493
 20
632.7992298619
 10
538.6541884108
 20
633.4492974121
  0
LINE
  5
405
330
1F
100
AcDbEntity
  8
0
  6
Continuous
 62
     8
370
    25
100
AcDbLine
 10
443.6812332925
 20
654.5458916474
 30
0.0
 11
429.3331286103
 21
648.1138122823
 31
0.0
  0
ARC
  5
406
330
1F
100
AcDbEntity
  8
0
  6
Continuous
 62
     8
370
    25
100
AcDbCircle
 10
538.8184813508
 20
631.4577093024
 30
0.0
 40
0.4600302371724244
100
AcDbArc
 50
281.6934723478
 51
346.2936140526
  0
ARC
  5
407
330
1F
100
AcDbEntity
  8
0
  6
Continuous
 62
     8
370
    25
100
AcDbCircle
 10
429.0318022111
 20
646.2159296789
 30
0.0
 40
1.921654489011559
100
AcDbArc
 50
80.9784633675
 51
113.9020499245
  0
LWPOLYLINE
  5
408
330
1F
100
AcDbEntity
  8
0
  6
Continuous
 62
     8
370
    25
100
AcDbPolyline
 90
        7
 70
   128
 43
0.0
 10
426.6931286103
 20
645.5637681009
 10
426.6987810529
 20
645.5190793017
 10
426.7830844289
 20
645.3869216339
 10
426.9653845726
 20
645.2615600766
 10
427.2386757919
 20
645.1478122042
 10
427.5924556584
 20
645.0500492837
 10
428.0131286103
 20
644.9720282892
  0
ENDSEC
  0
SECTION
  2
OBJECTS
  0
DICTIONARY
  5
C
330
0
100
AcDbDictionary
281
     1
  3
ACAD_GROUP
350
D
  3
ACAD_LAYOUT
350
1A
  3
ACAD_MLINESTYLE
350
17
  3
ACAD_PLOTSETTINGS
350
19
  3
ACAD_PLOTSTYLENAME
350
E
  3
ACAD_SCALELIST
350
47
  0
DICTIONARY
  5
D
102
{ACAD_REACTORS
330
C
102
}
330
C
100
AcDbDictionary
281
     1
  0
DICTIONARY
  5
1A
102
{ACAD_REACTORS
330
C
102
}
330
C
100
AcDbDictionary
281
     1
  3
Layout1
350
1E
  3
Layout2
350
26
  3
Model
350
22
  0
DICTIONARY
  5
17
102
{ACAD_REACTORS
330
C
102
}
330
C
100
AcDbDictionary
281
     1
  3
Standard
350
18
  0
DICTIONARY
  5
19
102
{ACAD_REACTORS
330
C
102
}
330
C
100
AcDbDictionary
281
     1
  0
ACDBDICTIONARYWDFLT
  5
E
102
{ACAD_REACTORS
330
C
102
}
330
C
100
AcDbDictionary
281
     1
  3
Normal
350
F
100
AcDbDictionaryWithDefault
340
F
  0
DICTIONARY
  5
47
102
{ACAD_REACTORS
330
C
102
}
330
C
100
AcDbDictionary
281
     1
  3
A0
350
48
  3
A1
350
49
  3
A2
350
4A
  3
A3
350
4B
  3
A4
350
4C
  3
A5
350
4D
  3
A6
350
4E
  3
A7
350
4F
  3
A8
350
50
  3
A9
350
51
  3
B0
350
52
  3
B1
350
53
  3
B2
350
54
  3
B3
350
55
  3
B4
350
56
  3
B5
350
57
  3
B6
350
58
  3
B7
350
59
  3
B8
350
5A
  3
B9
350
5B
  3
C0
350
5C
  3
C1
350
5D
  3
C2
350
5E
  3
C3
350
5F
  3
C4
350
60
  3
C5
350
61
  3
C6
350
62
  3
C7
350
63
  3
C8
350
64
  3
C9
350
65
  3
D0
350
66
  3
D1
350
67
  3
D2
350
68
  0
LAYOUT
  5
1E
102
{ACAD_REACTORS
330
1A
102
}
330
1A
100
AcDbPlotSettings
  1

  2
none_device
  4

  6

 40
0.0
 41
0.0
 42
0.0
 43
0.0
 44
0.0
 45
0.0
 46
0.0
 47
0.0
 48
0.0
 49
0.0
140
0.0
141
0.0
142
1.0
143
1.0
 70
   688
 72
     1
 73
     0
 74
     5
  7

 75
    16
147
1.0
148
0.0
149
0.0
100
AcDbLayout
  1
Layout1
 70
     1
 71
     1
 10
0.0
 20
0.0
 11
420.0
 21
297.0
 12
0.0
 22
0.0
 32
0.0
 14
1.0000000000E+20
 24
1.0000000000E+20
 34
1.0000000000E+20
 15
-1.0000000000E+20
 25
-1.0000000000E+20
 35
-1.0000000000E+20
146
0.0
 13
0.0
 23
0.0
 33
0.0
 16
1.0
 26
0.0
 36
0.0
 17
0.0
 27
1.0
 37
0.0
 76
     0
330
1B
  0
LAYOUT
  5
26
102
{ACAD_REACTORS
330
1A
102
}
330
1A
100
AcDbPlotSettings
  1

  2
none_device
  4

  6

 40
0.0
 41
0.0
 42
0.0
 43
0.0
 44
0.0
 45
0.0
 46
0.0
 47
0.0
 48
0.0
 49
0.0
140
0.0
141
0.0
142
1.0
143
1.0
 70
   688
 72
     1
 73
     0
 74
     5
  7

 75
    16
147
1.0
148
0.0
149
0.0
100
AcDbLayout
  1
Layout2
 70
     1
 71
     2
 10
0.0
 20
0.0
 11
0.0
 21
0.0
 12
0.0
 22
0.0
 32
0.0
 14
0.0
 24
0.0
 34
0.0
 15
0.0
 25
0.0
 35
0.0
146
0.0
 13
0.0
 23
0.0
 33
0.0
 16
1.0
 26
0.0
 36
0.0
 17
0.0
 27
1.0
 37
0.0
 76
     0
330
23
  0
LAYOUT
  5
22
102
{ACAD_REACTORS
330
1A
102
}
330
1A
100
AcDbPlotSettings
  1

  2
none_device
  4
Letter_(8.50_x_11.00_Inches)
  6

 40
6.35
 41
6.35
 42
6.35000508
 43
6.35000508
 44
215.9
 45
279.4
 46
0.0
 47
0.0
 48
0.0
 49
0.0
140
0.0
141
0.0
142
1.0
143
1.0
 70
  1712
 72
     1
 73
     0
 74
     0
  7

 75
     0
147
1.0
148
0.0
149
0.0
100
AcDbLayout
  1
Model
 70
     1
 71
     0
 10
0.0
 20
0.0
 11
693.0
 21
980.1
 12
0.0
 22
0.0
 32
0.0
 14
0.0
 24
0.0
 34
0.0
 15
693.0
 25
980.1
 35
0.0
146
0.0
 13
0.0
 23
0.0
 33
0.0
 16
1.0
 26
0.0
 36
0.0
 17
0.0
 27
1.0
 37
0.0
 76
     0
330
1F
331
29
  0
MLINESTYLE
  5
18
102
{ACAD_REACTORS
330
17
102
}
330
17
100
AcDbMlineStyle
  2
Standard
 70
     0
  3

 62
   256
 51
90.0
 52
90.0
 71
     2
 49
0.5
 62
   256
  6
BYLAYER
 49
-0.5
 62
   256
  6
BYLAYER
  0
ACDBPLACEHOLDER
  5
F
102
{ACAD_REACTORS
330
E
102
}
330
E
  0
SCALE
  5
48
102
{ACAD_REACTORS
330
47
102
}
330
47
100
AcDbScale
 70
     0
300
1:1
140
1.0
141
1.0
290
     1
  0
SCALE
  5
49
102
{ACAD_REACTORS
330
47
102
}
330
47
100
AcDbScale
 70
     0
300
1:2
140
1.0
141
2.0
290
     0
  0
SCALE
  5
4A
102
{ACAD_REACTORS
330
47
102
}
330
47
100
AcDbScale
 70
     0
300
1:4
140
1.0
141
4.0
290
     0
  0
SCALE
  5
4B
102
{ACAD_REACTORS
330
47
102
}
330
47
100
AcDbScale
 70
     0
300
1:5
140
1.0
141
5.0
290
     0
  0
SCALE
  5
4C
102
{ACAD_REACTORS
330
47
102
}
330
47
100
AcDbScale
 70
     0
300
1:8
140
1.0
141
8.0
290
     0
  0
SCALE
  5
4D
102
{ACAD_REACTORS
330
47
102
}
330
47
100
AcDbScale
 70
     0
300
1:10
140
1.0
141
10.0
290
     0
  0
SCALE
  5
4E
102
{ACAD_REACTORS
330
47
102
}
330
47
100
AcDbScale
 70
     0
300
1:16
140
1.0
141
16.0
290
     0
  0
SCALE
  5
4F
102
{ACAD_REACTORS
330
47
102
}
330
47
100
AcDbScale
 70
     0
300
1:20
140
1.0
141
20.0
290
     0
  0
SCALE
  5
50
102
{ACAD_REACTORS
330
47
102
}
330
47
100
AcDbScale
 70
     0
300
1:30
140
1.0
141
30.0
290
     0
  0
SCALE
  5
51
102
{ACAD_REACTORS
330
47
102
}
330
47
100
AcDbScale
 70
     0
300
1:40
140
1.0
141
40.0
290
     0
  0
SCALE
  5
52
102
{ACAD_REACTORS
330
47
102
}
330
47
100
AcDbScale
 70
     0
300
1:50
140
1.0
141
50.0
290
     0
  0
SCALE
  5
53
102
{ACAD_REACTORS
330
47
102
}
330
47
100
AcDbScale
 70
     0
300
1:100
140
1.0
141
100.0
290
     0
  0
SCALE
  5
54
102
{ACAD_REACTORS
330
47
102
}
330
47
100
AcDbScale
 70
     0
300
2:1
140
2.0
141
1.0
290
     0
  0
SCALE
  5
55
102
{ACAD_REACTORS
330
47
102
}
330
47
100
AcDbScale
 70
     0
300
4:1
140
4.0
141
1.0
290
     0
  0
SCALE
  5
56
102
{ACAD_REACTORS
330
47
102
}
330
47
100
AcDbScale
 70
     0
300
8:1
140
8.0
141
1.0
290
     0
  0
SCALE
  5
57
102
{ACAD_REACTORS
330
47
102
}
330
47
100
AcDbScale
 70
     0
300
10:1
140
10.0
141
1.0
290
     0
  0
SCALE
  5
58
102
{ACAD_REACTORS
330
47
102
}
330
47
100
AcDbScale
 70
     0
300
100:1
140
100.0
141
1.0
290
     0
  0
SCALE
  5
59
102
{ACAD_REACTORS
330
47
102
}
330
47
100
AcDbScale
 70
     0
300
1/128" = 1'-0"
140
0.0078125
141
12.0
290
     0
  0
SCALE
  5
5A
102
{ACAD_REACTORS
330
47
102
}
330
47
100
AcDbScale
 70
     0
300
1/64" = 1'-0"
140
0.015625
141
12.0
290
     0
  0
SCALE
  5
5B
102
{ACAD_REACTORS
330
47
102
}
330
47
100
AcDbScale
 70
     0
300
1/32" = 1'-0"
140
0.03125
141
12.0
290
     0
  0
SCALE
  5
5C
102
{ACAD_REACTORS
330
47
102
}
330
47
100
AcDbScale
 70
     0
300
1/16" = 1'-0"
140
0.0625
141
12.0
290
     0
  0
SCALE
  5
5D
102
{ACAD_REACTORS
330
47
102
}
330
47
100
AcDbScale
 70
     0
300
3/32" = 1'-0"
140
0.09375
141
12.0
290
     0
  0
SCALE
  5
5E
102
{ACAD_REACTORS
330
47
102
}
330
47
100
AcDbScale
 70
     0
300
1/8" = 1'-0"
140
0.125
141
12.0
290
     0
  0
SCALE
  5
5F
102
{ACAD_REACTORS
330
47
102
}
330
47
100
AcDbScale
 70
     0
300
3/16" = 1'-0"
140
0.1875
141
12.0
290
     0
  0
SCALE
  5
60
102
{ACAD_REACTORS
330
47
102
}
330
47
100
AcDbScale
 70
     0
300
1/4" = 1'-0"
140
0.25
141
12.0
290
     0
  0
SCALE
  5
61
102
{ACAD_REACTORS
330
47
102
}
330
47
100
AcDbScale
 70
     0
300
3/8" = 1'-0"
140
0.375
141
12.0
290
     0
  0
SCALE
  5
62
102
{ACAD_REACTORS
330
47
102
}
330
47
100
AcDbScale
 70
     0
300
1/2" = 1'-0"
140
0.5
141
12.0
290
     0
  0
SCALE
  5
63
102
{ACAD_REACTORS
330
47
102
}
330
47
100
AcDbScale
 70
     0
300
3/4" = 1'-0"
140
0.75
141
12.0
290
     0
  0
SCALE
  5
64
102
{ACAD_REACTORS
330
47
102
}
330
47
100
AcDbScale
 70
     0
300
1" = 1'-0"
140
1.0
141
12.0
290
     0
  0
SCALE
  5
65
102
{ACAD_REACTORS
330
47
102
}
330
47
100
AcDbScale
 70
     0
300
1-1/2" = 1'-0"
140
1.5
141
12.0
290
     0
  0
SCALE
  5
66
102
{ACAD_REACTORS
330
47
102
}
330
47
100
AcDbScale
 70
     0
300
3" = 1'-0"
140
3.0
141
12.0
290
     0
  0
SCALE
  5
67
102
{ACAD_REACTORS
330
47
102
}
330
47
100
AcDbScale
 70
     0
300
6" = 1'-0"
140
6.0
141
12.0
290
     0
  0
SCALE
  5
68
102
{ACAD_REACTORS
330
47
102
}
330
47
100
AcDbScale
 70
     0
300
1'-0" = 1'-0"
140
12.0
141
12.0
290
     0
  0
ENDSEC
  0
EOF
